#TITLE:Xuxa;
#SUBTITLE:;
#ARTIST:☺;
#TITLETRANSLIT:;
#SUBTITLETRANSLIT:;
#ARTISTTRANSLIT:Smiley;
#GENRE:VARIETY;
#CREDIT:MUINELIM;
#BANNER:Xuxa.png;
#BACKGROUND:Xuxa-bg.png;
#LYRICSPATH:;
#CDTITLE:;
#MUSIC:Xuxa.MP3;
#OFFSET:-0.031000;
#SAMPLESTART:12.020000;
#SAMPLELENGTH:12.000000;
#SELECTABLE:YES;
#BPMS:0.000000=160;
#STOPS:
;
#BGCHANGES:0.000=Xuxa.mpg=1.000=1=0=0=StretchNoLoop==CrossFade==,
99999=-nosongbg-=1.000=0=0=0 // don't automatically add -songbackground-
;
#KEYSOUNDS:;
#ATTACKS:;

//---------------dance-single - ----------------
#NOTES:
     dance-single:
     :
     Hard:
     14:
     0.690005,0.791869,0.394101,0.210798,0.458257,527.000000,484.000000,43.000000,23.000000,0.000000,0.000000,0.690005,0.791869,0.394101,0.210798,0.458257,527.000000,484.000000,43.000000,23.000000,0.000000,0.000000:
// measure 0
0000
0000
0000
0000
,  // measure 1
0000
0000
0000
0000
,  // measure 2
0000
0000
0000
0000
,  // measure 3
0000
0000
0000
0000
,  // measure 4
1000
1000
0001
0001
,  // measure 5
0100
0000
0100
0000
0010
0000
0010
1000
,  // measure 6
1001
0010
1000
0100
,  // measure 7
0101
0000
0000
0000
2020
0000
0000
0000
3030
0000
1000
0001
1000
0000
0001
0000
,  // measure 8
1000
0000
0010
0100
0010
0000
1000
0010
1000
0000
0100
1000
0100
0000
0010
0000
,  // measure 9
0000
0010
0001
0100
0000
0010
0110
0000
,  // measure 10
0100
0000
0001
0010
0001
0000
1000
0001
1000
0000
0010
1000
0010
0000
0100
0000
,  // measure 11
0000
0000
0101
0000
0000
0000
0001
0000
1000
0000
0010
0100
0010
0100
0010
0100
,  // measure 12
0010
0000
1000
0100
1000
0000
0001
0100
0001
0000
0100
0010
0100
0000
0001
0000
,  // measure 13
0000
0010
0000
1000
0100
0000
0011
0000
,  // measure 14
0001
0000
1000
0010
1000
0000
0001
0100
0001
0000
1000
0001
1000
0000
0100
0000
,  // measure 15
0000
0000
0010
0000
0000
0100
0010
0000
0001
0000
0000
0100
0010
0000
1010
0000
,  // measure 16
0001
0000
0010
0001
0100
0000
0010
0100
0010
0000
1000
0100
0010
0000
0001
0000
,  // measure 17
0100
0010
1000
0001
0010
0100
0100
0000
,  // measure 18
1100
0000
1000
0010
0100
0000
0010
0100
0010
0000
0100
0001
1000
0000
0010
0000
,  // measure 19
0000
0000
1010
0000
0000
0000
1000
0000
0001
0000
0010
0100
0010
0100
0010
0100
,  // measure 20
0010
0000
0100
0010
0001
0000
0100
0010
0100
0000
0010
1000
0001
0000
0100
0000
,  // measure 21
0010
1000
0001
0010
0100
0000
1100
0000
,  // measure 22
1000
0000
0010
0100
0001
0000
1000
0001
1000
0000
0100
0010
0001
0000
0100
0000
,  // measure 23
0000
0000
1000
0000
0000
0010
0000
0000
0100
0000
0000
0001
1000
0000
0001
0000
,  // measure 24
0011
0000
1010
0000
,  // measure 25
1100
0000
0000
0000
0100
0010
0100
0010
0002
0000
0000
0000
1003
0000
0000
0000
,  // measure 26
1000
0000
0010
0100
0010
0000
1000
0000
0001
0000
0010
0000
0100
0000
0001
0000
,  // measure 27
0000
0000
0100
0000
1000
0000
0010
0000
0100
0001
0100
0000
0010
0000
1000
0000
,  // measure 28
0001
0000
0000
0000
0101
0000
0000
0000
1000
0000
0000
0010
0000
0000
0100
0000
,  // measure 29
0000
0000
0100
0000
0001
0000
1000
0000
0010
0100
0010
0000
0001
0000
0100
0000
,  // measure 30
1000
0000
0000
0000
1100
0000
0000
0000
0010
0000
0000
0100
0000
0000
0001
0000
,  // measure 31
0000
0000
2002
0000
0000
0000
3003
0000
0100
0000
0000
0000
0110
0000
0010
1000
,  // measure 32
0200
0000
0300
0000
0020
0000
0000
0032
,  // measure 33
0000
0000
0000
0000
1003
0000
0000
0000
1000
0010
1000
0000
0001
0100
0001
0000
,  // measure 34
0010
0000
0100
1000
0010
0000
0100
0000
0001
0000
1000
0100
0010
0000
0001
0000
,  // measure 35
0100
0000
0010
1000
0001
0000
0010
0000
0100
0000
1000
0010
0200
0000
0300
0000
,  // measure 36
0001
0000
1000
0100
0010
0000
0001
0000
1000
0000
0010
0100
0001
0000
1000
0000
,  // measure 37
0010
0000
0100
0001
0010
0000
0100
0000
1000
0000
0010
0100
0002
0000
0003
0000
,  // measure 38
0010
0000
0100
1000
0010
0000
0100
0000
0001
0000
0010
0100
1000
0000
0010
0000
,  // measure 39
0100
0000
0001
1000
0100
0000
0010
0000
0001
0000
1000
0010
0100
0000
0001
0000
,  // measure 40
2000
0000
3010
0100
0002
0000
0013
0100
,  // measure 41
0000
0100
1000
0010
0001
0100
1100
0000
,  // measure 42
1001
0000
0001
0100
0010
0000
1000
0010
,  // measure 43
0200
0000
0000
0000
0000
0000
0301
0010
0100
0000
0000
0000
0110
0000
0000
0000
,  // measure 44
0010
0100
0010
0100
1000
0000
0010
0000
0001
0000
0000
0100
0000
0000
1000
0000
,  // measure 45
0010
0100
0001
0100
0010
0100
0001
0100
0020
0000
0000
0000
0000
0000
0000
0000
,  // measure 46
1030
0000
1000
0100
0010
0000
0001
0010
,  // measure 47
0200
0000
0000
0000
0000
0000
1300
0010
0100
0000
0000
0000
0101
0000
0000
0000
,  // measure 48
0001
1000
0010
0100
0001
0000
1000
0000
0100
0000
0000
0010
0000
0000
0002
0000
,  // measure 49
0000
0000
0103
0110
,  // measure 50
1000
0101
1000
0011
,  // measure 51
1000
0000
0101
0000
1001
0000
1000
0010
,  // measure 52
0001
1100
0001
1010
,  // measure 53
0001
0101
1001
0000
,  // measure 54
2000
0000
0000
3000
,  // measure 55
0020
0000
0000
0030
,  // measure 56
0002
0003
0200
0300
,  // measure 57
2000
0000
0000
0000
3001
0000
0000
0000
0001
1000
0001
1000
0001
1000
0001
1000
,  // measure 58
0001
0000
0100
0010
0100
0000
0010
1000
0010
0000
1000
0100
1000
0000
0001
0000
,  // measure 59
0000
0001
0010
0100
0000
1000
1001
0000
,  // measure 60
0001
0000
0100
0010
0100
0000
0010
1000
0010
0000
0100
0001
0100
0000
1000
0000
,  // measure 61
0000
0000
0010
0000
0000
0001
0000
0000
1000
0000
0000
0010
0100
0000
0101
0000
,  // measure 62
1000
0000
0001
0010
0100
0000
0010
0001
0010
0000
0001
0100
0010
0000
0001
0000
,  // measure 63
0010
1000
0100
0010
0001
0100
0110
0000
,  // measure 64
1000
0000
0010
0100
0001
0000
0010
0100
0010
0000
0100
1000
0010
0000
0100
0000
,  // measure 65
0000
0000
1100
0000
0000
0000
0001
0000
1000
0000
0100
0010
0100
0010
0100
0010
,  // measure 66
0001
0000
0100
0010
1000
0000
0010
0100
0010
0000
0100
0001
0010
0000
1000
0000
,  // measure 67
0001
0100
1000
0010
0110
0000
1001
0000
,  // measure 68
0100
0000
0001
1000
0100
0000
1000
0001
0010
0000
0100
0010
0001
0000
1000
0000
,  // measure 69
0000
0000
1100
0000
0000
1010
0000
0000
0101
0000
0000
0001
0010
0000
0001
0000
,  // measure 70
0011
0000
1010
0000
,  // measure 71
0110
0000
0000
0000
0010
1000
0001
0100
0010
0000
0000
0000
2002
0000
0000
0000
,  // measure 72
3003
0000
0000
0000
;

//---------------dance-double - ----------------
#NOTES:
     dance-double:
     :
     Hard:
     14:
     0.658581,0.690479,0.329945,0.091651,0.247459,503.000000,467.000000,36.000000,10.000000,0.000000,0.000000,0.658581,0.690479,0.329945,0.091651,0.247459,503.000000,467.000000,36.000000,10.000000,0.000000,0.000000:
00000000
00000000
00000000
00000000
,
00000000
00000000
00000000
00000000
,
00000000
00000000
00000000
00000000
,
00000000
00000000
00000000
00000000
,
10000000
01000000
00010000
00001000
,
00000010
00000000
00000001
00000000
00000100
00000000
00001000
00010000
,
00001000
01001000
00010000
00010100
,
00001000
00000000
00000000
00000000
00022000
00000000
00000000
00000000
00033000
00000000
00010000
00001000
00010000
00000000
00001000
00010000
,
00001000
00010000
01000000
10000000
00010000
00100000
01000000
00010000
,
00000000
00010000
00001000
00000010
00000000
00000001
00000101
00000000
,
00001000
00000100
00000010
00001000
00010000
00000100
00000010
00000001
,
00000000
00000000
00001100
00000000
00000000
00000000
00001000
00000000
00000010
00000000
00010000
00001000
00010000
00001000
00010000
00001000
,
00010000
00100000
10000000
00010000
00100000
01000000
10000000
00100000
,
00000000
00010000
00000000
00001000
00000010
00000000
00000110
00000000
,
00000001
00000100
00001000
00010000
00000010
00000100
00000001
00001000
,
00000000
00000000
00000010
00000000
00000000
00010000
00000000
00000000
00001000
00000000
00000000
00010000
01000000
00000000
01000000
00000000
,
10000000
00100000
01000000
00010000
00100000
01000000
10000000
00100000
,
00010000
00001000
00010000
00100000
00010000
00001000
00010000
00000100
,
00001000
00000010
00000100
00000001
00000010
00000100
00001000
00000010
,
00000100
00000000
00000001
00000000
00000010
00000000
00000100
00000000
00010000
00000000
00001000
00010000
00001000
00010000
00001000
00010000
,
00001000
00100000
01000000
10000000
00100000
01000000
00010000
00100000
,
01000000
00010000
00001000
00010000
01000000
00010000
00001000
00010000
,
00000100
00000010
00000001
00000100
00001000
00010000
00000100
00001000
,
00010000
00000000
00100000
00000000
00001000
00000000
00010000
00000000
01000000
00000000
00000000
10000000
00100000
00000000
01000000
00000000
,
01100000
00000000
00011000
00000000
,
00000110
00000000
00000000
00000000
00000010
00000100
00000010
00000000
00002000
00000000
00000000
00000000
00003001
00000000
00000000
00000000
,
00000001
00000010
00000100
00000001
00000100
00001000
00000001
00000010
,
00000000
00000010
00001000
00010000
00100000
00010000
00001000
01000000
,
00100000
00000000
00000000
00000000
10100000
00000000
00000000
00000000
00010000
00000000
00000000
00100000
00000000
00000000
02000000
00000000
,
00000000
03010000
00001000
00100000
00010000
00100000
00001000
00000010
,
00000001
00000000
00000000
00000000
00001001
00000000
00000000
00000000
00001000
00000000
00000000
00000010
00000000
00000000
00010000
00000000
,
00000000
00000000
00022000
00000000
00000000
00000000
00033000
00000000
00101000
00000000
00000000
00000000
00010010
00000000
00010000
00001000
,
00010000
00000000
00000000
00000000
01010000
00000000
00000000
11000000
,
00000000
00000000
00000000
00000000
10010000
00000000
00000000
00000000
00010000
01000000
00010000
00000000
10000000
00100000
10000000
00000000
,
01000000
00100000
00010000
01000000
00001000
00010000
00000100
00000010
,
00000001
00000000
00001000
00000000
00000010
00000000
00010000
00000000
00001000
00000000
00100000
00000000
01000000
00000000
10000000
00100000
,
01000000
00010000
00100000
01000000
00010000
00001000
00000010
00000001
,
00001000
00000000
00000010
00000000
00000100
00000000
00000001
00000000
00000010
00000000
00000100
00000000
00001000
00000000
00000010
00000100
,
00000001
00001000
00000100
00000010
00001000
00010000
01000000
10000000
,
00100000
00000000
01000000
00000000
00010000
00000000
10000000
00000000
01000000
00000000
00100000
00000000
00010000
00000000
01000000
00001000
,
00010000
00000100
00001000
00000010
00000100
00000001
00001000
00000100
,
00000010
00000000
00000001
00000000
00000100
00000000
00000010
00000000
00010000
00000000
00001000
01000000
00001000
00000000
00010000
00000100
,
00010000
00000000
00001000
00010000
00100000
00000000
00010000
00100000
,
20000000
00000000
00000000
00000000
00000000
00000000
31000000
00100000
01000000
00000000
00000000
00000000
00010000
00000000
00000000
00000000
,
00001000
00000000
00100000
00000000
01000000
00000000
00010000
00000000
00001000
00000000
00000000
00000010
00000000
00000000
00000001
00000000
,
00000100
00000010
00000100
00000000
00000010
00001000
00000010
00001000
00000010
00000000
00000000
00000000
00000000
00000000
00000000
00000000
,
00001001
00000000
00000001
00000010
00001000
00000000
00000010
00001000
,
00020000
00000000
00000000
00000000
00000000
00000000
00130000
01000000
00100000
00000000
00000000
00000000
10100000
00000000
00000000
00000000
,
10000000
01000000
10000000
01000000
00100000
00000000
00010000
00000000
01000000
00000000
00000000
00001000
00000000
00000000
00020000
00000000
,
00000000
00030000
00010010
00101000
,
00011000
00001100
00001010
00011000
,
01010000
00110000
00011000
00000000
,
00001000
00000000
00010000
00000000
01000000
00000000
10000000
00000000
00100000
00000000
00000000
01000000
00000000
00000000
00010000
00000000
,
00100000
00001000
00100000
00000000
00001000
00010000
00001000
00010000
00001000
00000000
00000000
00000000
00000000
00000000
00000000
00000000
,
00010000
00000000
00000000
00000010
00000000
00000000
00010000
00000000
00001000
00000000
00000000
00100000
00000000
00000000
00001000
00000000
,
00010000
00000000
00000000
00000100
00000000
00000000
00010000
00000000
00001000
00000000
00000000
01000000
00000000
00000000
00001000
00000000
,
00101000
00000000
00000000
00100000
00000000
00000000
00001000
00000000
00011000
00000000
00000000
00010000
00000000
00000000
00000010
00000000
,
00010010
00000000
00000000
00000000
00011000
00000000
00000000
00000000
00010000
00001000
00010000
00001000
00010000
00001000
00010000
00001000
,
00010000
00001000
00000100
00000001
00001000
00000010
00000100
00001000
,
00000000
00001000
00010000
00100000
00000000
10000000
11000000
00000000
,
10000000
01000000
00010000
00001000
00100000
01000000
10000000
00010000
,
00000000
00000000
00100000
00000000
00000000
00001000
00000000
00000000
00010000
00000000
00000000
00001000
00000100
00000000
00000100
00000000
,
00000001
00000010
00000100
00001000
00000010
00000100
00000001
00000010
,
00001000
00010000
00001000
00000010
00001000
00010000
00001000
00100000
,
01000000
10000000
00100000
01000000
00010000
00100000
01000000
10000000
,
00100000
00000000
00010000
00000000
00001000
00000000
00100000
00000000
01000000
00000000
00010000
00001000
00010000
00001000
00010000
00001000
,
00010000
00000010
00000100
00000001
00001000
00000100
00000010
00000001
,
00000100
00001000
00010000
00001000
00000100
00001000
00010000
00001000
,
00100000
01000000
10000000
00100000
00010000
00001000
00100000
00010000
,
00001000
00000000
00000100
00000000
00000000
00000010
00000000
00000000
00000001
00000000
00000000
00000100
00000010
00000000
00001000
00000000
,
00001001
00000000
00011000
00000000
,
10010000
00000000
00000000
00000000
00100000
01000000
00100000
01000000
00200000
00000000
00000000
00000000
01300000
00000000
00000000
00000000
;

//---------------dance-single - ----------------
#NOTES:
     dance-single:
     :
     Beginner:
     3:
     0.141405,0.197280,0.027495,0.027495,0.000000,108.000000,105.000000,3.000000,3.000000,0.000000,0.000000,0.141405,0.197280,0.027495,0.027495,0.000000,108.000000,105.000000,3.000000,3.000000,0.000000,0.000000:
0000
0000
0000
0000
,
0000
0000
0000
0000
,
0000
0000
0000
0000
,
0000
0000
0000
0000
,
1000
0000
1000
0000
,
1000
0000
0000
0000
,
0001
0000
0001
0000
,
0001
0001
0000
0000
,
0100
0000
0010
0000
,
1000
0000
0000
0000
,
0010
0000
0100
0000
,
0001
0000
0000
0000
,
0100
0000
0010
0000
,
1000
0000
0000
0000
,
0010
0000
0100
0000
,
0001
0000
0000
0000
,
1000
0000
0100
0000
,
0010
0000
0010
0000
,
0001
0000
0010
0000
,
0100
0000
0100
0000
,
1000
0000
0100
0000
,
0010
0000
0001
0000
,
0001
0000
0010
0000
,
0100
0000
1000
0000
,
0010
0000
0010
0000
,
0010
0010
0010
0000
,
0001
0000
0000
0000
,
0000
0000
0000
0000
,
0100
0000
0000
0000
,
0000
0000
0000
0000
,
1000
0000
0000
0000
,
0000
0000
0000
0000
,
0010
0000
0010
0000
,
0010
0000
0000
0000
,
0100
0000
0001
0000
,
1000
0000
0010
0000
,
0100
0000
0001
0000
,
1000
0000
0010
0000
,
0100
0000
0001
0000
,
1000
0000
0010
0000
,
0100
0000
0001
0000
,
1000
0000
0010
0010
,
0010
0000
0000
0000
,
0000
0000
0000
0000
,
0100
0000
0000
0000
,
0000
0000
0000
0000
,
0001
0000
0000
0000
,
1000
0000
0000
0000
,
0001
0000
0000
0000
,
1000
0000
0000
0000
,
0001
0000
0001
0000
,
0001
0000
0000
0000
,
1000
0000
1000
0000
,
1000
0000
0000
0000
,
1001
0000
0000
0000
,
0000
0000
0000
0000
,
1001
0000
0000
0000
,
2002
0000
3003
0000
,
1000
0000
0100
0000
,
0010
0000
0000
0000
,
0001
0000
0010
0000
,
0100
0000
0000
0000
,
1000
0000
0010
0000
,
0100
0000
0100
0000
,
0001
0000
0100
0000
,
0010
0000
0010
0000
,
1000
0000
0010
0000
,
0100
0000
0001
0000
,
0001
0000
0100
0000
,
0010
0000
1000
0000
,
0100
0000
0100
0000
,
0100
0100
0020
0030
;

//---------------dance-single - ----------------
#NOTES:
     dance-single:
     :
     Easy:
     5:
     0.269717,0.394560,0.164973,0.045826,0.000000,206.000000,188.000000,18.000000,5.000000,0.000000,0.000000,0.269717,0.394560,0.164973,0.045826,0.000000,206.000000,188.000000,18.000000,5.000000,0.000000,0.000000:
0000
0000
0000
0000
,
0000
0000
0000
0000
,
0000
0000
0000
0000
,
0000
0000
0000
0000
,
1000
0000
1000
0000
,
0001
0000
0001
0000
,
1000
0000
0001
0000
,
0100
0100
0000
0010
,
1000
0100
1000
0100
,
0000
0010
0000
0010
,
0001
0100
0001
0100
,
0000
0100
0000
0100
,
0010
1000
0010
1000
,
0000
1000
0000
1000
,
0001
0010
0001
0010
,
0000
0010
0010
0001
,
0100
0000
1000
0000
,
0010
0000
0001
0100
,
1000
0000
0010
0000
,
0001
0000
0100
1000
,
0010
0000
0001
0000
,
0100
0000
1000
0010
,
0001
0000
0100
0000
,
1000
0000
0010
0001
,
0100
0000
0100
0000
,
0100
0010
1001
0000
,
1000
0100
0010
0010
,
0000
0001
0100
0010
,
1000
0000
0001
0001
,
0001
0000
0010
0100
,
1000
0000
0010
0010
,
0010
0000
0100
0001
,
1001
0000
0110
0000
,
1001
0000
0100
0100
,
0010
1000
0001
0100
,
0010
1000
0001
0000
,
1000
0100
0010
0001
,
1000
0100
0010
0000
,
0001
0010
0100
1000
,
0001
0010
0100
0000
,
1000
0010
0100
0001
,
1000
0010
0010
0010
,
0001
0000
1000
0000
,
0001
0000
1000
0000
,
0001
0010
0100
1000
,
0010
0010
0020
0030
,
0100
0000
0001
0000
,
1000
0000
0010
0000
,
0100
0100
0010
0100
,
0110
0000
0000
0000
,
1000
0000
0010
0000
,
0001
0100
1100
0000
,
0001
0000
0100
0000
,
1000
0010
0011
0000
,
2002
0000
0000
0000
,
0000
0000
0000
3003
,
1001
0000
1001
0000
,
1001
1001
0010
0100
,
1000
0010
1000
0010
,
0000
0010
0000
0010
,
0100
0001
0100
0001
,
0000
0001
1001
0100
,
0010
0000
1000
0000
,
0100
0001
0010
0000
,
1000
0000
0100
0000
,
0001
0010
1000
0000
,
0100
0000
0001
0000
,
0010
1000
0100
0000
,
0001
0000
0010
0000
,
1000
0100
0001
0010
,
0110
0000
1001
0000
,
0110
1001
0220
0330
;

//---------------dance-double - ----------------
#NOTES:
     dance-double:
     :
     Easy:
     5:
     0.259243,0.361680,0.192468,0.073321,0.000000,198.000000,177.000000,21.000000,8.000000,0.000000,0.000000,0.259243,0.361680,0.192468,0.073321,0.000000,198.000000,177.000000,21.000000,8.000000,0.000000,0.000000:
00000000
00000000
00000000
00000000
,
00000000
00000000
00000000
00000000
,
00000000
00000000
00000000
00000000
,
00000000
00000000
00000000
00000000
,
00001000
00000000
00001000
00000000
,
00010000
00000000
00010000
00000000
,
00001000
00000000
00010000
00000000
,
00001000
00011000
00000000
00011000
,
00010000
00000100
00010000
00000100
,
00000000
00010000
00000000
00010000
,
00001000
01000000
00001000
01000000
,
00000000
00001000
00000000
00001000
,
00010000
00000010
00010000
00000010
,
00000000
00010000
00000000
00010000
,
00001000
00100000
00001000
00100000
,
00000000
00001000
00001000
00010000
,
01000000
00000000
10000000
00000000
,
00100000
00000000
00010000
00000000
,
00001000
00000000
00000100
00000000
,
00000001
00000000
00000010
00000000
,
00001000
00000000
00010000
00000000
,
00100000
00000000
10000000
00000000
,
00010000
00000000
00001000
00000000
,
00000010
00000000
00000001
00000000
,
00000100
00000000
00001000
00000000
,
00010000
00001000
00022000
00033000
,
00010000
01000000
10000000
00010000
,
00000000
10000000
01000000
00010000
,
00001000
00000000
00010000
00001000
,
00011000
00000000
00010000
00001000
,
00000010
00000000
00000001
00000100
,
00001000
00000000
00010000
00001000
,
00011000
00000000
00010010
00000000
,
01001000
00000000
00001000
00010000
,
00001000
00000010
00000001
00000010
,
00001000
00010000
00001000
00000000
,
00010000
01000000
10000000
01000000
,
00010000
00001000
00010000
00000000
,
00001000
00000010
00000001
00000100
,
00001000
00010000
00001000
00000000
,
00010000
01000000
10000000
00100000
,
00010000
00001000
00010000
00000000
,
00011000
00000000
00011000
00000000
,
00011000
00000000
00011000
00000000
,
00010000
00001000
00000100
00000010
,
00001000
00000100
00000020
00000030
,
00000001
00000000
00000100
00000000
,
00001000
00000000
00010000
00000000
,
00100000
00000000
10000000
01000000
,
00200000
00000000
00000000
00300000
,
00010000
00000000
01000000
00000000
,
00001000
00010000
00000010
00000000
,
00001000
00000000
00000100
00000000
,
00010000
00001000
00100000
00000000
,
00022000
00000000
00000000
00000000
,
00000000
00000000
00000000
00033000
,
00011000
00000000
00011000
00000000
,
00011000
00011000
00010000
00001000
,
01000000
00010000
01000000
00010000
,
00000000
00100000
00000000
00001000
,
00010000
00000100
00010000
00000100
,
00000000
00000010
00000011
00000001
,
00000100
00000000
00001000
00000000
,
00010000
00000000
00100000
00000000
,
10000000
00000000
01000000
00000000
,
00010000
00000000
00001000
00000000
,
00000010
00000000
00000001
00000000
,
00000100
00000000
00001000
00000000
,
00010000
00000000
01000000
00000000
,
10000000
00000000
00100000
00000000
,
00110000
00000000
00011000
00000000
,
00001010
00000001
00002002
00003003
;

//---------------dance-single - ----------------
#NOTES:
     dance-single:
     :
     Medium:
     10:
     0.450402,0.461923,0.219964,0.082486,0.000000,344.000000,320.000000,24.000000,9.000000,0.000000,0.000000,0.450402,0.461923,0.219964,0.082486,0.000000,344.000000,320.000000,24.000000,9.000000,0.000000,0.000000:
0000
0000
0000
0000
,
0000
0000
0000
0000
,
0000
0000
0000
0000
,
0000
0000
0000
0000
,
0001
1000
0010
0100
,
0001
0000
1000
0000
0010
0000
0100
0010
,
0100
0001
1000
0010
,
0110
0000
0110
0000
0000
0100
0100
0001
,
1000
0000
0010
0000
0001
0000
0100
0100
,
0000
1000
0001
1000
0000
0001
1000
0000
,
0001
0000
0010
0000
1000
0000
0100
0100
,
0000
0001
0000
1000
0001
0000
1001
0000
,
1000
0000
0100
0000
0001
0000
0010
0010
,
0000
1000
0000
0001
1000
0000
1001
0000
,
0001
0000
0100
0000
1000
0000
0010
0010
,
0000
0001
0000
1000
0001
0000
1000
0100
,
0010
0001
0100
1000
,
0010
0100
0010
0000
0100
0010
0100
0000
,
0010
1000
0100
0001
,
0010
0100
0010
0000
0100
0010
0100
0000
,
0001
0100
1000
0010
,
0001
1000
0001
0000
1000
0001
1000
0000
,
0001
0010
1000
0100
,
0001
1000
0001
0000
1000
0001
1000
0000
,
1010
0000
0101
0000
,
1001
0000
0010
0100
0020
0000
0130
0000
,
0100
0001
0100
0000
0001
0000
1000
0000
,
0100
0000
0010
0000
0001
0100
0010
0000
,
1000
0010
1000
0000
0001
0000
0010
0000
,
0100
0000
1000
0000
0010
0100
0001
0000
,
1000
0100
0010
0000
0001
0000
0100
0000
,
0010
0000
1000
0000
0001
0010
0001
0000
,
0101
0000
1100
0000
,
1010
0000
0011
0000
0001
1000
0001
1000
,
0100
0010
0100
1000
,
0100
0000
0001
0000
0100
0000
1000
0100
,
0010
0001
0010
1000
,
0010
0000
0001
0000
0010
0000
0100
0010
,
0001
0100
1000
0100
,
0001
0000
0010
0000
1000
0000
0010
0001
,
0100
0000
0010
1000
0100
0000
1000
0001
,
0100
0000
0001
1000
0010
0100
0001
1000
,
0010
0000
0001
0000
,
0100
0000
0000
1000
1000
0000
0010
0000
,
0100
0001
0100
0000
0010
1000
0010
0000
,
2000
3002
0203
0000
,
0310
0010
1000
1000
,
0100
0100
0010
0010
,
0001
0001
0100
0100
,
0010
1000
0001
0010
,
0100
1100
0010
0011
,
0100
1100
0011
0000
,
0100
0101
0010
1010
,
0100
0101
1010
0000
,
1001
0000
0000
0001
0001
0000
0000
1000
,
1000
0000
0000
0010
0010
0000
0100
0100
,
0100
0000
0010
0000
1000
0100
0010
0000
,
0022
0030
0100
0103
,
0100
0001
1000
0000
0100
1000
0001
0000
,
0010
0001
1000
0000
0010
1000
0001
0000
,
0100
0010
1000
0000
0010
0100
0001
0000
,
0100
0010
1000
0001
0200
0000
0310
0010
,
1000
0100
0010
0001
,
0100
0010
1000
0010
0100
0010
1000
0000
,
0001
0010
0100
1000
,
0010
0100
0001
0100
0010
0100
0001
0000
,
1000
0010
0001
0100
,
1000
0100
0010
0100
1000
0100
0010
0000
,
0001
0100
1000
0010
,
0001
0010
0100
0010
0001
0010
0100
0100
,
1100
0000
0011
0000
,
1001
0000
0010
0100
0020
0000
0230
0000
,
0300
0000
0000
0000
;

//---------------dance-double - ----------------
#NOTES:
     dance-double:
     :
     Medium:
     10:
     0.441236,0.493199,0.302450,0.054991,0.000000,337.000000,304.000000,33.000000,6.000000,0.000000,0.000000,0.441236,0.493199,0.302450,0.054991,0.000000,337.000000,304.000000,33.000000,6.000000,0.000000,0.000000:
00000000
00000000
00000000
00000000
,
00000000
00000000
00000000
00000000
,
00000000
00000000
00000000
00000000
,
00000000
00000000
00000000
00000000
,
00000001
00000100
00000010
00001000
,
00000100
00010000
00001000
00100000
,
01000000
10000000
00100000
00010000
,
00001000
00000000
00011000
00000000
00000000
00010000
00001000
00010000
,
00000010
00000000
00001000
00000000
00000001
00000000
00000100
00000100
,
00000000
00001000
00010000
00001000
00000000
00010000
01000000
00000000
,
01000000
00000000
10000000
00000000
00010000
00000000
01000000
01000000
,
00000000
00001000
00000000
00010000
00001000
00000000
00011000
00000000
,
00000100
00000000
00001000
00000000
00000001
00000000
00000010
00000010
,
00000000
00001000
00000000
00010000
00001000
00000000
00011000
00000000
,
01000000
00000000
00010000
00000000
10000000
00000000
00100000
00100000
,
00000000
01000000
00000000
00001000
00010000
00000000
00000100
00000010
,
00000001
00000100
00001000
00010000
,
00100000
10000000
01000000
00000000
10000000
00100000
01000000
00000000
,
00010000
10000000
01000000
00100000
,
00001000
00010000
00000100
00000000
00001000
00000100
00010000
00000000
,
00001000
00000010
00000001
00001000
,
00000010
00000100
00000001
00000000
00000010
00000001
00000100
00000000
,
00000010
00010000
00001000
00100000
,
01000000
00100000
00010000
00000000
00100000
01000000
00010000
00000000
,
00011000
00000000
00010010
00000000
,
01001000
00000000
00001000
00010000
00002000
00000000
00013000
00000000
,
00010000
01000000
10000000
00100000
,
10000000
00000000
01000000
00000000
00010000
00001000
00010000
00000000
,
00001000
00000010
00000001
00000100
,
00000001
00000000
00000010
00000000
00001000
00010000
00001000
00000000
,
00010000
00100000
10000000
01000000
,
10000000
00000000
00100000
00000000
00010000
00001000
00010000
00000000
,
00010100
00000000
00101000
00000000
,
00011000
00000000
00011000
00000000
00010000
00000100
00000010
00000001
,
00000100
00001000
00010000
00001000
,
00000100
00000000
00001000
00000000
00010000
00000000
01000000
00010000
,
00001000
00010000
01000000
00010000
,
00001000
00000000
00010000
00000000
01000000
00000000
00010000
00001000
,
00000010
00001000
00010000
00001000
,
00000010
00000000
00001000
00000000
00010000
00000000
00100000
00010000
,
00001000
00000000
00000100
00001000
00010000
00000000
00001000
00100000
,
01000000
00000000
00010000
00000100
00000010
00000001
00000100
00000000
,
00001010
00000000
00011000
00000000
,
00110000
00000000
00000000
00100000
10000000
00000000
11000000
00000000
,
01000000
00100000
00010000
00000000
01000000
00100000
00010000
00000000
,
00011000
00001010
00000022
00000033
,
00000001
00000100
00001000
00000100
,
00000001
00000100
00001000
00010000
,
00100000
10000000
00100000
00010000
,
00100000
10000000
00100000
00010000
,
00010010
00000000
00101000
00000000
,
00011000
01001000
00010100
00000000
,
00010010
00000000
00101000
00000000
,
00011000
01001000
00010100
00000000
,
00011000
00000000
00001000
00000000
,
00000100
00000000
00000001
00000000
,
00000010
00000000
00001000
00000000
00010000
00001000
00100000
00000000
,
00220000
00300000
10000000
10030000
,
10000000
01000000
00010000
00000000
01000000
00010000
00001000
00000000
,
00010000
00001000
00000010
00000000
00001000
00000010
00000001
00000000
,
00000001
00000100
00001000
00000000
00000100
00001000
00010000
00000000
,
00001000
00010000
00100000
00000000
10100000
00000000
10000000
01000000
,
00100000
01000000
00010000
00001000
,
00000010
00000001
00000100
00000010
00001000
00000001
00000100
00000000
,
00001000
00010000
00100000
10000000
,
01000000
00100000
00010000
10000000
00100000
01000000
00010000
00000000
,
00100000
01000000
00010000
00001000
,
00000100
00000001
00001000
00000010
00000100
00000001
00000010
00000000
,
00001000
00010000
01000000
10000000
,
00100000
01000000
00010000
10000000
01000000
00100000
00010000
00000000
,
00011000
00000000
00010010
00000000
,
00101000
00000000
00001000
00010000
00002000
00000000
00013000
00000000
;
