#TITLE:Xeroize;
#SUBTITLE:;
#ARTIST:FE;
#TITLETRANSLIT:;
#SUBTITLETRANSLIT:;
#ARTISTTRANSLIT:;
#GENRE:VARIETY;
#CREDIT:MUINELIM;
#BANNER:Xeroize.png;
#BACKGROUND:Xeroize-bg.png;
#LYRICSPATH:;
#CDTITLE:;
#MUSIC:Xeroize.mp3;
#OFFSET:-0.113000;
#SAMPLESTART:20.513000;
#SAMPLELENGTH:11.980000;
#SELECTABLE:YES;
#DISPLAYBPM:200;
#BPMS:0.000000=200,171.000000=100,172.000000=200,186.000000=100,187.000000=200,329.000000=100
;
#STOPS:64.000000=0.9,200.000000=0.6,232.000000=0.6
;
#BGCHANGES:;
#KEYSOUNDS:;
#ATTACKS:;

//---------------dance-single - ----------------
#NOTES:
     dance-single:
     :
     Challenge:
     18:
     0.974460,1.127954,0.588681,0.682122,0.850316,730.000000,667.000000,63.000000,73.000000,0.000000,0.000000,0.974460,1.127954,0.588681,0.682122,0.850316,730.000000,667.000000,63.000000,73.000000,0.000000,0.000000:
0000
0000
0000
0000
,
0000
0000
0000
0000
,
0000
0000
0000
0000
,
0000
0000
0000
0000
,
1002
0000
0100
0000
0003
0100
0001
1000
,
2001
0000
0010
0000
3000
0010
1000
0001
,
1002
0000
0100
0000
0003
0100
0001
1000
,
1010
0000
0000
0110
0000
0000
0101
0000
0001
0000
1000
0000
0020
0000
0030
0000
,
0100
0001
0100
0000
0010
0000
0100
0000
0010
1000
0010
0000
0100
0000
0010
0000
,
1000
0100
1000
0000
0100
0000
0010
0000
0001
0010
0001
0000
0010
0000
0100
0000
,
1000
1000
0010
0010
0001
0001
0100
0100
,
1000
0010
1000
0000
0001
0100
0001
0000
1000
0001
1000
0001
2000
0000
0000
0000
,
3010
0010
0100
0101
0000
0001
0001
0010
,
0100
2100
0000
3001
0011
0000
1001
0000
,
1010
1010
0000
0011
0011
0000
0101
0101
,
0000
1100
1100
0000
0110
0000
0110
0000
,
2002
0000
3003
0000
1001
0000
1000
0100
0010
0000
0100
1000
0010
0000
0100
0000
,
0000
0000
0100
0001
0010
0000
0100
0010
0001
0000
0100
0000
0010
0000
1000
0000
,
0000
0000
1000
0001
0100
0000
0001
0010
0200
0000
1300
0000
0200
0000
0310
0000
,
0010
0000
0001
0100
0010
0000
0001
0010
0100
0000
0010
0000
2000
0000
3200
0000
,
0320
0000
0032
0000
0103
0000
0100
0010
1000
0000
0100
0010
0001
0000
1000
0000
,
0000
0000
1000
0010
0100
0000
0001
0010
0100
0000
1000
0000
0010
0000
0100
0000
,
0000
0000
0100
0001
1000
0000
0010
1000
0001
0000
0001
0000
0100
0000
1000
0000
,
1000
0000
0010
0000
0001
0000
0001
0000
0100
0010
0100
0010
1000
0001
1000
0001
,
0200
0000
0310
1000
1100
0000
0100
0010
,
0011
0000
0001
0100
0110
0000
0010
1000
,
1001
0000
0001
0010
0110
0000
0100
1000
,
1010
0000
0010
0010
0100
0001
0010
0100
,
2002
3003
1000
1000
1010
0000
0001
0001
,
0011
0000
1000
1000
1100
0000
0001
0001
,
0101
0000
1000
1000
1001
0000
0010
0010
,
0110
0000
0000
0000
2020
3030
0000
0000
2200
3300
0000
0000
0202
0303
0000
0000
,
0022
0033
0000
0000
2002
0000
3003
0000
0100
0000
0120
0000
0000
0000
0001
0000
,
0000
1030
1000
0100
0001
0100
1000
0010
,
0001
0010
2002
3003
0010
0210
0000
1000
,
0000
0301
0001
0010
1000
0010
0001
0100
,
1000
0100
1020
0000
0130
0102
0000
0010
,
0000
1003
1000
0100
0001
1000
0010
0001
,
1000
0100
0021
0000
0130
2100
0000
3001
,
0001
0000
0010
0000
0100
1000
0100
0000
0010
0000
0100
0001
0100
0000
0010
0000
,
0100
1000
0100
0000
0010
0000
0100
0001
0100
0000
0010
0000
0100
1000
0100
0000
,
0010
0000
0001
0000
1000
0010
1000
0010
0100
0001
0100
0001
0100
0000
0001
0000
,
1000
0100
0020
0000
0000
0000
0031
0010
0100
0000
1000
0000
1001
0000
0000
0000
,
0001
0100
0001
0100
0001
0000
1000
0100
1000
0100
1000
0000
0001
0010
0001
0010
,
0001
0000
1000
0010
1000
0010
1000
0000
0001
0100
0001
0100
0010
1000
0010
1000
,
0001
0010
0000
0010
0100
0000
0100
1000
0000
1000
0020
0000
0130
0000
0000
0000
,
0010
0000
0010
1000
0100
0000
0010
0000
1001
0000
0000
0000
0001
0010
0100
0010
,
0001
0000
1000
0100
0010
0100
1000
0000
0001
0100
0010
0100
0001
0000
1000
0010
,
0100
0010
1000
0000
0001
0010
0100
1000
0001
0010
0100
1000
0001
0100
0000
0100
,
0010
0000
0010
1000
0000
1000
0002
0000
0103
0000
0000
0000
0110
0000
0000
0000
,
2002
0000
3003
0000
1001
0000
0001
0010
0100
0000
1000
0100
0010
0000
0001
0000
,
0000
0000
0001
0100
0010
0000
1000
0010
0100
0000
0001
0000
0010
0000
0100
0000
,
0000
0000
0100
1000
0010
0000
0100
0001
0020
0000
0130
0000
0020
0000
0031
0000
,
0010
0000
0001
0010
0100
0000
1000
0010
0100
0000
0001
0000
2000
0000
3020
0000
,
0230
0000
0302
0000
1003
0000
1000
0100
0010
0000
0100
0010
0001
0000
0100
0000
,
0000
0000
0100
0010
1000
0000
0010
0100
0001
0000
1000
0000
0100
0000
0010
0000
,
0000
0000
0010
0100
1000
0000
0001
0010
0100
0000
0100
0000
1000
0000
0010
0000
,
0010
0000
0001
0000
0100
0000
0100
0000
1000
0010
1000
0010
0100
0001
0100
0001
,
2000
3000
0020
0130
0002
0013
0200
1300
,
0002
0103
0020
1030
0200
0310
0002
0103
,
2000
3010
0002
0100
1000
0013
2000
0100
,
0001
3010
0200
0301
0020
1030
1001
0000
,
0000
0000
0002
0103
2000
3100
0002
0013
,
2000
3010
0002
1003
0200
0310
2000
3001
,
0020
0130
2000
0010
0001
3100
0002
0010
,
1000
0103
0020
0031
0200
1300
1010
0101
,
0000
0000
0000
1001
0000
0001
0100
0000
0100
0010
0000
0010
,
1000
0000
1000
0100
0000
0100
0001
0000
0001
0100
0000
0100
,
1000
0000
1010
0000
0000
0010
0100
0000
0100
0001
0000
0001
,
0010
0000
0010
1000
0000
1000
0010
0000
0010
0001
0000
0001
,
0100
0000
0100
0110
0000
0010
1000
0000
1000
0100
0000
0100
,
0001
0000
0001
1000
0000
1000
0010
0000
0010
0001
0000
0001
,
0100
0000
0110
0000
0000
0010
1000
0000
1000
0100
0000
0100
,
0001
0000
0000
0000
0000
0000
0000
0000
0001
0000
0000
0000
0010
0000
0000
0100
0000
0000
0010
0000
0000
0100
0000
0000
1000
0000
0000
0001
0000
0000
1000
0000
0000
0001
0000
0000
0010
0000
0000
0000
0000
0000
0000
0000
0010
0000
0000
0000
,
0100
0000
0000
1100
0000
1000
0010
1000
0100
0010
0001
0100
,
0010
1000
0001
0011
0000
0001
0100
0001
0010
0100
1000
0010
,
0100
0001
1000
1010
0000
0010
0100
0010
1000
0001
0010
0100
,
1000
0010
0100
0001
0000
0001
0010
0000
0010
1000
0000
1000
,
0100
0000
0000
0000
0100
0000
0001
0000
0010
0000
0100
0000
1000
0000
0001
0000
0100
0000
0010
1000
0010
0000
0100
0000
,
0001
0000
1000
0000
0100
0000
0010
0000
0100
0000
1000
0000
0001
0000
0100
0000
0010
0000
0100
0001
0100
0000
0010
0000
,
1000
0000
0001
0000
0100
0000
1000
0000
0100
0000
0001
0000
0010
0000
1000
0000
0010
0000
0001
0010
0001
0000
0100
0000
,
0010
1000
0001
0010
0010
0010
0100
0100
0100
1000
1000
1000
,
0001
0001
0001
2002
0000
0000
0000
0000
0000
0000
0000
0000
,
0000
3003
0000
0000
;

//---------------dance-double - ----------------
#NOTES:
     dance-double:
     :
     Challenge:
     18:
     0.933079,1.011269,0.504583,0.878349,0.747531,699.000000,645.000000,54.000000,94.000000,0.000000,0.000000,0.933079,1.011269,0.504583,0.878349,0.747531,699.000000,645.000000,54.000000,94.000000,0.000000,0.000000:
00000000
00000000
00000000
00000000
,
00000000
00000000
00000000
00000000
,
00000000
00000000
00000000
00000000
,
00000000
00000000
00000000
00000000
,
00011000
00000000
00000020
00000000
00000000
00010030
00002000
00013000
,
00011000
00000000
00200000
00000000
00000000
00301000
00010000
00001000
,
00011000
00000000
00000200
00000000
00000000
00010300
00001000
00010000
,
00011000
00000000
00000000
00110000
00000000
00000000
10100000
00000000
10000000
00000000
01000000
00000000
00200000
00000000
00000000
00000000
,
00301000
00010000
00001000
00000000
00000010
00000000
00000001
00000000
00000100
00000000
00001000
00000000
00000100
00000000
00000010
00000000
,
00010000
00001000
00010000
00000000
00100000
00000000
10000000
00000000
01000000
00000000
00010000
00000000
01000000
00000000
00100000
00000000
,
00001000
00010000
00100000
00010000
00001000
00000010
00001000
00010000
,
00001000
00100000
00001000
00000000
00010000
00000010
00010000
00000000
00001000
00010000
00001000
00010000
00002000
00000000
00000000
00000000
,
00103000
01000000
10000000
10100000
00000000
00100000
00010000
00001000
,
00000010
00000012
00000000
00000103
00000110
00000000
00010010
00000000
,
00011000
01000000
00000000
01010000
00001000
00000000
00011000
00000100
,
00000000
00001100
00010000
00000000
00010010
00000000
00101000
00000000
,
00022000
00000000
00033000
00000000
00011000
00000000
00001000
00010000
00001000
00000000
00010000
00001000
00010000
00000000
01000000
00000000
,
00000000
00000000
01000000
10000000
01000000
00000000
10000000
01000000
10000000
00000000
00100000
00000000
00010000
00000000
00001000
00000000
,
00000000
00000000
00001000
00010000
00001000
00000000
00010000
00001000
00010000
00000000
00010000
00000000
00000100
00000000
00000100
00000000
,
00000010
00000000
00000001
00000100
00000001
00000000
00000100
00000001
00000100
00000000
00001000
00000000
00020000
00000000
00030100
00000000
,
00002000
00000000
01003000
00000000
00001000
00000000
00010000
00000100
00010000
00000000
00000100
00010000
00000100
00000000
00000010
00000000
,
00000000
00000000
00000010
00000001
00000010
00000000
00000001
00000010
00000001
00000000
00000100
00000000
00001000
00000000
00010000
00000000
,
00000000
00000000
00001000
00010000
00001000
00000000
00010000
00001000
00010000
00000000
01000000
00000000
10000000
00000000
00100000
00000000
,
00010000
00000000
01000000
00000000
10000000
00000000
00100000
00000000
00010000
00001000
00010000
00001000
00010000
00000100
00010000
00000100
,
00002000
00000000
00003001
00000100
00001100
00000000
00000100
00001000
,
00011000
00000000
00001000
00010000
01010000
00000000
01000000
10000000
,
10100000
00000000
10000000
00100000
00110000
00000000
00100000
00010000
,
00011000
00000000
00010000
00001000
00000010
00000001
00000100
00001000
,
00022000
00033000
00010000
00001000
00001010
00000000
00001000
00000010
,
00000011
00000000
00000010
00000001
00000101
00000000
00000001
00000100
,
00001100
00000000
00001000
00010000
00110000
00000000
00010000
00100000
,
10100000
11000000
00101000
00010010
,
00001100
00000000
00002002
00003003
00000100
00000120
00000000
00020030
,
00000000
00130000
00100000
00001000
00100000
10000000
00100000
00001000
,
00100000
10000000
20020000
30030000
01000000
01200000
00000000
00302000
,
00000000
00003010
00000010
00010000
00000010
00000001
00000010
00010000
,
00000010
00000001
00002002
00003003
00000100
00000120
00000000
00001000
,
00000000
00000031
00000001
00000100
00010000
00000100
00000001
00000100
,
00010000
00000100
00000102
00000000
00000013
00002010
00000000
00013000
,
01000000
10000000
00100000
00100000
00001000
00100000
00100000
10000000
,
00100000
00100000
00001000
00100000
00100000
10000000
00100000
00100000
,
00001000
00000000
00010000
00000000
00000100
00001000
00000100
00001000
00000100
00000010
00000100
00000010
00000001
00000000
00000100
00000000
,
00001000
00010000
00002000
00000000
00000000
00000000
00103000
01000000
00100000
00000000
00010000
00000000
10010000
00000000
00000000
00000000
,
10000000
01000000
10000000
00000000
01000000
00000000
00010000
00001000
00010000
00000000
00001000
00000000
00000010
00000001
00000010
00000000
,
00000001
00000000
00000100
00001000
00000100
00000000
00001000
00000000
00010000
00001000
00010000
00000000
00001000
00010000
00001000
00000000
,
00010000
00100000
00000000
00100000
10000000
00000000
10000000
01000000
00000000
01000000
00020000
00000000
00031000
00000000
00000000
00000000
,
00010000
00000000
00001000
00010000
00001000
00000000
00000010
00000000
00000110
00000000
00000000
00000000
00000010
00000001
00000010
00000000
,
00000001
00000000
00000100
00001000
00000100
00000000
00001000
00000000
00010000
01000000
00010000
00000000
01000000
00000000
10000000
00100000
,
10000000
00000000
00100000
00000000
00010000
00001000
00010000
00000000
00001000
00010000
00001000
00000000
00000100
00000001
00000000
00000010
,
00001000
00000000
00010000
00100000
00000000
10000000
02000000
00000000
03010000
00000000
00000000
00000000
00011000
00000000
00000000
00000000
,
00022000
00000000
00033000
00000000
00011000
00000000
00001000
00100000
00010000
00000000
00100000
00001000
00010000
00000000
01000000
00000000
,
00000000
00000000
01000000
10000000
00100000
00000000
01000000
00010000
00100000
00000000
00001000
00000000
00010000
00000000
00000100
00000000
,
00000000
00000000
00000100
00000010
00000001
00000000
00000010
00000100
00001000
00000000
00000010
00000000
00010000
00000000
00010000
00000000
,
00001000
00000000
00100000
01000000
10000000
00000000
01000000
00100000
00010000
00000000
00100000
00000000
00002000
00000000
01003000
00000000
,
00020000
00000000
00030100
00000000
00010000
00000000
00001000
00000100
00000010
00000000
00000100
00000001
00000010
00000000
00001000
00000000
,
00000000
00000000
00001000
00010000
00100000
00000000
00010000
00100000
10000000
00000000
01000000
00000000
00100000
00000000
00001000
00000000
,
00000000
00000000
00001000
00010000
00000100
00000000
00001000
00000100
00000010
00000000
00001000
00000000
00010000
00000000
00000100
00000000
,
00000010
00000000
00001000
00000000
00010000
00000000
00000100
00000000
00001000
00000010
00001000
00000010
00010000
00001000
00010000
00001000
,
00200000
00000000
02300000
23000000
30200000
02300000
03020000
00230000
,
00302000
00023000
00030200
00002300
00003020
00000230
00000302
00000023
,
00000230
00002300
00003020
00000230
00002300
00023000
00230000
02300000
,
03020000
00230000
02300000
23000000
30200000
00320000
00002000
00033000
,
00000000
00000000
00002000
00003020
00000032
00000203
00002300
00003200
,
00000302
00000023
00002030
00023000
00230000
20300000
32000000
03020000
,
02030000
23000000
30200000
00320000
00032000
00003200
00000302
00000023
,
00002030
00023000
02030000
23000000
30200000
00320000
00031000
00011000
,
00000000
00000000
00000000
00011000
00000000
00010000
00000100
00000000
00000100
00001000
00000000
00001000
,
00000010
00000000
00000010
00000100
00000000
00000100
00000001
00000000
00000001
00001000
00000000
00001000
,
00000010
00000000
00010010
00000000
00000000
00010000
00001000
00000000
00001000
00100000
00000000
00100000
,
01000000
00000000
01000000
10000000
00000000
10000000
00100000
00000000
00100000
01000000
00000000
01000000
,
00001000
00000000
00001000
00010000
00000000
00010000
00000100
00000000
00000100
00000010
00000000
00000010
,
00000001
00000000
00000001
00000100
00000000
00000100
00001000
00000000
00001000
00010000
00000000
00010000
,
01000000
00000000
11000000
00000000
00000000
10000000
00100000
00000000
00100000
01000000
00000000
01000000
,
00001000
00000000
00000000
00000000
00000000
00000000
00000000
00000000
00001000
00000000
00000000
00000000
00010000
00000000
00000000
00000100
00000000
00000000
00010000
00000000
00000000
00000100
00000000
00000000
00001000
00000000
00000000
00000100
00000000
00000000
00001000
00000000
00000000
00000100
00000000
00000000
00000010
00000000
00000000
00000000
00000000
00000000
00000000
00000000
00000010
00000000
00000000
00000000
,
00000001
00000000
00000000
00001001
00000000
00000001
00000100
00000010
00001000
00000100
00000010
00001000
,
00010000
01000000
10000000
00100000
00000000
10000000
01000000
00100000
00010000
01000000
00001000
00010000
,
00000100
00000010
00000001
00000100
00000000
00000010
00001000
00000100
00000010
00001000
00010000
01000000
,
10000000
00100000
00010000
00001000
00000000
00001000
00000100
00000000
00000100
00001000
00000000
00001000
,
00010000
00000000
00010000
01000000
10000000
00100000
00010000
00100000
10000000
01000000
00100000
00001000
,
00010000
00000100
00000010
00000001
00000100
00001000
00000100
00000001
00000010
00000100
00010000
00001000
,
00100000
01000000
10000000
00010000
01000000
00001000
00010000
00000100
00000010
00000001
00000100
00001000
,
00010000
00100000
10000000
00010000
00010000
01000000
00001000
00001000
00010000
00000100
00000100
00001000
,
00000010
00000010
00010000
00022000
00000000
00000000
00000000
00000000
00000000
00000000
00000000
00000000
,
00000000
00033000
00000000
00000000
;

//---------------dance-single - ----------------
#NOTES:
     dance-single:
     :
     Hard:
     14:
     0.751535,0.855689,0.626057,0.635401,0.345733,563.000000,496.000000,67.000000,68.000000,0.000000,0.000000,0.751535,0.855689,0.626057,0.635401,0.345733,563.000000,496.000000,67.000000,68.000000,0.000000,0.000000:
0000
0000
0000
0000
,
0000
0000
0000
0000
,
0000
0000
0000
0000
,
0000
0000
0000
0000
,
1020
0000
0130
0000
0000
0001
0000
1000
,
1020
0000
0130
0000
0000
0001
0000
1000
,
1020
0000
0130
0000
0000
0001
0000
1000
,
1010
0000
0000
0110
0000
0000
0101
0000
0001
0000
1000
0000
2002
0000
3003
0000
,
0001
0010
0100
0000
1000
0100
0010
0000
,
0001
0100
0010
0000
1000
0010
0100
0000
,
0001
0010
0100
1000
0001
0010
0100
0000
,
1000
0100
0010
0001
1000
0100
0010
0000
,
0001
0100
0010
1010
0000
1000
0100
0010
,
0001
0101
0000
0100
0110
0000
1001
0000
,
2000
3100
0000
0200
0301
0000
0002
0013
,
0000
0020
1030
0000
1100
0000
0011
0000
,
1001
0000
0001
0100
1000
0001
0100
0100
,
0000
1000
0010
0001
1000
0010
0100
0100
,
0000
0001
0010
1000
0100
0100
0010
0010
,
0001
0100
0010
1000
0001
0010
0100
1000
,
0001
1001
1000
0010
0001
1000
0010
0010
,
0000
0001
0100
1000
0001
0100
0010
0010
,
0000
1000
0100
0001
0010
0010
0100
0010
,
0010
1000
0010
0010
0001
0100
1000
0010
,
0110
0201
1300
1200
,
0301
0201
1300
1200
,
0301
0201
1300
1020
,
0031
0000
0101
0100
0010
1000
0001
0010
,
0100
1000
1020
0000
0031
0000
0201
0000
,
1300
1020
0031
0201
,
1300
0021
1030
1200
,
0301
0011
1010
1100
,
0101
0000
2002
3003
0010
0110
0000
1010
,
0000
0101
0001
0010
1000
0001
0100
1000
,
0010
0000
2002
3003
0100
0110
0000
0101
,
0000
1010
1000
0100
0001
1000
0010
0001
,
0100
0000
0220
0330
1000
1001
0000
0011
,
0000
1100
1000
0010
0001
0100
1000
0010
,
0100
0000
0220
0330
0001
1001
0000
1100
,
1000
0001
0010
0010
1000
0100
0100
0001
,
0010
0010
1000
0100
0100
0001
0010
0010
,
1000
1000
0001
0100
1000
0010
0100
0001
,
1001
2000
0000
3010
0100
0010
0110
0000
,
0100
0001
0200
0000
0300
0000
0010
1000
0020
0000
0030
0000
1000
0100
2000
0000
,
3000
0000
0001
0010
0002
0000
0003
0000
0101
0000
0000
0000
1010
0000
0000
0000
,
1000
0000
0000
0100
0000
0000
0001
0000
0000
0010
0000
0000
2000
0000
0000
0000
,
3100
0000
0010
0000
0001
0000
1000
0000
1001
0000
0000
0000
0001
0100
0020
0000
,
0030
0000
1000
0010
0200
0000
0300
0000
0010
1000
0002
0000
0003
0000
0100
0001
,
2000
0000
3000
0000
1010
0000
0000
0000
0101
0000
0000
0000
0001
0000
0000
0010
,
0000
0000
1000
0000
0000
0100
0000
0000
0002
0000
0000
0000
1003
0000
0000
0000
,
0110
0000
0010
1000
0100
0010
1000
1000
,
0000
0010
0100
1000
0010
0001
1000
1000
,
0000
0001
0010
0100
0001
0001
1000
1000
,
0010
0100
1000
0010
0001
1000
0100
0001
,
0010
0110
0100
0001
0010
0100
0001
0001
,
0000
0100
0010
0001
0100
1000
0001
0001
,
0000
1000
0100
0010
1000
1000
0100
0001
,
0001
0010
1000
1000
0100
0001
0010
0100
,
0110
2000
3020
0230
,
0302
0010
0000
2003
0010
0000
3200
0001
,
0000
0320
1000
0000
0032
0000
0203
1000
,
0000
0320
0000
0001
0230
0000
0310
0000
,
0000
0000
0020
0000
2030
0000
3200
0001
,
0000
0320
0000
0032
0000
0023
1000
0000
,
0230
0000
2300
0010
0000
3200
0000
0320
,
0001
0000
0230
0000
2300
0000
3001
1001
,
0000
0000
0000
0110
0000
0010
1000
0000
1000
0010
0000
0010
,
0100
0000
0100
0001
0000
0001
0100
0000
0100
0010
0000
0010
,
1000
0000
1001
0000
0000
0001
0010
0000
0010
0001
0000
0001
,
1000
0000
1000
0100
0000
0100
1000
0000
1000
0001
0000
0001
,
0200
0000
0000
0310
0000
0010
1000
0000
1000
0100
0000
0100
,
0010
0000
0010
0001
0000
0001
0100
0000
0100
0010
0000
0010
,
1000
0000
1001
0000
0000
0001
0010
0000
0010
0100
0000
0100
,
1000
0000
1000
0020
0000
0000
0032
0000
0000
0103
0000
0100
,
1000
0000
0000
1010
0000
0010
0100
0000
0100
0001
0000
0001
,
0010
0000
0000
0110
0000
0100
1000
0000
1000
0010
0000
0010
,
0100
0000
0000
0101
0000
0001
1000
0000
1000
0100
0000
0100
,
0010
0000
0010
0001
0000
0001
0100
0000
0100
1000
0000
1000
,
0100
0000
0000
0110
0000
0010
1000
0000
1000
0100
0000
0100
,
0001
0000
0001
0100
0000
0100
0010
0000
0010
0001
0000
0001
,
0100
0000
0100
1000
0000
1000
0001
0000
0001
0010
0000
0010
,
1000
0000
1000
0100
0010
0100
0010
0001
0010
0001
1000
0100
,
1000
0100
0010
2002
0000
0000
0000
0000
0000
0000
0000
0000
,
0000
3003
0000
0000
;

//---------------dance-double - ----------------
#NOTES:
     dance-double:
     :
     Hard:
     14:
     0.730177,0.855689,0.532616,0.532616,0.308356,547.000000,490.000000,57.000000,57.000000,0.000000,0.000000,0.730177,0.855689,0.532616,0.532616,0.308356,547.000000,490.000000,57.000000,57.000000,0.000000,0.000000:
00000000
00000000
00000000
00000000
,
00000000
00000000
00000000
00000000
,
00000000
00000000
00000000
00000000
,
00000000
00000000
00000000
00000000
,
00101000
00000000
00010000
00000000
00000000
00010000
00000000
00010000
,
00010010
00000000
00001000
00000000
00000000
00001000
00000000
00001000
,
01001000
00000000
00010000
00000000
00000000
00010000
00000000
00010000
,
00010100
00000000
00000000
00001100
00000000
00000000
00001001
00000000
00000001
00000000
00000100
00000000
00000020
00000000
00000000
00000000
,
00001030
00000100
00010000
01000000
,
10000000
00100000
00010000
00000010
,
00001000
00000100
00000010
00000001
00000010
00000100
00001000
00000000
,
00010000
01000000
00100000
10000000
00100000
01000000
00010000
00000000
,
00100000
00001000
00010000
00011000
00000000
00001000
00010000
00000100
,
00001000
00001010
00000000
00000001
00000101
00000000
00001001
00000000
,
00001000
00001000
00000000
00000100
00000100
00000000
00010000
00010000
,
00000000
01000000
01000000
00000000
11000000
00000000
01010000
00000000
,
00011000
00000000
00001000
00010000
00100000
01000000
00001000
00010000
,
00000000
00001000
00100000
00010000
01000000
00001000
00010000
00100000
,
00000000
00010000
00001000
00100000
00010000
00010000
01000000
01000000
,
00100000
10000000
01000000
00100000
00010000
01000000
00001000
00010000
,
00001000
00011000
00010000
00001000
00000010
00000100
00010000
00001000
,
00000000
00010000
00000010
00001000
00000100
00010000
00001000
00000010
,
00000000
00001000
00010000
00000010
00001000
00001000
00000100
00000010
,
00000010
00000001
00000100
00000100
00000010
00010000
00010000
00001000
,
00011000
02010000
13000000
10200000
,
00310000
00012000
00103000
00021000
,
00030010
00002010
00003100
00000102
,
00000013
00000000
00000010
00001000
00000100
00000010
00001000
00010000
,
00100000
20100000
31000000
01020000
,
00130000
00102000
00013000
00020010
,
00031000
00001200
00000301
00000021
,
00001030
00011000
00010100
00011000
,
01001000
00000000
00022000
00033000
00010000
01000000
00000000
11000000
,
00000000
00110000
00100000
00001000
00010000
00100000
10000000
01000000
,
00010000
00000000
00022000
00033000
00001000
00000100
00000000
00000101
,
00000000
00001010
00000010
00010000
00001000
00000100
00000001
00000010
,
00001000
00000000
00022000
00033000
00010000
00100000
00000000
10100000
,
00000000
01010000
00010000
00100000
01000000
00010000
00001000
00000010
,
00000001
00000000
00000202
00000303
00000100
00001000
00000000
00011000
,
00010000
00100000
10000000
10000000
01000000
00010000
00010000
00001000
,
00000010
00000010
00000001
00000100
00000100
00001000
00010000
00010000
,
00001000
00001000
00010000
01000000
00010000
00001000
00000100
00001000
,
00011000
00020000
00000000
00031000
00000010
00000001
00001001
00000000
,
00001000
00000100
00000010
00000001
00001000
00000100
00000010
00001000
,
00010000
01000000
00100000
00010000
10000000
01000000
00100000
00010000
,
01000000
00000000
00000000
00001000
00000000
00000000
00010000
00000000
00000000
00000100
00000000
00000000
00002000
00000000
00000000
00000000
,
00003010
00010000
00001000
00010000
00011000
00000000
00001000
00010000
,
01000000
10000000
00100000
00010000
00001000
00000100
00000001
00000010
,
00001000
00000000
00010000
00000000
00100000
00000000
10000000
00000000
01000000
00000000
00010000
00000000
00001000
00000000
00000000
00000010
,
00000000
00000000
00000001
00000000
00000000
00000100
00000000
00000000
00002000
00000000
00000000
00000000
00013000
00000000
00000000
00000000
,
00011000
00000000
00010000
00001000
00000010
00000001
00000100
00001000
,
00000000
00001000
00000100
00000001
00000010
00001000
00010000
00100000
,
00000000
00100000
00010000
00001000
00100000
00100000
01000000
01000000
,
10000000
00100000
00010000
00001000
00000100
00000001
00000010
00001000
,
00010000
00011000
00001000
00010000
00100000
10000000
01000000
00010000
,
00000000
00010000
01000000
10000000
00100000
00010000
00001000
00000010
,
00000000
00000010
00001000
00010000
00000100
00000100
00000010
00000001
,
00000001
00000100
00001000
00001000
00010000
00100000
10000000
00010000
,
10010000
20000000
32000000
03200000
,
00302000
00023000
00030200
00000320
,
00000032
00002003
00003200
00020300
,
00032000
00203000
00320000
10030000
,
00000000
20000000
32000000
03200000
,
00320000
00032000
00003200
00000320
,
00000032
00000203
00002300
00023000
,
00230000
00000000
20300000
00000000
32000000
00000000
03010000
00011000
,
00000000
00000000
00000000
00011000
00000000
00010000
00000100
00000000
00000100
00001000
00000000
00001000
,
00000010
00000000
00000010
00000100
00000000
00000100
00000001
00000000
00000001
00001000
00000000
00001000
,
00000010
00000000
00010010
00000000
00000000
00010000
00001000
00000000
00001000
00100000
00000000
00100000
,
00010000
00000000
00010000
01000000
00000000
01000000
00100000
00000000
00100000
10000000
00000000
10000000
,
02000000
00000000
00000000
03100000
00000000
00100000
00010000
00000000
00010000
01000000
00000000
01000000
,
00001000
00000000
00001000
00010000
00000000
00010000
00000100
00000000
00000100
00000010
00000000
00000010
,
00000001
00000000
00000101
00000000
00000000
00000100
00001000
00000000
00001000
00010000
00000000
00010000
,
00100000
00000000
00100000
20000000
00000000
00000000
30020000
00000000
00000000
01030000
00000000
01000000
,
00001000
00000000
00000000
00011000
00000000
00010000
00000100
00000000
00001000
00000010
00000000
00000100
,
00000001
00000000
00000000
00000011
00000000
00000010
00000100
00000000
00001000
00000010
00000000
00010000
,
00001000
00000000
00000000
00101000
00000000
00100000
00010000
00000000
01000000
00100000
00000000
10000000
,
01000000
00000000
00100000
00001000
00000000
00010000
00000100
00000000
00000010
00000001
00000000
00000100
,
00000010
00000000
00000000
00001010
00000000
00001000
00000100
00000000
00010000
00001000
00000000
00100000
,
01000000
00000000
10000000
00100000
00000000
01000000
00001000
00000000
00010000
00000100
00000000
00000010
,
00000001
00000000
00000100
00001000
00000000
00010000
00001000
00000000
00010000
01000000
00000000
10000000
,
00100000
00000000
00010000
00001000
00010000
00001000
00010000
00001000
00010000
00001000
01000000
00001000
,
00010000
00000100
00010000
00022000
00000000
00000000
00000000
00000000
00000000
00000000
00000000
00000000
,
00000000
00033000
00000000
00000000
;

//---------------dance-single - ----------------
#NOTES:
     dance-single:
     :
     Medium:
     12:
     0.548634,0.622319,0.252292,0.476551,0.102785,411.000000,384.000000,27.000000,51.000000,0.000000,0.000000,0.548634,0.622319,0.252292,0.476551,0.102785,411.000000,384.000000,27.000000,51.000000,0.000000,0.000000:
0000
0000
0000
0000
,
0000
0000
0000
0000
,
0000
0000
0000
0000
,
0000
0000
0000
0000
,
1000
0000
0010
0000
0000
0100
0000
0100
,
0001
0000
1000
0000
0000
0010
0000
0010
,
0100
0000
0001
0000
0000
1000
0000
1000
,
0010
0000
0100
0000
0001
1000
0002
0000
,
1003
0000
0100
0000
0010
0001
0010
0000
,
0001
0000
0010
0000
0100
1000
0100
0000
,
1000
0000
0010
0000
0100
0001
0100
0000
,
0001
0000
0100
0000
0010
1000
0010
0000
,
0100
0001
1000
0010
0000
0010
1000
0001
,
0100
0010
0000
0010
0100
0000
0110
0000
,
1000
0010
0000
0010
0001
0000
0001
0100
,
0000
0100
1000
0000
0010
0000
0100
0000
,
0110
0000
0010
0000
1000
0100
1000
0100
,
0000
0000
0010
0000
0001
0100
0001
0100
,
0000
0000
0010
0000
1000
0100
0010
0000
,
0010
0001
0100
0000
0100
0010
1000
0000
,
1001
0000
0001
0000
0010
0100
0010
0100
,
0000
0000
1000
0000
0100
0010
0100
0010
,
0000
0000
0001
0000
0100
0010
0000
0010
,
1000
0000
1000
0001
0000
0001
0100
0010
,
0110
2000
3010
0002
,
0103
2000
3010
0002
,
0103
2000
3010
0002
,
0103
0000
1000
0100
1000
0100
0010
0001
,
0010
0200
1300
0020
,
0031
0200
1300
0020
,
0031
0200
1300
0020
,
0031
0101
1000
1100
,
0001
0000
1001
0000
1000
0010
0000
0100
,
0000
0100
0002
0000
1003
0100
0010
0001
,
0100
0000
0110
0000
0010
1000
0000
0001
,
0000
0001
0200
0000
0310
1000
0001
0010
,
0100
0000
1100
0000
1000
0010
0000
0010
,
0000
0001
0200
0000
1300
0010
0100
0001
,
1000
0000
1010
0000
0010
0100
0000
0100
,
0001
0000
0001
0010
0000
0010
1000
0000
,
1000
0100
0000
0100
0001
0000
0001
1000
,
0001
1000
0010
0100
0001
1000
0100
0010
,
0002
0000
0000
0000
1003
0010
0110
0000
,
0100
0000
0000
0001
0000
0000
0010
0000
,
0000
1000
0000
0100
0100
0000
0110
0000
,
0001
0010
1000
0100
,
0001
0010
0100
1000
0020
0000
1030
0000
,
0000
0100
0000
0000
0001
0000
0000
0010
,
0000
1000
1000
0000
1001
0000
0001
0000
,
0100
1000
0010
0110
,
1001
0000
0010
0000
0001
0100
0001
0100
,
0000
0000
0010
0000
1000
0100
1000
0100
,
0000
0000
0010
0000
0001
0100
0010
0000
,
0010
1000
0100
0000
0100
0010
0001
0000
,
1001
0000
1000
0000
0010
0100
0001
0100
,
0000
0000
0001
0000
0010
0100
1000
0100
,
0000
0000
1000
0000
0010
0001
0000
0001
,
0100
0000
0100
1000
0000
1000
0010
0100
,
0110
0002
0023
0230
,
2300
3002
0203
0320
,
2030
3002
0023
0230
,
2300
3002
0203
0310
,
0000
0020
2030
3200
,
0302
2003
3020
0032
,
0203
2300
3002
0023
,
2030
0000
3200
0000
0320
0000
0100
0130
,
0000
0110
0001
0100
,
1000
0110
1000
0010
,
0001
0000
0001
0000
0000
0000
0110
0000
0000
1000
0000
0000
,
0001
0110
0001
1000
,
0110
0110
1000
0100
,
0001
0110
0001
0010
,
1000
0000
1000
0000
0000
0000
0110
0000
0000
1000
0000
0000
,
0001
0210
0302
2003
,
3010
0000
0000
0010
0000
0100
0001
0000
0100
0010
0000
0000
,
1000
0000
0000
0001
0000
0100
0010
0000
1000
0010
0000
0000
,
0100
0000
0000
0001
0000
0010
0100
0000
0010
0001
0000
0100
,
0001
0000
1000
0001
0000
1000
0010
0000
0100
0010
0000
0100
,
0001
0000
0000
0010
0000
0100
1000
0000
0000
0010
0000
0100
,
0001
0000
0000
0010
0000
0001
1000
0000
0000
0100
0000
1000
,
0001
0000
0000
0100
0000
0010
1000
0000
0000
0100
0000
0010
,
0001
0000
0000
0100
0000
0010
1000
0000
0001
0100
0000
0010
,
0100
2002
0000
0000
,
0000
3003
0000
0000
;

//---------------dance-double - ----------------
#NOTES:
     dance-double:
     :
     Medium:
     12:
     0.533951,0.583424,0.224259,0.336389,0.098113,400.000000,376.000000,24.000000,36.000000,0.000000,0.000000,0.533951,0.583424,0.224259,0.336389,0.098113,400.000000,376.000000,24.000000,36.000000,0.000000,0.000000:
00000000
00000000
00000000
00000000
,
00000000
00000000
00000000
00000000
,
00000000
00000000
00000000
00000000
,
00000000
00000000
00000000
00000000
,
00010000
00000000
00001000
00000000
00000000
00000010
00000000
00000010
,
00001000
00000000
00010000
00000000
00000000
00100000
00000000
00100000
,
00010000
00000000
00001000
00000000
00000000
00000100
00000000
00000100
,
00001000
00000000
00010000
00000000
01000000
00010000
02000000
00000000
,
13000000
00100000
01000000
00010000
,
00100000
00001000
00010000
00000100
,
00001000
00000010
00000100
00000001
,
00000010
00001000
00010000
01000000
,
10000000
00100000
10000000
00100000
00000000
01000000
00010000
00100000
,
00010000
00100000
00000000
00001000
00010000
00000000
00011000
00000000
,
00000100
00001000
00000000
00001000
00000010
00000000
00000010
00000100
,
00000000
00000100
00000001
00000000
00000010
00000000
00001000
00000000
,
00011000
00000000
00010000
00000000
00001000
00100000
00001000
00100000
,
00000000
00000000
00010000
00000000
00100000
00001000
00100000
00001000
,
00000000
00000000
00010000
00000000
00000100
00001000
00000010
00000000
,
00000010
00000100
00000001
00000000
00000001
00001000
00000100
00000000
,
00010100
00000000
00010000
00000000
00001000
01000000
00001000
01000000
,
00000000
00000000
00010000
00000000
01000000
00001000
01000000
00001000
,
00000000
00000000
00010000
00000000
00001000
00100000
00000000
00100000
,
00010000
00000000
00010000
01000000
00000000
01000000
00100000
00000000
,
10010000
20000000
31000000
00200000
,
00310000
00002000
00003100
00000020
,
00000031
00000200
00001300
00020000
,
00130000
00000000
00100000
10000000
00100000
10000000
00010000
01000000
,
00010000
20000000
30100000
02000000
,
03010000
00002000
00003010
00000200
,
00000301
00000020
00001030
00020000
,
01030000
11000000
00100000
01010000
,
00001000
00000000
00011000
00000000
00010000
00000100
00000000
00000010
,
00000000
00000010
00000002
00000000
00000103
00001000
00000100
00001000
,
00010000
00000000
00011000
00000000
00001000
00100000
00000000
01000000
,
00000000
01000000
20000000
00000000
30100000
00010000
00100000
00010000
,
00001000
00000000
00011000
00000000
00010000
00000010
00000000
00000010
,
00000000
00000100
00000002
00000000
00001003
00000010
00001000
00000010
,
00010000
00000000
00011000
00000000
00001000
01000000
00000000
01000000
,
00010000
00000000
00010000
00100000
00000000
00100000
01000000
00000000
,
01000000
10000000
00000000
10000000
00100000
00000000
00100000
00010000
,
00001000
00010000
00001000
00010000
00000100
00010000
00000100
00010000
,
00000020
00000000
00001030
00001001
,
00000001
00000000
00000000
00000100
00000000
00000000
00001000
00000000
,
00000000
00010000
00000000
00100000
00100000
00000000
10100000
00000000
,
10000000
01000000
00100000
00010000
,
01000000
00100000
01000000
00000000
10010000
00000000
10000000
00000000
,
00000000
00100000
00000000
00000000
00010000
00000000
00000000
00001000
,
00000000
00000010
00000010
00000000
00000011
00000000
00000001
00000000
,
00000100
00000010
00001000
00000001
,
00001001
00000000
00001000
00000000
00000100
00010000
00000100
00010000
,
00000000
00000000
00001000
00000000
00010000
00000100
00010000
00000100
,
00000000
00000000
00001000
00000000
00000010
00010000
00001000
00000000
,
00001000
00100000
00010000
00000000
00010000
01000000
00001000
00000000
,
00101000
00000000
00100000
00000000
00001000
01000000
00001000
01000000
,
00000000
00000000
00100000
00000000
01000000
00001000
01000000
00001000
,
00000000
00000000
00100000
00000000
00010000
00100000
00000000
00100000
,
00001000
00000000
00001000
00010000
00000000
00010000
00000100
00000010
,
00000110
00000002
00000103
00002000
,
00013000
00200000
10300000
02000000
,
03010000
00002000
00003100
00000002
,
00000013
00002000
00013000
00011000
,
00000000
00020000
00130000
20000000
,
31000000
00020000
00031000
00000020
,
00000031
00000200
00001300
00020000
,
00130000
00000000
20000000
00000000
31000000
00000000
00010000
00011000
,
00000000
00011000
00010000
01000000
,
10000000
00100000
10000000
01000000
,
00010000
00000000
00010000
00000000
00000000
00000000
00011000
00000000
00000000
00001000
00000000
00000000
,
00000010
00000001
00001000
00000001
,
00000100
00011000
00001000
00000100
,
00000001
00000010
00000001
00000100
,
00001000
00000000
00001000
00000000
00000000
00000000
00011000
00000000
00000000
00010000
00000000
00000000
,
00100000
20000000
32000000
03200000
,
00310000
00000000
00000000
00010000
00000000
01000000
00010000
00000000
01000000
00010000
00000000
00000000
,
00100000
00000000
00000000
00001000
00000000
00010000
00000100
00000000
00010000
00000100
00000000
00000000
,
00000010
00000000
00000000
00000001
00000000
00000100
00000010
00000000
00000100
00000010
00000000
00001000
,
00000010
00000000
00000000
00010000
00000000
00001000
00100000
00000000
00001000
00100000
00000000
00010000
,
00100000
00000000
00000000
01000000
00000000
10000000
00100000
00000000
00000000
01000000
00000000
00010000
,
00100000
00000000
00000000
00001000
00000000
00010000
00000100
00000000
00000000
00000010
00000000
00000001
,
00000100
00000000
00000000
00000010
00000000
00010000
00001000
00000000
00000000
00100000
00000000
01000000
,
10000000
00000000
00000000
00100000
00000000
00100000
00010000
00000000
00010000
00001000
00000000
00001000
,
00000010
00002002
00000000
00000000
,
00000000
00003003
00000000
00000000
;

//---------------dance-single - ----------------
#NOTES:
     dance-single:
     :
     Easy:
     9:
     0.309691,0.388950,0.149506,0.158850,0.000000,232.000000,216.000000,16.000000,17.000000,0.000000,0.000000,0.309691,0.388950,0.149506,0.158850,0.000000,232.000000,216.000000,16.000000,17.000000,0.000000,0.000000:
0000
0000
0000
0000
,
0000
0000
0000
0000
,
0000
0000
0000
0000
,
0000
0000
0000
0000
,
1000
1000
0000
0000
,
0001
0001
0000
0000
,
1000
1000
0000
0000
,
0001
0001
0001
0000
,
0100
0000
1000
0000
,
0010
0000
0001
0000
,
0100
0000
1000
0000
,
0010
0000
0001
0100
,
0100
0000
1000
0000
,
0001
0000
0100
0000
,
0010
0000
0000
0010
0000
0000
0010
0000
,
0000
0010
0000
0000
1000
0000
0001
0000
,
1001
1000
0100
0010
,
0000
1000
0100
0010
,
0000
1000
0100
0010
,
0001
0010
0100
1000
,
0000
0001
0010
0100
,
0000
0001
0010
0100
,
0000
0001
0010
0010
,
1000
0010
0001
0100
,
0110
1000
0000
0010
,
0000
1000
0010
2000
,
3000
0001
0000
0100
,
0000
0001
0100
0002
,
0003
1000
0000
0100
,
0000
1000
0100
2000
,
3000
0001
0000
0010
,
0000
0001
0010
0001
,
0001
0100
1000
0010
,
0001
1001
0000
0000
,
0000
0010
0001
0100
,
1000
1001
0000
0000
,
0000
0010
1000
0100
,
0001
1001
0000
0000
,
0000
0100
0001
0010
,
1000
1001
0000
0110
,
0000
1001
0000
0110
,
0000
1000
1000
0001
,
0001
0000
0000
0000
0100
0100
0100
0000
,
0020
0000
0000
0030
,
2000
0000
0000
3000
,
0001
0100
0010
1000
,
0000
0000
0010
0010
0010
0000
0200
0000
,
0000
0000
0300
0002
,
0000
0000
0003
1000
,
0010
0100
0001
1000
,
1001
0001
0100
0010
,
0000
0001
0100
0010
,
0000
0001
0100
0010
,
1000
0010
0100
0001
,
0000
1000
0010
0100
,
0000
1000
0010
0100
,
0000
1000
0010
0010
,
0001
0010
1000
0100
,
0110
2000
0000
3000
,
0000
0020
0000
0030
,
0000
0002
0000
0003
,
0000
0200
0000
0300
,
0000
0002
0000
0003
,
0000
0020
0000
0030
,
0000
2000
0000
3000
,
0000
0200
0000
0310
,
0000
0000
0010
0001
,
0010
0001
0010
0001
,
0010
0010
0000
0000
0100
0000
1000
0000
,
0001
1001
0000
1001
,
0000
1000
0010
1000
,
0010
1000
0010
1000
,
0010
0010
0000
0000
0100
0000
0001
0000
,
1000
1001
0000
1001
,
0000
0001
0100
1000
,
0000
1000
0010
0001
,
0000
0001
0100
1000
,
0000
1000
0010
0001
,
0000
0001
0100
0010
,
1000
0001
0100
0010
,
1000
0100
0001
0010
,
1000
0100
0100
0100
,
0100
2002
0000
0000
,
0000
3003
0000
0000
;

//---------------dance-double - ----------------
#NOTES:
     dance-double:
     :
     Easy:
     9:
     0.289668,0.388950,0.140162,0.158850,0.000000,217.000000,202.000000,15.000000,17.000000,0.000000,0.000000,0.289668,0.388950,0.140162,0.158850,0.000000,217.000000,202.000000,15.000000,17.000000,0.000000,0.000000:
00000000
00000000
00000000
00000000
,
00000000
00000000
00000000
00000000
,
00000000
00000000
00000000
00000000
,
00000000
00000000
00000000
00000000
,
00001000
00001000
00000000
00000000
,
00010000
00010000
00000000
00000000
,
00001000
00001000
00000000
00000000
,
00010000
00010000
00010000
00000000
,
00001000
00000000
00000100
00000000
,
00000010
00000000
00010000
00000000
,
00001000
00000000
00000100
00000000
,
00000010
00000000
00010000
00000000
,
00001000
00000000
00000010
00000000
,
00000100
00000000
00010000
00000000
,
00001000
00000000
00000000
00001000
00000000
00000000
00001000
00000000
,
00000000
00001000
00000000
00000000
00001000
00000000
00010000
00000000
,
00011000
00001000
00000000
01000000
,
00000000
00001000
00000000
01000000
,
00000000
00001000
01000000
00100000
,
00010000
00001000
00010000
00011000
,
00000000
00010000
00000000
00000010
,
00000000
00010000
00000000
00000010
,
00000000
00010000
00000010
00000100
,
00001000
00010000
00001000
00011000
,
00000000
00010000
00000000
01000000
,
00000000
10000000
00100000
00020000
,
00030000
00001000
00000000
00000010
,
00000000
00000001
00000100
00002000
,
00003000
00010000
00000000
00100000
,
00000000
10000000
01000000
00020000
,
00030000
00001000
00000000
00000100
,
00000000
00000001
00000010
00001000
,
00001000
00100000
01000000
10000000
,
00100000
00010000
00000000
00000000
,
00000000
00000100
00000010
00000001
,
00000100
00001000
00000000
00000000
,
00000000
00100000
10000000
01000000
,
00010000
00000100
00000000
00000000
,
00000000
00000010
00000001
00000100
,
00001000
01000000
00000000
01100000
,
00000000
00011000
00000000
00000110
,
00000000
00000010
00010000
00001000
,
00100000
00000000
00010000
10010000
,
20000000
00000000
00000000
30000000
,
00200000
00000000
00000000
00300000
,
00010000
00001000
00000010
00000001
,
00000000
00001000
00001001
00000002
,
00000000
00000000
00000003
00000020
,
00000000
00000000
00000030
00001000
,
00010000
00100000
10000000
00010000
,
10010000
10000000
00000000
01000000
,
00000000
00010000
00000000
00001000
,
00000000
00000010
00000001
00000010
,
00000001
00000100
00001000
00000100
,
00000000
00000001
00000000
00000010
,
00000000
00001000
00000000
00010000
,
00000000
01000000
10000000
01000000
,
10000000
00100000
00010000
00001000
,
00011000
02000000
00000000
03000000
,
00000000
00002000
00000000
00003000
,
00000000
00020000
00000000
00030000
,
00000000
00000200
00000000
00000300
,
00000000
00000020
00000000
00000030
,
00000000
00000002
00000000
00000003
,
00000000
00000200
00000000
00000300
,
00000000
00002000
00000000
00013000
,
00000000
00000000
00010000
00100000
,
10000000
00100000
00010000
00100000
,
10000000
00000000
01000000
00010000
,
00001000
00101000
00000000
00011000
,
00000000
00001000
00001000
00000010
,
00000001
00000010
00001000
00000010
,
00000001
00000000
00000100
00001000
,
00010000
00010010
00000000
00011000
,
00000000
00001000
00010000
01000000
,
00000000
10000000
00100000
00010000
,
00000000
00001000
00000010
00000001
,
00000000
00000100
00001000
00010000
,
00000000
00010000
00001000
00000010
,
00001000
00010000
00100000
00010000
,
00001000
00000100
00001000
00010000
,
01000000
00010000
00001000
00010000
,
00001000
00022000
00000000
00000000
,
00000000
00033000
00000000
00000000
;

//---------------dance-single - ----------------
#NOTES:
     dance-single:
     :
     Beginner:
     5:
     0.180208,0.272265,0.028032,0.028032,0.000000,135.000000,132.000000,3.000000,3.000000,0.000000,0.000000,0.180208,0.272265,0.028032,0.028032,0.000000,135.000000,132.000000,3.000000,3.000000,0.000000,0.000000:
// measure 0
0000
0000
0000
0000
,  // measure 1
0000
0000
0000
0000
,  // measure 2
0000
0000
0000
0000
,  // measure 3
0000
0000
0000
0000
,  // measure 4
1000
0000
0000
0000
,  // measure 5
0001
0000
0000
0000
,  // measure 6
1000
0000
0000
0000
,  // measure 7
0001
0000
0001
0000
,  // measure 8
0001
0000
0100
0000
,  // measure 9
0010
0000
1000
0000
,  // measure 10
0001
0000
0100
0000
,  // measure 11
0010
0000
0010
0000
,  // measure 12
0010
0000
0000
0000
,  // measure 13
1000
0000
0000
0000
,  // measure 14
0001
0000
0000
0000
,  // measure 15
0100
0000
0000
0010
,  // measure 16
0010
1000
0000
0100
,  // measure 17
0000
0010
0000
0010
,  // measure 18
0000
1000
0000
0100
,  // measure 19
0000
0010
0000
0010
,  // measure 20
0000
0001
0000
0100
,  // measure 21
0000
0010
0000
0010
,  // measure 22
0000
0001
0000
0100
,  // measure 23
0000
0010
0000
0010
,  // measure 24
0010
0010
0000
0000
,  // measure 25
0000
1000
0000
0000
,  // measure 26
0000
0001
0000
0000
,  // measure 27
0000
0100
0000
0000
,  // measure 28
0000
0010
0000
0000
,  // measure 29
0000
1000
0000
0000
,  // measure 30
0000
0001
0000
0000
,  // measure 31
0000
0100
0000
0100
,  // measure 32
0000
1000
0000
0010
,  // measure 33
0000
0001
0000
0000
,  // measure 34
0000
0001
0000
0100
,  // measure 35
0000
1000
0000
0000
,  // measure 36
0000
0001
0000
0010
,  // measure 37
0000
1000
0000
0000
,  // measure 38
0000
1000
0000
0100
,  // measure 39
0000
0001
0000
1000
,  // measure 40
0000
0001
0000
1000
,  // measure 41
0000
0010
0010
0100
,  // measure 42
0100
0000
0000
0110
,  // measure 43
1000
0000
0000
0000
,  // measure 44
0001
0000
0000
0000
,  // measure 45
1000
0000
0001
0000
,  // measure 46
0100
0000
0110
0001
,  // measure 47
0000
0000
0000
1000
,  // measure 48
0000
0000
0000
0001
,  // measure 49
0000
1000
0000
0010
,  // measure 50
0110
0001
0000
0010
,  // measure 51
0000
0100
0000
0100
,  // measure 52
0000
0001
0000
0010
,  // measure 53
0000
0100
0000
0100
,  // measure 54
0000
1000
0000
0010
,  // measure 55
0000
0100
0000
0100
,  // measure 56
0000
1000
0000
0010
,  // measure 57
0000
0100
0100
0100
,  // measure 58
0100
0002
0000
0000
,  // measure 59
0000
0000
0000
0000
,  // measure 60
0000
0000
0000
0000
,  // measure 61
0000
0000
0000
0003
,  // measure 62
0000
2000
0000
0000
,  // measure 63
0000
0000
0000
0000
,  // measure 64
0000
0000
0000
0000
,  // measure 65
0000
0000
0000
3000
,  // measure 66
0000
0010
0000
0010
,  // measure 67
0000
0100
0000
0100
,  // measure 68
0000
0001
0000
0001
,  // measure 69
0000
1000
0000
1000
,  // measure 70
0000
0100
0000
0100
,  // measure 71
0000
0010
0000
0010
,  // measure 72
0000
0001
0000
0001
,  // measure 73
0000
1000
0000
1000
,  // measure 74
0000
0010
0000
0001
,  // measure 75
0000
0100
0000
1000
,  // measure 76
0000
0010
0000
0001
,  // measure 77
0000
0100
0000
1000
,  // measure 78
0000
0010
0000
0001
,  // measure 79
0000
1000
0000
0100
,  // measure 80
0000
0001
0000
0010
,  // measure 81
0000
0100
0100
0100
,  // measure 82
0010
0200
0000
0000
,  // measure 83
0000
0300
0000
0000
;
