#TITLE:XENON II ~TOMOYUKIの野望~;
#SUBTITLE:;
#ARTIST:Mr. T;
#TITLETRANSLIT:XENON II ~TOMOYUKI no yabou~;
#SUBTITLETRANSLIT:;
#ARTISTTRANSLIT:;
#GENRE:VARIETY;
#CREDIT:;
#BANNER:XENON II ~TOMOYUKI no yabou~.png;
#JACKET:XENON II ~TOMOYUKI no yabou~-jacket.png;
#BACKGROUND:XENON II ~TOMOYUKI no yabou~-bg.png;
#LYRICSPATH:;
#CDTITLE:;
#MUSIC:XENON II ~TOMOYUKI no yabou~.mp3;
#OFFSET:0.000000;
#SAMPLESTART:62.625000;
#SAMPLELENGTH:11.792500;
#SELECTABLE:YES;
#DISPLAYBPM:160;
#BPMS:0.000000=160;
#STOPS:
;
#BGCHANGES:0.000=XENON II ~TOMOYUKI no yabou~.avi=1.000=0=0=0=StretchNoLoop====,
99999=-nosongbg-=1.000=0=0=0 // don't automatically add -songbackground-
;
#KEYSOUNDS:;
#ATTACKS:;

//---------------dance-single - ----------------
#NOTES:
     dance-single:
     :
     Hard:
     15:
     0.671479,0.798760,0.523214,0.377401,0.604699,548.000000,487.000000,61.000000,44.000000,0.000000,0.000000,0.671479,0.798760,0.523214,0.377401,0.604699,548.000000,487.000000,61.000000,44.000000,0.000000,0.000000:
// measure 0
0000
0000
0000
0000
,  // measure 1
0000
0000
0000
0000
,  // measure 2
0000
0000
0000
0000
,  // measure 3
0000
0000
0000
0000
,  // measure 4
0000
0000
0000
0000
,  // measure 5
0000
0000
0000
0000
0000
1000
1010
0000
,  // measure 6
0000
0000
0000
0000
0000
0001
0011
0000
,  // measure 7
0000
0000
0000
0000
0000
1000
1100
0000
,  // measure 8
0000
0001
0101
0000
0000
1000
1001
0000
,  // measure 9
0110
0000
0000
0100
0001
0000
0010
0000
0100
0000
1000
0000
1010
0000
0010
0000
,  // measure 10
0100
0001
0100
1000
0100
0001
0100
0010
,  // measure 11
0100
0001
0100
1000
0100
0001
0100
0010
,  // measure 12
1000
0000
0010
0000
0001
0000
0010
0000
1000
0000
0010
0000
0100
0000
0001
1000
,  // measure 13
0001
1000
0002
0000
0103
0010
0100
0000
0110
0000
0000
0000
0010
1000
0010
0000
,  // measure 14
1000
0100
0000
1000
0010
0000
0000
0100
0000
0001
0010
0001
0010
0100
0000
0000
,  // measure 15
0010
0001
0000
0100
0001
0000
0000
1000
0000
0010
1000
0010
1000
0100
0000
0000
,  // measure 16
0010
0100
0000
1000
0010
0000
0000
0100
0000
0001
1000
0001
2000
0000
3010
0100
,  // measure 17
0010
0000
0100
0001
0000
1000
0000
0010
0100
0001
0100
0001
1000
0000
1000
0000
,  // measure 18
0010
0100
0001
0001
0100
0010
1000
1000
,  // measure 19
0010
0000
0100
0000
0001
0000
0001
0000
0100
0000
0010
0000
1000
0000
0000
1100
,  // measure 20
0000
0000
1010
0000
0101
0000
0001
0000
0010
0000
0100
1000
0010
0000
0000
0010
,  // measure 21
0100
0000
0000
0100
0001
0000
0000
0001
1000
0000
0010
0000
0100
0000
0100
0000
,  // measure 22
0001
1000
0010
0010
1000
0001
0100
0100
,  // measure 23
0001
0000
1000
0000
0010
0000
0010
0000
1000
0000
0001
0000
0100
0000
0000
0110
,  // measure 24
0000
0000
1010
0000
1001
0000
0000
0101
0000
0000
0110
0000
0010
1000
0010
1000
,  // measure 25
0100
0000
0010
0100
0000
0010
0000
0001
0100
0001
0010
0100
2000
0000
0000
0000
,  // measure 26
3010
0200
0000
0301
0010
0100
0120
0000
,  // measure 27
0031
0200
0000
0000
0310
1000
1002
0000
,  // measure 28
0013
0000
0100
0000
1000
0000
0000
1010
0000
0000
0101
0000
0011
0000
0010
0100
,  // measure 29
0000
0010
1000
0000
0010
0000
0100
0010
0001
0000
0100
0000
0120
0000
0000
0000
,  // measure 30
1030
0000
0002
0000
0000
0000
0000
0000
0103
0000
0010
0000
1010
0000
0000
1100
,  // measure 31
0000
0000
0110
0000
0011
0000
0000
0101
0000
0000
0110
0000
1001
0000
1000
0000
,  // measure 32
0010
0000
0001
0000
1000
0000
0100
0000
0001
0000
0010
0000
0100
1000
0100
1000
,  // measure 33
0010
0000
0100
0001
0000
1000
0000
0100
0010
0001
0010
0001
0020
0000
0000
0000
,  // measure 34
0000
0000
0000
0032
,  // measure 35
0000
0000
0000
0203
,  // measure 36
0000
0000
0000
2300
,  // measure 37
0000
0000
0000
3020
,  // measure 38
0000
0230
0000
2300
,  // measure 39
0000
3020
0000
0032
,  // measure 40
2003
0000
0000
0000
3200
0000
0000
0000
0320
0000
0000
0000
0130
0001
0000
0100
,  // measure 41
1000
0000
0100
0001
0000
0100
0010
0000
2002
0000
3003
0000
1000
0010
0000
0100
,  // measure 42
0000
1000
0000
0200
0000
0000
0301
0000
0010
0000
0100
0020
0000
0000
0031
0000
,  // measure 43
0100
0000
0010
2000
0000
0000
3100
0000
0010
0000
0001
0000
1000
0010
0000
0100
,  // measure 44
0000
0001
0000
0020
0000
0000
0130
0000
0001
0100
0000
2000
0000
0000
3010
0100
,  // measure 45
0000
0001
0000
1000
0000
0100
0000
0010
0000
0001
0200
0000
0310
1000
0000
0100
,  // measure 46
0000
0010
0000
0002
0000
0000
0103
0000
1000
0000
0100
0020
0000
0000
0031
0000
,  // measure 47
0010
0000
1000
0200
0000
0000
0310
0000
0001
0000
0100
0000
0110
0000
0000
1010
,  // measure 48
0000
0000
0202
0000
0000
0000
0000
0000
0000
0000
0303
0000
0001
0010
0001
0010
,  // measure 49
0100
0000
1000
0010
0000
0100
0000
0001
1000
0100
1000
0100
0020
0000
0000
0000
,  // measure 50
0001
1000
0031
0200
,  // measure 51
1000
0000
0000
0000
0001
0000
0000
0000
1300
0000
0000
0000
0020
0000
0000
0032
,  // measure 52
0000
0000
2003
0000
3020
0000
0000
0000
0000
0000
0130
0010
0100
0000
0000
0100
,  // measure 53
0001
0000
0000
0001
1000
0000
0000
1000
0100
0000
0010
0000
0001
0000
0100
0000
,  // measure 54
1000
0100
0001
0100
1000
0100
0001
0010
,  // measure 55
1000
0000
0010
0000
0001
0000
0010
0000
1000
0000
0010
0000
0011
0000
0000
0101
,  // measure 56
0000
0000
1100
0000
1010
0000
0000
0110
0000
0000
1001
0000
0001
0100
0001
0100
,  // measure 57
0010
0000
1000
0001
0000
0000
0010
0000
0220
0000
0330
0000
0100
1000
0100
0000
,  // measure 58
0010
0000
0100
1000
0100
0000
0001
0000
0100
0000
0100
0000
0010
0001
0010
0000
,  // measure 59
0100
0000
0010
0001
0010
0000
1000
0000
0010
0000
0010
0000
0001
0100
0001
0000
,  // measure 60
1000
0000
0010
0000
0110
0000
0000
1010
0000
0000
1100
0000
0110
0000
0000
0011
,  // measure 61
0000
0000
0101
0000
1001
0000
1000
0000
0010
0100
0001
0000
1000
0100
1000
0000
,  // measure 62
0010
0000
1000
0100
1000
0000
0010
0000
0001
0000
0001
0000
0011
0000
0000
1010
,  // measure 63
0000
0000
1100
0000
0101
0000
0000
0011
0000
0000
1010
0000
1001
0000
0001
0000
,  // measure 64
0100
0000
1000
0000
0100
0000
0010
0000
0001
0000
0010
0000
1000
0100
0010
0100
,  // measure 65
1000
0000
0010
0100
0000
0001
0000
1000
0100
0010
0100
0010
0001
0000
0000
0000
,  // measure 66
0100
0000
1000
0010
0011
0000
1000
0000
,  // measure 67
0100
0000
0001
0010
1010
0000
0001
0000
,  // measure 68
0010
0000
1000
0100
0101
0000
1000
0000
,  // measure 69
0010
0000
0000
0000
0001
0000
0100
0000
1100
0000
0000
0000
1000
0010
0000
0100
,  // measure 70
0000
0001
0100
0001
1000
0000
0000
0010
0000
0000
0100
0000
0000
0001
0000
0010
,  // measure 71
0000
0100
1000
0100
0010
0000
0000
0001
0000
0000
0100
0010
0100
0001
0000
1000
,  // measure 72
0000
0010
0100
0010
1000
0000
0000
0001
0000
0000
0100
0000
0000
0010
0000
1000
,  // measure 73
0000
0001
0100
0010
1000
0000
0000
1001
0000
0000
0110
0000
2002
0000
0000
0000
,  // measure 74
0000
0000
3003
0000
;

//---------------dance-double - ----------------
#NOTES:
     dance-double:
     :
     Hard:
     15:
     0.616339,0.766809,0.291628,0.291628,0.634719,503.000000,469.000000,34.000000,34.000000,0.000000,0.000000,0.616339,0.766809,0.291628,0.291628,0.634719,503.000000,469.000000,34.000000,34.000000,0.000000,0.000000:
00000000
00000000
00000000
00000000
,
00000000
00000000
00000000
00000000
,
00000000
00000000
00000000
00000000
,
00000000
00000000
00000000
00000000
,
00000000
00000000
00000000
00000000
,
00000000
00000000
00000000
00000000
00000000
00001000
01001000
00000000
,
00000000
00000000
00000000
00000000
00000000
00010000
00010100
00000000
,
00000000
00000000
00000000
00000000
00000000
00001000
00101000
00000000
,
00000000
00010000
00010010
00000000
00000000
00001000
00011000
00000000
,
01010000
00000000
00000000
01000000
10000000
00000000
00100000
00000000
00010000
00000000
00001000
00000000
00011000
00000000
00010000
00000000
,
00000100
00010000
00000010
00010000
00000100
00010000
00000010
00010000
,
00000100
00010000
00000010
00010000
00000100
00010000
00001000
00100000
,
00001000
00000000
01000000
00000000
00001000
00000000
00100000
00000000
00001000
00000000
01000000
00000000
00001000
00000000
00010000
00000100
,
00010000
00000100
00020000
00000000
00030010
00001000
00000100
00000000
00000020
00000000
00000000
00000000
00000031
00000100
00000001
00000000
,
00001000
00000100
00000000
00010000
00001000
00000000
00000000
00100000
00000000
00010000
01000000
00010000
00000000
10000000
00100000
00000000
,
01000000
00100000
00000000
01000000
00010000
00000000
00000000
00100000
00000000
00001000
00010000
00001000
00000000
00010000
00000100
00000000
,
00001000
00000010
00000000
00000100
00000010
00000000
00000000
00000100
00000000
00000001
00001000
00000001
00002000
00000000
00003100
00010000
,
00001000
00000000
00100000
00010000
00000000
01000000
00000000
00100000
10000000
01000000
10000000
01000000
10000000
00000000
00000000
01000000
,
00000000
00000000
00010000
00000000
00001000
00000000
00000000
00010000
00000000
00000000
00100000
00000000
00010000
00000000
00000000
00001000
,
00000000
00000000
00000010
00000000
00001000
00000000
00000000
00010000
00000000
00000000
00001000
00000000
00000100
00000000
00000000
00000001
,
00000000
00000000
00001000
00000000
00001001
00000000
00000001
00000000
00000100
00000000
00000010
00001000
00000010
00000000
00000000
00010000
,
00001000
00000000
00000000
00100000
00010000
00000000
00000000
10000000
00100000
00000000
01000000
00000000
01100000
00000000
00000000
00100000
,
00000000
00000000
10000000
00000000
01000000
00000000
00000000
00010000
00000000
00000000
00001000
00000000
00010000
00000000
00000000
00000100
,
00000000
00000000
00000010
00000000
00000001
00000000
00000000
00000100
00000000
00000000
00001000
00000000
00010000
00000000
00000000
00100000
,
00000000
00000000
10000000
00000000
00010000
00000000
00000000
01000000
00000000
00000000
00001000
00000000
00010000
00000100
00010000
00000100
,
00010000
00000000
00001000
00100000
00000000
00010000
00000000
01000000
00001000
00010000
00001000
00010000
00000200
00000000
00000000
00000000
,
00000000
00000320
00000000
00000031
00000100
00001000
00021000
00000000
,
00000000
02030000
00000000
00000000
13000000
00100000
01020000
00000000
,
00130000
00000000
00001000
00000000
00010000
00000000
00000000
00001000
00000000
00000000
00000010
00000000
00000001
00000000
00001000
00000010
,
00000000
00000010
00010000
00000000
00001000
00000000
00010000
00000000
01000000
00000000
10000000
00000000
10200000
00000000
00000000
00000000
,
00000000
00000000
00320000
00000000
00000000
00000000
00000000
00000000
00031000
00000000
00000100
00000000
00000001
00000000
00000000
00001000
,
00000000
00000000
00000010
00000000
00010000
00000000
00000000
00001000
00000000
00000000
00100000
00000000
00110000
00000000
00010000
00000000
,
10000000
00000000
00100000
00000000
01000000
00000000
00010000
00000000
00100000
00000000
01000000
00000000
00010000
00001000
00010000
00001000
,
00000100
00000000
00000010
00000100
00000000
00000001
00000000
00001000
00000010
00001000
00000010
00001000
00000200
00000000
00000000
00000000
,
00000000
00000000
00000000
00020300
,
00000000
00000000
00000000
00032000
,
00000000
00000000
00000000
02003000
,
00000000
00000000
00000000
03020000
,
00000000
00230000
00000000
02300000
,
00000000
23000000
00000000
30200000
,
00320000
00000000
00000000
00000000
00032000
00000000
00000000
00000000
00003020
00000000
00000000
00000000
00000031
00000100
00000000
00000100
,
00001000
00000000
00001000
00010000
00000000
00010000
00100000
00000000
20100000
00000000
00000000
00000000
31000000
00100000
00000000
00010000
,
00000000
01000000
00000000
00001000
00000000
00000000
00011000
00000000
00010000
00000000
00000100
00000010
00000000
00000000
00000011
00000000
,
00000001
00000000
00001000
00000010
00000000
00000000
00010010
00000000
00010000
00000000
00001000
00000000
00100000
01000000
00000000
10000000
,
00000000
00100000
00000000
01000000
00000000
00000000
01010000
00000000
00010000
00100000
00000000
00001000
00000000
00000000
00001000
00010000
,
00000000
00000100
00000000
00000010
00000000
00000100
00000000
00001000
00000000
00000010
00000100
00000000
00000001
00001000
00000000
00000100
,
00000000
00010000
00000000
00001000
00000000
00000000
00101000
00000000
00100000
00000000
01000000
10000000
00000000
00000000
00100000
00000000
,
00010000
00000000
00001000
00000010
00000000
00000000
00000011
00000000
00000001
00000000
00001000
00000000
00000100
00000000
00000000
00010000
,
00000000
00000000
00022000
00000000
00000000
00000000
00000000
00000000
00000000
00000000
00033000
00000000
00001000
00010000
00001000
00010000
,
00001000
00000000
00100000
01000000
00000000
10000000
00000000
00100000
00010000
00001000
00010000
00001000
00000020
00000000
00000000
00000000
,
00000001
00000100
00001030
00200000
,
10000000
00000000
00000000
00000000
01000000
00000000
00000000
00000000
00310000
00000000
00000000
00000000
00002000
00000000
00000000
00003020
,
00000000
00000000
00000032
00000000
00002000
00000000
00000000
00000000
00003003
00000000
00001000
00000100
00001000
00000000
00000000
00001000
,
00000010
00000000
00000000
00000010
00010000
00000000
00000000
00010000
00001000
00000000
00100000
00000000
01000000
00000000
10000000
00000000
,
00100000
00010000
00100000
10000000
01000000
00010000
00001000
00000010
,
00000001
00000000
00000100
00000000
00001000
00000000
00000100
00000000
00000001
00000000
00000010
00000000
00000110
00000000
00000000
00001100
,
00000000
00000000
00011000
00000000
00110000
00000000
00000000
01100000
00000000
00000000
10010000
00000000
10000000
00100000
10000000
00100000
,
00010000
00000000
00001000
00010000
00000000
00000000
00000100
00000000
00000220
00000000
00000330
00000000
00000001
00000100
00000001
00000000
,
00001000
00000000
00000001
00000100
00000001
00000000
00001000
00000000
00000100
00000000
00010000
00000000
00001000
00100000
00001000
00000000
,
00010000
00000000
00001000
00100000
00001000
00000000
00010000
00000000
00100000
00000000
10000000
00000000
01000000
00100000
01000000
00000000
,
00010000
00000000
00001000
00000000
00100000
00000000
00000000
01000000
00000000
00000000
00010000
00000000
00001000
00000000
00000000
00000010
,
00000000
00000000
00000100
00000000
00001100
00000000
00001000
00000000
00000010
00010000
00001000
00000000
00100000
00010000
00100000
00000000
,
01000000
00000000
00100000
00010000
00100000
00000000
01000000
00000000
10000000
00000000
00100000
00000000
00010000
00000000
00000000
00001000
,
00000000
00000000
00000100
00000000
00000001
00000000
00000000
00000010
00000000
00000000
00000100
00000000
00000110
00000000
00000010
00000000
,
00000001
00000000
00000100
00000000
00001000
00000000
00010000
00000000
00100000
00000000
10000000
00000000
01000000
00010000
01000000
00010000
,
00001000
00000000
00010000
00000100
00000000
00000010
00000000
00000001
00000100
00000001
00000100
00001000
00010000
00000000
00000000
00000000
,
01000000
10000000
00110000
00001000
,
00000100
00000001
00001010
00010000
,
00100000
10000000
01010000
00001000
,
00000010
00000000
00000000
00000000
00000001
00000000
00000000
00000000
00001100
00000000
00000000
00000000
00001000
00000001
00000000
00000100
,
00000000
00000010
00001000
00000000
00000001
00000000
00000000
00000100
00000000
00001000
00000000
00000000
00000000
00010000
00000000
01000000
,
00000000
00100000
00010000
00000000
10000000
00000000
00000000
01000000
00000000
00010000
00001000
00000000
00000000
00010000
00000000
01000000
,
00000000
00100000
00010000
00000000
10000000
00000000
00000000
01000000
00000000
00010000
00000000
00000000
00000000
00001000
00000000
00000100
,
00000000
00000010
00000001
00000000
00001000
00000000
00000000
00000100
00010000
00001000
00010000
00001000
02000000
00000000
00000000
00000000
,
00000000
00000000
03000000
00000000
;

//---------------dance-single - ----------------
#NOTES:
     dance-single:
     :
     Beginner:
     4:
     0.165419,0.284659,0.008577,0.034309,0.000000,135.000000,134.000000,1.000000,4.000000,0.000000,0.000000,0.165419,0.284659,0.008577,0.034309,0.000000,135.000000,134.000000,1.000000,4.000000,0.000000,0.000000:
0000
0000
0000
0000
,
0000
0000
0000
0000
,
0000
0000
0000
0000
,
0000
0000
0000
0000
,
0000
0000
0000
0000
,
0000
0000
0000
1000
,
0000
0000
0000
0001
,
0000
0000
0000
1000
,
0000
0001
0000
1000
,
0001
1000
0001
1000
,
0000
0100
0000
0010
,
0000
0001
0000
1000
,
0000
0100
0000
0010
,
0010
0010
0010
0001
,
0000
0100
0000
0010
,
0000
1000
0000
0001
,
0000
0100
0000
0010
,
0010
0010
0010
1000
,
0000
0000
0000
0001
,
0000
0000
0000
1000
,
0000
0001
0000
1000
,
0001
1000
0000
0001
,
0000
0000
0000
1000
,
0000
0000
0000
0001
,
0000
1000
0000
0001
,
1000
0001
1000
0010
,
0000
0000
0000
0100
,
0000
0000
0000
0010
,
0000
0100
0000
0010
,
0100
0010
0000
0100
,
0000
0000
0000
0010
,
0000
0000
0000
0100
,
0000
0010
0000
0100
,
0010
0100
0010
0200
,
0000
0000
0000
0300
,
0000
0000
0000
0020
,
0000
0000
0000
0030
,
0000
0000
0000
2000
,
0000
0000
0000
3000
,
0000
0000
0000
0002
,
0000
0000
0000
0003
,
0000
0100
0100
0100
,
0000
0010
0000
1000
,
0000
0100
0000
0010
,
0000
0001
0000
0100
,
0000
0010
0000
1000
,
0000
0001
0000
0010
,
0000
0100
0000
1000
,
0000
0010
0000
0100
,
0100
0100
0100
0001
,
0000
0000
0000
1000
,
0000
0000
0000
0001
,
0000
1000
0000
0001
,
1000
0001
1000
0010
,
0000
0100
0000
0001
,
0000
1000
0000
0010
,
0010
0100
0100
0001
,
1000
0010
0100
0010
,
0000
0000
0000
1000
,
0000
0000
0000
0100
,
0000
0000
0000
0001
,
0000
0000
0000
0010
,
0000
0000
0000
1000
,
0000
0000
0000
0100
,
0000
0000
0000
0001
,
0001
0001
0001
0010
,
0000
0100
0000
0010
,
0000
0100
0000
0001
,
0000
1000
0000
0001
,
0000
1000
0000
0010
,
0100
0100
0100
0000
,
0010
0010
0010
0000
,
1000
1000
1000
0000
,
0001
0001
0000
1001
;

//---------------dance-single - ----------------
#NOTES:
     dance-single:
     :
     Easy:
     6:
     0.264671,0.319504,0.120082,0.068618,0.000000,216.000000,202.000000,14.000000,8.000000,0.000000,0.000000,0.264671,0.319504,0.120082,0.068618,0.000000,216.000000,202.000000,14.000000,8.000000,0.000000,0.000000:
0000
0000
0000
0000
,
0000
0000
0000
0000
,
0000
0000
0000
0000
,
0000
0000
0000
0000
,
0000
0000
0000
0000
,
0000
0000
0000
1000
,
0000
0000
0000
0001
,
0000
0000
0000
1000
,
0000
0001
0000
1000
,
0001
1000
1001
0010
,
0100
0001
0100
0010
,
0100
0001
0100
0010
,
1000
0010
0100
0010
,
1000
0010
0100
0001
,
1000
0001
0100
0001
,
1000
0001
0100
1000
,
0001
1000
0010
1000
,
0001
1000
0010
0001
,
1000
0001
1000
0100
,
0010
0100
0010
0001
,
1000
0100
0010
0001
,
0000
0001
0000
0001
,
1000
0001
1000
0010
,
0100
0010
0100
0001
,
0010
0100
1000
0010
,
0000
0010
0000
0010
,
0100
0001
0100
0010
,
1000
0010
0100
0001
,
1000
0100
0010
0001
,
0100
0110
0000
0010
,
1000
0100
1000
0001
,
0010
0001
0100
0010
,
1000
0001
0010
0100
,
1000
0001
1001
0020
,
0000
0000
0000
0030
,
0000
0000
0000
2000
,
0000
0000
0000
3000
,
0000
0000
0000
0002
,
0000
0000
0000
0003
,
0000
0000
0000
0200
,
0000
0000
0300
0010
,
1000
0001
1001
1000
,
0100
0010
0000
1000
,
0100
0001
0000
1000
,
0100
0010
0000
1000
,
0100
0001
0000
0001
,
0010
0100
0000
0001
,
0010
1000
0000
0001
,
0010
0100
0000
0001
,
0010
1000
0001
2002
,
0000
0000
0000
0000
,
0000
0000
0000
0000
,
0000
0000
3003
1000
,
0001
1000
1000
0010
,
0100
0001
1000
0010
,
0100
0001
1000
0010
,
0010
0001
0001
0100
,
0100
1000
1000
0010
,
0100
0101
0000
0001
,
0100
0110
0000
0010
,
1000
1010
0000
1000
,
0010
0110
0000
0100
,
0001
1000
0010
0001
,
1000
0100
0001
1000
,
0010
0100
0001
1000
,
0010
0001
0100
1000
,
0000
0001
0000
1000
,
0000
0001
0000
0010
,
0000
0100
0000
0010
,
0000
0100
0000
0100
,
0100
0000
0110
0010
,
0010
0000
0110
0100
,
0100
0000
1001
0010
,
0010
1001
0000
0220
,
0000
0000
0330
0000
;

//---------------dance-single - ----------------
#NOTES:
     dance-single:
     :
     Medium:
     11:
     0.436216,0.575107,0.274473,0.274473,0.051464,356.000000,324.000000,32.000000,32.000000,0.000000,0.000000,0.436216,0.575107,0.274473,0.274473,0.051464,356.000000,324.000000,32.000000,32.000000,0.000000,0.000000:
0000
0000
0000
0000
,
0000
0000
0000
0000
,
0000
0000
0000
0000
,
0000
0000
0000
0000
,
0000
0000
0000
0000
,
0000
0000
0000
0000
0000
1000
1000
0000
,
0000
0000
0000
0000
0000
0001
0001
0000
,
0000
0000
0000
0000
0000
1000
1000
0000
,
0000
0001
0001
0000
0000
1000
1000
0000
,
0001
1000
1001
0010
,
0100
0001
0100
0010
,
0100
0001
0100
0010
,
1000
0000
0010
0000
0100
0000
0010
0010
,
0010
0000
1000
0100
0010
0001
1001
0000
,
0100
0010
1000
0001
,
0010
0100
1000
0010
,
0100
0000
0001
0000
1000
0000
0100
0100
,
0100
0000
0010
0100
1000
0001
1001
0000
,
0100
1001
0010
1001
,
0100
0000
0010
0000
0010
0000
0000
1000
0000
0000
0001
0000
0100
0000
0000
0010
,
0000
1000
0002
0000
0000
0103
0110
0000
,
1010
0101
1001
0110
,
1000
0110
0001
0110
,
1000
0110
0001
0100
,
0010
0000
1000
0000
0001
0000
0010
0100
,
1000
0001
0010
0100
1000
0010
0200
0000
,
0000
0302
0000
0000
1003
1000
0020
0000
,
0000
2030
0000
0000
3001
0001
0200
0000
,
0000
0000
0310
0000
0010
0000
0000
1000
0000
0000
0001
0000
0010
0000
0000
0100
,
0000
1000
1010
0000
0010
0100
0002
0000
,
0000
0000
2003
0000
0000
0000
0000
0000
3010
0000
0010
0000
0100
0000
0000
0001
,
0000
0000
1000
0000
0100
0000
0000
0010
0000
0000
0001
0000
0100
0000
0010
0000
,
1000
0000
0010
0100
0001
0000
0100
0010
,
1000
0010
0100
0001
0100
0010
1002
0000
,
0000
0000
0000
0203
,
0000
0000
0000
0320
,
0000
0000
0000
2030
,
0000
0000
0000
3200
,
0000
0320
0000
0032
,
0000
2003
0000
3020
,
0230
0000
0302
0000
2003
0000
3100
0010
,
0001
1000
0100
0010
0110
0000
0001
0010
,
0100
0000
0001
0010
1000
0000
0001
0010
,
0100
0000
0001
0010
1000
0000
1000
0100
,
0010
0000
1000
0100
0001
0000
1000
0100
,
0010
0000
1000
0100
0001
0000
0010
0100
,
1000
0000
0001
0010
0100
0000
0010
0100
,
1000
0000
0000
0000
0001
0000
0010
0000
0100
0000
0000
0000
1000
0000
0000
0001
,
0000
2002
0000
0000
3003
0000
1000
0010
,
0100
0001
1000
0010
0100
0100
0002
0000
,
0003
2000
3000
0020
,
0030
0000
0000
0000
0200
0000
0000
0000
0300
0000
0000
0000
0001
0000
0000
1000
,
0000
0001
2002
0000
3003
0000
0010
0000
,
1000
0100
0001
0010
,
0010
0100
0100
1000
,
1000
0000
0000
0000
0001
0000
0000
0000
0001
0000
0000
0000
0100
0000
0000
0010
,
0000
0000
1000
0000
0001
0000
0000
0010
0000
0000
0100
0000
1000
0000
0000
0010
,
0000
0000
0100
0010
0100
0000
0000
0000
2002
0000
3003
0000
0001
0000
0100
0000
,
0001
0000
1000
0100
1000
0000
0001
0010
,
0001
0000
1000
0010
1000
0000
0001
0100
,
0001
0010
0001
0100
0001
0000
1000
0010
,
1000
0100
1000
0010
1000
0000
0100
0010
,
0001
0000
1000
0100
0010
0000
0001
0100
,
0010
0000
1000
0010
0100
0000
0001
0010
,
0100
1000
0010
0100
0001
0000
1000
0100
,
0010
0001
0100
0010
1000
0001
1001
0000
,
0100
1000
0010
0011
,
0010
1000
0100
0101
,
0010
0001
0100
1100
,
0100
0000
0001
0000
0010
0000
1000
0010
,
0000
1010
0100
0001
0101
0000
0001
0010
,
0000
0011
0100
1000
1100
0000
1000
0010
,
0000
0101
0010
1000
1010
0000
0001
0010
,
0000
1100
0010
0011
0000
0000
2002
0000
,
0000
0000
3003
0000
;

//---------------dance-double - ----------------
#NOTES:
     dance-double:
     :
     Easy:
     6:
     0.252417,0.319504,0.120082,0.068618,0.000000,206.000000,192.000000,14.000000,8.000000,0.000000,0.000000,0.252417,0.319504,0.120082,0.068618,0.000000,206.000000,192.000000,14.000000,8.000000,0.000000,0.000000:
00000000
00000000
00000000
00000000
,
00000000
00000000
00000000
00000000
,
00000000
00000000
00000000
00000000
,
00000000
00000000
00000000
00000000
,
00000000
00000000
00000000
00000000
,
00000000
00000000
00000000
00001000
,
00000000
00000000
00000000
00010000
,
00000000
00000000
00000000
00001000
,
00000000
00010000
00000000
00001000
,
00010000
00001000
00011000
00100000
,
00010000
00100000
00000000
00001000
,
00010000
00001000
00000000
00010000
,
00001000
00010000
00000000
00000100
,
00001000
00000100
00000000
00010000
,
00001000
00010000
00001000
00010000
,
00000010
00010000
00000010
00010000
,
00001000
00010000
00001000
00100000
,
00001000
00100000
00001000
00010000
,
00001000
00000100
00001000
00010000
,
00001000
00000100
00000010
00000100
,
00001000
00010000
00100000
01000000
,
00000000
01000000
00000000
01000000
,
00100000
00010000
00001000
00000010
,
00001000
00010000
00001000
00000010
,
00001000
00010000
00100000
10000000
,
00000000
10000000
00000000
10000000
,
01000000
00100000
00010000
01000000
,
00001000
00010000
00000010
00001000
,
00000100
00000010
00000001
00001000
,
00000010
00000110
00000000
00000100
,
00000001
00000010
00000100
00010000
,
00001000
00100000
01000000
10000000
,
00010000
01000000
00100000
00010000
,
00001000
00000010
00000011
00000200
,
00000000
00000000
00000000
00000300
,
00000000
00000000
00000000
00002000
,
00000000
00000000
00000000
00003000
,
00000000
00000000
00000000
00020000
,
00000000
00000000
00000000
00030000
,
00000000
00000000
00000000
00200000
,
00000000
00000000
00300000
10000000
,
00010000
10000000
10010000
00010000
,
00000000
01000000
00000000
00001000
,
00000000
00000100
00000000
00010000
,
00000000
01000000
00000000
00001000
,
00000000
00000100
00000000
00010000
,
00000000
00100000
00000000
00001000
,
00000000
00000010
00000000
00010000
,
00000000
00100000
00000000
00001000
,
00000000
00000010
00000100
00000220
,
00000000
00000000
00000000
00000000
,
00000000
00000000
00000000
00000000
,
00000000
00000000
00000330
00001000
,
00000001
00001000
00001000
00000100
,
00010000
00001000
00100000
00010000
,
01000000
00001000
00010000
00000100
,
00000100
00000010
00000010
00001000
,
00001000
00010000
00010000
01000000
,
10000000
10100000
00000000
00100000
,
00010000
00011000
00000000
00001000
,
00000100
00000101
00000000
00000001
,
00000010
00001010
00000000
00001000
,
00010000
01000000
10000000
01000000
,
00010000
00001000
00000010
00000001
,
00000010
00001000
00010000
00100000
,
10000000
01000000
00100000
00010000
,
00000000
01000000
00000000
00001000
,
00000000
00010000
00000000
00000100
,
00000000
00000010
00000000
00000001
,
00000100
00001000
00010000
01000000
,
10000000
00000000
11000000
00010000
,
01000000
00000000
01010000
00001000
,
00010000
00000000
00011000
00000100
,
00000010
00000110
00000000
00002002
,
00000000
00000000
00003003
00000000
;

//---------------dance-double - ----------------
#NOTES:
     dance-double:
     :
     Medium:
     10:
     0.390879,0.511206,0.162968,0.257319,0.047175,319.000000,300.000000,19.000000,30.000000,0.000000,0.000000,0.390879,0.511206,0.162968,0.257319,0.047175,319.000000,300.000000,19.000000,30.000000,0.000000,0.000000:
00000000
00000000
00000000
00000000
,
00000000
00000000
00000000
00000000
,
00000000
00000000
00000000
00000000
,
00000000
00000000
00000000
00000000
,
00000000
00000000
00000000
00000000
,
00000000
00000000
00000000
00000000
00000000
00001000
00001000
00000000
,
00000000
00000000
00000000
00000000
00000000
00010000
00010000
00000000
,
00000000
00000000
00000000
00000000
00000000
00001000
00001000
00000000
,
00000000
00010000
00010000
00000000
00000000
00001000
00001000
00000000
,
00010000
00001000
00011000
00000100
,
00001000
00000010
00001000
00000100
,
00001000
00000001
00001000
00000100
,
00001000
00000000
00000010
00000000
00001000
00000000
00000100
00000100
,
00000100
00000000
00010000
00001000
00100000
00000000
00110000
00000000
,
00010000
01000000
00001000
00010000
,
00000100
00001000
00000010
00010000
,
00001000
00000000
00100000
00000000
00010000
00000000
01000000
01000000
,
01000000
00000000
00100000
10000000
00010000
00000000
01010000
00000000
,
00001000
00011000
00000100
00001100
,
00000010
00000000
00000100
00000000
00000100
00000000
00000000
00000001
00000000
00000000
00001000
00000000
00000010
00000000
00000000
00010000
,
00000000
00001000
00200000
00000000
00000000
00310000
01010000
00000000
,
00100000
10100000
00010000
00110000
,
00001000
00011000
00000100
00001100
,
00000001
00000101
00000100
00000010
,
00001000
00000000
00000100
00000000
00000010
00000000
00001000
00001000
,
00001000
00000000
00010000
00001000
00100000
00000000
02000000
00000000
,
00000000
23000000
00000000
00000000
30010000
00010000
02000000
00000000
,
00000000
03002000
00000000
00000000
00013000
00010000
00000200
00000000
,
00000000
00000000
00000310
00000000
00000010
00000000
00000000
00000001
00000000
00000000
00000100
00000000
00000010
00000000
00000000
00001000
,
00000000
00000100
00010000
00000000
00001000
00100000
00020000
00000000
,
00000000
00000000
20030000
00000000
00000000
00000000
00000000
00000000
30100000
00000000
00100000
00000000
01000000
00000000
00000000
00001000
,
00000000
00000000
00010000
00000000
00000100
00000000
00000000
00000010
00000000
00000000
00000001
00000000
00000100
00000000
00000010
00000000
,
00001000
00000000
00000010
00000100
00000001
00000000
00001000
00000100
,
00000010
00000000
00001000
00010000
01000000
00000000
21000000
00000000
,
00000000
00000000
00000000
30200000
,
00000000
00000000
00000000
00320000
,
00000000
00000000
00000000
00032000
,
00000000
00000000
00000000
00003200
,
00000000
00000302
00000000
00000023
,
00000000
00000230
00000000
00020300
,
00032000
00000000
00203000
00000000
02300000
00000000
13000000
00100000
,
00010000
00000000
00001000
00000100
00000001
00000000
00000010
00000000
,
00001000
00010000
00001000
00000010
,
00001000
00000000
00010000
00001000
00010000
00000000
01000000
00000000
,
00010000
00001000
00010000
01000000
,
00010000
00000000
00001000
00010000
00001000
00000000
00100000
00000000
,
01000000
10000000
00100000
00010000
,
00001000
00000000
00000000
00000000
00000100
00000000
00000000
00000000
00000001
00000000
00000000
00000000
00000010
00000000
00000000
00000100
,
00000000
00002002
00000000
00000000
00003003
00000000
00000001
00000100
,
00000010
00000100
00000001
00000100
00000010
00000000
00002010
00000000
,
00000000
00003200
00000000
00020300
,
00000000
00000000
00000000
00000000
00032000
00000000
00000000
00000000
00000000
00000000
00000000
00000000
00103000
00000000
00000000
00010000
,
00000000
10000000
20200000
00000000
30300000
00000000
01000000
00000000
,
00010000
00001000
00000100
00000001
,
00000001
00000010
00000010
00001000
,
00001000
00000000
00000000
00000000
00010000
00000000
00000000
00000000
00010000
00000000
00000000
00000000
01000000
00000000
00000000
10000000
,
00000000
00000000
00100000
00000000
01000000
00000000
00000000
00010000
00000000
00000000
00100000
00000000
00001000
00000000
00000000
00010000
,
00000000
00000100
00000100
00000000
00001001
00000000
00000001
00000010
,
00000100
00000000
00000010
00000100
00001000
00000000
00000100
00010000
,
00001000
00000000
00010000
00001000
01000000
00000000
00010000
01000000
,
00100000
00000000
01000000
00100000
10000000
00000000
00010000
00100000
,
01000000
00000000
00100000
00001000
00010000
00000000
00000010
00010000
,
00001000
00000000
00000100
00000010
00001000
00000000
00000100
00000010
,
00000001
00000000
00000100
00001000
00010000
00000000
00001000
00010000
,
01000000
00000000
00100000
01000000
10000000
00000000
00100000
00010000
,
00001000
00010000
00001000
00000010
00000001
00001000
00001001
00000000
,
00000001
00000010
00000100
00001000
,
00000010
00000100
00001000
00010000
,
00100000
01000000
00010000
00100000
,
01000000
00000000
10000000
00000000
10010000
00000000
01000000
00100000
,
01000000
00000000
00010000
00000000
01000000
00000000
10000000
00100000
,
01000000
00000000
00001000
00000000
00010000
00000000
00000100
00000010
,
00000100
00000000
00000001
00000000
00000100
00000000
00001000
00000010
,
00000100
00001000
00010000
00001000
00000000
00000000
00022000
00000000
,
00000000
00000000
00033000
00000000
;
