#TITLE:X-Tree;
#SUBTITLE:;
#ARTIST:Yahpp;
#TITLETRANSLIT:;
#SUBTITLETRANSLIT:;
#ARTISTTRANSLIT:;
#GENRE:VARIETY;
#CREDIT:;
#BANNER:X-Tree.png;
#BACKGROUND:X-Tree-bg.png;
#LYRICSPATH:;
#CDTITLE:;
#MUSIC:X-Tree.MP3;
#OFFSET:-0.040000;
#SAMPLESTART:5.092631;
#SAMPLELENGTH:11.368423;
#LASTBEATHINT:311.816650;
#SELECTABLE:YES;
#BPMS:0.000000=190,108.000000=95,109.000000=190,219.000000=95,220.000000=190,250.500000=95,251.500000=190;
#STOPS:
;
#BGCHANGES:0.000=X-Tree.avi=1.000=0=0=0=StretchNoLoop====,
99999=-nosongbg-=1.000=0=0=0 // don't automatically add -songbackground-
;
#KEYSOUNDS:;
#ATTACKS:;

//---------------dance-single - ----------------
#NOTES:
     dance-single:
     :
     Hard:
     14:
     0.755164,0.836293,0.489836,0.397992,0.525553,518.000000,470.000000,48.000000,39.000000,0.000000,0.000000,0.755164,0.836293,0.489836,0.397992,0.525553,518.000000,470.000000,48.000000,39.000000,0.000000,0.000000:
0000
0000
0000
0000
,
0000
0000
0000
0000
,
0000
0000
0000
0000
,
0000
0000
0000
0000
,
1000
0010
1000
0010
0000
0010
0001
0000
,
1000
0100
1000
0100
0000
0100
0001
0000
,
1000
0010
1000
0010
0000
0011
0000
0000
,
0001
0100
0000
0220
0000
0000
0330
0000
,
2010
3001
0102
1003
,
2010
0002
3003
0101
,
1010
1100
0110
0011
,
1001
0000
0110
0000
0100
0020
0000
1030
,
0001
0100
0001
0100
0000
0100
1000
0000
,
0001
0010
0001
0010
0000
0010
1000
0000
,
0001
0100
0001
0100
1000
0100
0010
0000
,
0001
0010
0100
0001
0000
0220
0330
0000
,
2100
3001
0012
1003
,
2100
0002
3003
0011
,
1100
1010
0101
1001
,
1000
0010
0000
0010
0100
0000
0100
0001
0000
0001
1000
0001
,
0101
0100
0010
1000
1010
0010
0100
0001
,
1000
0000
0100
1000
0000
0001
1000
0000
0100
1000
0000
0000
,
1100
0100
0010
0001
0011
0010
0100
1000
,
0001
0000
0100
0001
0000
1000
0001
0000
0100
0001
0000
0000
,
0011
0010
0100
1000
1010
0010
0100
0001
,
1000
0000
0000
1000
0000
0000
0100
0000
0000
0100
0000
0000
0010
0000
0000
0010
0000
0000
0001
0000
0100
0000
0000
0000
,
0100
0010
0000
0010
1000
0000
1000
0100
1000
0100
0010
0001
,
0200
0000
0020
0000
0330
0000
0010
1000
,
0010
1000
0000
1000
0100
0000
0100
0001
,
0100
0001
0000
0001
0010
0000
0010
0001
,
0010
0001
0000
0001
0100
0000
0100
1000
,
0100
0000
1000
0000
0000
0000
1000
0000
0010
0000
0010
0000
0100
0001
0100
0000
,
0001
0000
0000
0000
0000
0000
1000
0000
0000
0000
0000
0000
0010
0000
0000
1000
0000
0000
0010
0000
0000
0000
0000
0000
1000
0000
0000
0000
0000
0000
0001
0000
0000
0000
0000
0000
0010
0000
0000
0000
0000
0000
0000
0000
0100
0000
0000
0000
,
0010
0000
0200
0000
0000
1300
0001
0000
2000
0000
0000
0000
,
3001
0100
0001
0000
0010
0000
0100
0000
1000
0010
1000
0000
0100
0000
0010
0000
,
0001
0000
2002
0000
3003
0000
0000
0000
1000
0100
1000
0000
0010
0000
0100
0000
,
0001
0000
0010
0000
0200
0000
0000
0000
1300
0100
1000
0000
0010
0000
0100
0000
,
0001
0010
0200
0000
1300
0010
0210
0000
,
0302
0023
2030
3200
,
0310
1000
0000
0000
0001
0100
0000
0000
0010
0000
0010
0000
0110
0000
1000
0000
,
0100
0001
0100
0000
1000
0000
0110
0001
,
0010
1000
0010
0000
0001
0000
0010
0010
,
1000
0000
0001
0000
0100
0000
0100
0000
0001
0000
1000
0000
0010
0100
0010
0000
,
1000
0010
1000
0000
0001
0100
0001
0000
1000
0001
1000
0001
1000
0000
0100
0000
,
0010
0001
0100
0100
0010
1000
0001
0001
,
0010
0100
0001
0100
1000
0010
0100
0100
,
0001
0010
1000
0010
0100
1000
0010
0010
,
0001
0001
0100
0100
1000
1000
1010
0100
,
0001
0010
1000
0001
0100
1000
0010
0100
,
0001
0000
1000
0000
0100
0010
0100
0000
0010
0100
0010
0000
0001
0000
0001
0000
,
0100
1000
0010
1000
0100
0010
1000
1000
,
0100
0001
0010
0001
0100
1000
0010
0010
,
0100
1000
0001
0010
0100
0001
0011
0000
,
1010
0000
0000
1100
0000
0000
0101
0000
0000
0001
0010
0100
,
0010
0100
1000
0010
0100
0001
1000
0100
0010
2002
0000
0000
,
3003
0000
0000
1010
0000
0010
0001
0000
0000
1010
0000
0010
,
0001
0000
0000
1010
0000
0010
0001
0000
0001
0100
0000
0100
,
0010
0000
0010
1000
0000
1000
0100
0000
0100
0001
0000
0001
,
0100
0000
0100
1000
0000
0020
0000
0000
0230
0000
0000
0301
,
0010
0000
0010
1000
0000
1000
0100
0000
0000
0001
0000
0001
,
0010
0000
0000
1000
0000
1000
0010
0000
0010
0100
0000
0100
,
0001
0000
0001
0010
0000
0010
1000
0000
1000
0100
0000
0100
,
0001
0010
0100
0100
0000
2002
0000
3003
,
0011
0000
0010
1000
0000
0000
0011
0000
0010
1000
0000
0000
,
0011
0000
0010
1000
0000
1000
0100
0000
0100
0010
0000
0010
,
0001
0000
0001
0100
0000
0100
1000
0000
1000
0100
0000
0100
,
0010
0000
2000
0000
0000
3002
0000
0000
1003
0010
0000
0100
,
0001
0000
0001
0010
0000
0010
0100
0000
0100
0001
0000
0001
,
0100
0000
0100
1000
0000
1000
0010
0000
0010
0001
0000
0001
,
0010
0000
0010
0100
0000
0100
1000
0000
1000
0100
0000
0100
,
0001
0000
0010
0000
0100
0000
1000
0000
0010
0000
0100
0000
0001
0000
0010
0000
0100
0000
1000
0000
0000
1000
0000
0000
,
0000
0000
2020
3030
0000
0000
0110
0000
0000
0101
0000
0000
,
0011
0000
0010
1000
0000
0200
0000
0000
0000
0302
0000
0000
,
0000
0000
0000
0000
,
0000
2000
0000
0000
3003
0000
0000
0000
;

//---------------dance-double - ----------------
#NOTES:
     dance-double:
     :
     Hard:
     15:
     0.771200,0.910789,0.489836,0.285738,0.566373,529.000000,481.000000,48.000000,28.000000,0.000000,0.000000,0.771200,0.910789,0.489836,0.285738,0.566373,529.000000,481.000000,48.000000,28.000000,0.000000,0.000000:
00000000
00000000
00000000
00000000
,
00000000
00000000
00000000
00000000
,
00000000
00000000
00000000
00000000
,
00000000
00000000
00000000
00000000
,
00001000
00010000
00001000
00010000
00000000
00010000
01000000
00000000
,
00001000
00010000
00001000
00010000
00000000
00010000
00100000
00000000
,
00001000
00010000
00001000
00010000
00000000
01000000
00000000
00000000
,
10000000
00100000
00000000
02200000
00000000
00000000
03300000
00000000
,
10010000
01000000
00011000
00000010
,
00001001
00000220
00000330
00001010
,
00000101
00000011
00001100
00011000
,
01010000
00000000
10100000
00000000
10000000
02000000
00000000
03010000
,
00010000
00001000
00010000
00001000
00000000
00001000
00000010
00000000
,
00010000
00001000
00010000
00001000
00000000
00001000
00000100
00000000
,
00010000
00001000
00010000
00001000
00000010
00001000
00010000
00000000
,
00100000
00010000
00001000
00010000
00000000
00022000
00033000
00000000
,
01001000
00100000
00011000
00000100
,
00010010
00022000
00033000
00010100
,
00101000
01010000
00011000
00001010
,
00000010
00000100
00000000
00000100
00000001
00000000
00000001
00001000
00000000
00001000
00000100
00000000
,
00000010
00001000
00010000
00100000
01000000
00001000
00010000
00100000
,
10000000
00000000
10000000
01000000
00000000
10000000
00010000
00000000
10000000
01000000
00000000
00000000
,
01000000
00010000
00001000
00000100
00000010
00010000
00001000
00000100
,
00000001
00000000
00000001
00000010
00000000
00000001
00001000
00000000
00000001
00000010
00000000
00000000
,
00000010
00001000
00010000
00100000
00010000
00001000
00000100
00001000
,
00010000
00000000
00000000
01000000
00000000
00000000
10000000
00000000
00000000
00100000
00000000
00000000
00010000
00000000
00000000
00001000
00000000
00000000
00000100
00000000
00000001
00000000
00000000
00000000
,
00000001
00000010
00000000
00000010
00001000
00000000
00001000
00010000
00001000
00010000
00001000
00010000
,
00002000
00000000
00020000
00000000
00033000
00000000
00001000
00010000
,
00001000
00010000
00000000
00010000
01000000
00000000
00001000
00010000
,
00001000
00010000
00000000
00010000
00100000
00000000
00010000
00001000
,
00010000
00001000
00000000
00001000
00000010
00000000
00010000
00001000
,
00010000
00001000
00000000
00001000
00000100
00000100
00000001
00000010
,
00000100
00000000
00000000
00001000
00000000
00000000
00010000
00000000
00000000
00100000
00000000
00000000
01000000
00000000
00000000
10000000
00000000
00000000
00100000
00000000
00000000
00000000
01000000
00000000
,
00010000
00000000
00200000
00000000
00000000
00301000
00010000
00000000
00000200
00000000
00000000
00000000
,
00001300
00000010
00001000
00000000
00000001
00000100
00000001
00000000
00000010
00000100
00000010
00000000
00001000
00000000
00010000
00000000
,
01000000
00000000
20000000
00000000
00000000
00000000
00000000
00000000
30100000
01000000
00100000
00000000
00010000
00000000
00001000
00000000
,
00000100
00000010
00000002
00000000
00000013
00000100
00001000
00010000
,
00100000
01000000
20000000
00000000
31000000
00100000
01100000
00000000
,
01001000
00011000
00010100
00000110
,
00000010
00000001
00000010
00000000
00000100
00001000
00000100
00000000
00000010
00000000
00000001
00000000
00000100
00000000
00001000
00000000
,
00010000
00100000
10000000
00000000
01000000
00000000
01000000
00010000
,
00001000
00000100
00000001
00000000
00000010
00000000
00000010
00001000
,
00010000
00000000
00100000
00010000
00001000
00000000
00000100
00000100
,
00001000
00001000
00010000
00010000
00100000
00100000
10000000
01000000
,
00100000
00010000
01000000
00100000
00010000
00001000
00100000
01000000
,
00010000
00001000
00000010
00000001
00000100
00001000
00100000
01000000
,
00010000
00001000
00000010
00000001
00000100
00001000
00100000
01000000
,
00010000
00001000
00010000
01000000
00010000
00001000
00011000
00000000
,
00001100
00000000
00000101
00000000
00001001
00000000
00000001
00000010
,
00000100
00000000
00010000
00000000
00001000
00010000
00001000
00010000
00001000
00010000
00001000
00000000
00010000
00000000
00010000
00000000
,
00100000
10000000
01000000
00010000
00001000
00000010
00001000
00001000
,
00000010
00000001
00000100
00001000
00010000
00100000
00010000
00010000
,
00100000
10000000
01000000
00010000
00001000
00010000
00010100
00000000
,
01001000
00000000
00000000
00010010
00000000
00000000
00101000
00000000
00000000
00001000
00010000
00001000
,
00010000
00001000
00010000
00001000
01000000
00001000
00010000
00000100
00020000
00002000
00000000
00000000
,
00033000
00000000
00000000
00011000
00000000
00010000
01000000
00000000
00000000
11000000
00000000
01000000
,
00010000
00000000
00000000
00011000
00000000
00010000
01000000
00000000
01000000
10000000
00000000
10000000
,
00100000
00000000
00100000
00010000
00000000
00010000
00001000
00000000
00001000
00000010
00000000
00000010
,
00000001
00000000
00000001
00001000
00000000
00001200
00000000
00000000
00020000
00030300
00000000
00010000
,
00001000
00000000
00001000
00100000
00000000
00100000
01000000
00000000
01000000
10000000
00000000
10000000
,
00100000
00000000
00100000
00010000
00000000
00010000
00001000
00000000
00001000
00000100
00000000
00000100
,
00000001
00000000
00000001
00000010
00000000
00000010
00001000
00000000
00001000
00010000
00000000
00010000
,
00100000
00010000
00001000
00010000
00000000
00022000
00000000
00033000
,
00011000
00000000
00001000
00000100
00000000
00000000
00000101
00000000
00000100
00001000
00000000
00000000
,
00011000
00000000
00001000
00000100
00000000
00000100
00000001
00000000
00000001
00000010
00000000
00000010
,
00001000
00000000
00001000
00010000
00000000
00010000
00000100
00000000
00000100
00000010
00000000
00000010
,
00001000
00000000
00021000
00000000
00000000
00200000
00330000
00000000
00100000
10000000
00000000
10000000
,
01000000
00000000
01000000
00010000
00000000
00010000
00001000
00000000
00001000
00100000
00000000
00100000
,
01000000
00000000
01000000
00010000
00000000
00010000
00001000
00000000
00001000
00000010
00000000
00000010
,
00000100
00000000
00000100
00001000
00000000
00001000
00000010
00000000
00000010
00000001
00000000
00000001
,
00000010
00000000
00000100
00000000
00000010
00000000
00000100
00000000
00001000
00000000
00010000
00000000
00001000
00000000
00010000
00000000
00100000
00000000
01000000
00000000
00000000
00100000
00000000
00000000
,
00000000
00000000
20200000
00300000
00000000
00000000
31000000
00000000
00000000
01010000
00000000
00000000
,
00011000
00000000
00001000
00000010
00000000
00000022
00000030
00000000
00000000
00000103
00001000
00010000
,
00001000
00010000
00100000
01000000
00100000
01000000
00100000
10000000
01000000
10000000
01000000
00010000
,
00001000
00010000
00001000
00010000
00001000
00010000
00001000
00000000
00000000
00000000
00000000
00000000
00000000
00000000
00000000
00000000
;

//---------------dance-single - ----------------
#NOTES:
     dance-single:
     :
     Medium:
     12:
     0.575849,0.607192,0.295943,0.418402,0.209201,395.000000,366.000000,29.000000,41.000000,0.000000,0.000000,0.575849,0.607192,0.295943,0.418402,0.209201,395.000000,366.000000,29.000000,41.000000,0.000000,0.000000:
0000
0000
0000
0000
,
0000
0000
0000
0000
,
0000
0000
0000
0000
,
0000
0000
0000
0000
,
2000
0010
0000
3010
1000
0000
0100
0000
,
0002
0010
0000
0013
0001
0000
0100
0000
,
2000
0010
0000
3010
0000
1001
0000
0000
,
0001
0100
0000
0220
0000
0000
0330
0000
,
0010
1000
0100
0001
,
0010
0200
0300
0101
,
1010
0001
0011
1000
,
1100
0000
0010
0000
0110
0200
0000
0310
,
2000
0100
0000
3100
1000
0000
0010
0000
,
0002
0100
0000
0103
0001
0000
0010
0000
,
1000
0100
0010
0000
0001
0010
0100
0000
,
2000
0100
0000
3001
0000
0022
0033
0000
,
0010
0100
1000
0010
,
0001
0200
0300
1100
,
0011
0101
1000
1010
,
0001
0010
1000
0100
,
0001
0010
0001
0000
1000
0010
1000
0000
,
0001
0010
0001
0010
0100
0000
0010
0000
,
1000
0100
1000
0000
0001
0100
0001
0000
,
1000
0100
1000
0100
0010
0000
0100
0000
,
0001
0100
0001
0000
1000
0010
1000
0000
,
0010
0100
0010
0200
0000
0000
0302
0000
,
1003
0000
0010
0000
0001
0100
1000
0000
,
1001
0000
0220
0000
0330
0000
0002
0100
,
0000
0103
0001
0000
0010
0000
2000
0100
,
0000
3100
1000
0000
0001
0000
2000
0010
,
0000
3010
1000
0000
0100
0000
0002
0010
,
0000
0013
0001
0000
1001
0000
1000
0100
,
0010
0000
0000
0001
0000
0000
1000
0000
0000
0100
0000
0000
0010
0000
0000
0000
0000
0000
0100
0000
0000
0000
0001
0000
,
0100
0000
1000
0000
0000
0010
1000
0000
0010
0000
0000
0000
,
0001
0010
0100
0001
0010
0100
2000
0000
,
0000
0002
3003
0000
0001
0100
0010
1000
,
0100
0000
0100
0000
0001
0100
0010
1000
,
0100
0000
0100
0000
0001
0010
0200
0000
,
1000
0001
1000
0310
,
0011
0000
1100
0000
1000
0010
0100
0001
,
1000
0100
0010
0000
0001
0100
0010
1000
,
0001
0010
0100
0000
0110
0000
1000
0010
,
0100
0000
0001
0100
0010
0000
1000
0010
,
0100
0001
1000
0010
0100
0001
1000
0100
,
0010
0000
0010
0001
0100
0000
0100
0010
,
1000
0010
0100
0000
0001
0000
0010
0100
,
1000
0100
0010
0000
0001
0000
0101
0000
,
1000
0000
1100
0000
0001
0000
1000
0010
,
0100
0000
0100
0001
0010
0000
0010
0100
,
0010
0100
1000
0001
1000
0000
0020
0000
,
0230
0000
0310
1000
0001
0000
0200
0000
,
0320
0000
0130
0001
1000
0000
0020
0000
,
0230
0000
0310
1000
0001
0000
0011
0000
,
1000
1010
0001
0101
,
1100
1010
0011
2002
,
3003
0000
0000
1000
0000
1000
0100
0000
0000
0001
0000
0001
,
0100
0000
0000
1000
0000
1000
0100
0000
0100
1000
0000
1000
,
0001
0100
1000
0010
,
0001
0000
0000
1000
0000
0020
0000
0000
0130
0000
0000
0100
,
0001
0000
0000
0001
0000
0001
0010
0000
0000
1000
0000
1000
,
0010
0000
0000
0001
0000
0001
0010
0000
0010
0001
0000
0001
,
1000
0100
0001
0010
,
1000
0000
0100
0010
0000
2002
0000
3003
,
1000
0000
1000
0010
0000
0000
0001
0000
0001
0100
0000
0000
,
1000
0000
1000
0010
0000
0010
0100
0000
0100
0010
0000
0000
,
1000
0100
0001
0010
,
1000
0000
0200
0000
0000
0310
0000
0000
0010
0001
0000
0001
,
1000
0000
1000
0100
0000
0000
0001
0000
0001
0010
0000
0000
,
1000
0000
1000
0100
0000
0100
0010
0000
0010
0100
0000
0000
,
1000
0000
0010
0100
0000
0000
0001
0000
0100
0010
0000
0000
,
1000
0000
0000
0000
1000
0000
0010
0000
0000
0000
0010
0000
0100
0000
0000
0000
0100
0000
0001
0000
0000
0001
0000
0000
,
0000
0000
0021
0000
0000
0000
0230
0000
0000
2300
0000
0000
,
3010
0000
0100
0001
0000
2000
0000
0000
0000
3020
0000
0000
,
0000
0000
0000
0000
,
0000
0000
0130
0001
0100
0001
1000
0000
0000
0000
0000
0000
0000
0000
0000
0000
;

//---------------dance-double - ----------------
#NOTES:
     dance-double:
     :
     Medium:
     12:
     0.546692,0.569243,0.234713,0.387787,0.193893,375.000000,352.000000,23.000000,38.000000,0.000000,0.000000,0.546692,0.569243,0.234713,0.387787,0.193893,375.000000,352.000000,23.000000,38.000000,0.000000,0.000000:
00000000
00000000
00000000
00000000
,
00000000
00000000
00000000
00000000
,
00000000
00000000
00000000
00000000
,
00000000
00000000
00000000
00000000
,
00001000
00010000
00000000
00010000
00001000
00000000
00000010
00000000
,
00001000
00010000
00000000
00010000
00001000
00000000
01000000
00000000
,
00001000
00010000
00000000
00010000
00000000
00011000
00000000
00000000
,
00010000
00001000
00000000
00022000
00000000
00000000
00033000
00000000
,
00010000
00001000
00000010
00000001
,
00000100
00002000
00003000
00011000
,
01000000
10010000
01000000
00011000
,
00000100
00000000
00001001
00000000
00000100
00000020
00000000
00010030
,
00001000
00010000
00000000
00010000
00001000
00000000
00100000
00000000
,
00001000
00010000
00000000
00010000
00001000
00000000
00000010
00000000
,
00001000
00010000
00001000
00000000
00010000
00001000
00010000
00000000
,
00001000
00010000
00000000
00001000
00000000
00022000
00033000
00000000
,
00001000
00010000
00100000
10000000
,
01000000
00020000
00030000
00011000
,
00000100
00001001
00000100
00011000
,
00010000
00100000
10000000
01000000
,
00010000
00001000
00010000
00000000
00001000
00010000
00001000
00000000
,
00010000
00001000
00010000
00001000
00000010
00000000
00001000
00000000
,
00010000
00001000
00010000
00000000
00001000
00010000
00001000
00000000
,
00010000
00001000
00010000
00001000
00100000
00000000
00001000
00000000
,
00010000
00000010
00010000
00000000
00001000
01000000
00001000
00000000
,
00010000
00001000
00010000
00002000
00000000
00000000
00023000
00000000
,
00031000
00000010
00000001
00000100
,
00002000
00000000
00020000
00000000
00033000
00000000
00010000
00100000
,
00000000
00100000
10000000
00000000
01000000
00000000
00010000
00001000
,
00000000
00001000
00000010
00000000
00000001
00000000
00000100
00001000
,
00000000
00001000
00010000
00000000
00100000
00000000
10000000
01000000
,
00000000
01000000
00010000
00000000
00011000
00000000
00001000
00100000
,
00001000
00000000
00000000
00010000
00000000
00000000
00000010
00000000
00000000
00010000
00000000
00000000
00001000
00000000
00000000
00000000
00000000
00000000
00010000
00000000
00000000
00000000
00001000
00000000
,
01000000
00000000
00001000
00000000
00000000
00010000
00000100
00000000
00010000
00000000
00000000
00000000
,
00001000
00100000
00010000
01000000
00001000
00010000
00000200
00000000
,
00000000
00000020
00000330
00000000
00000010
00000001
00000100
00002000
,
00000000
00000000
00013000
00000000
00100000
10000000
01000000
00020000
,
00000000
00000000
00031000
00000000
00000010
00000001
00000200
00000000
,
00002300
00023000
00230000
10300000
,
11000000
00000000
00110000
00000000
00010000
01000000
00001000
00020000
,
00000000
00000000
00030010
00000000
00000010
00001000
00000100
00000000
,
00000010
00000001
00000100
00000000
00000110
00000000
00000001
00000100
,
00001000
00000000
00000100
00001000
00010000
00000000
00001000
00010000
,
00100000
00000000
00010000
00100000
10000000
00100000
00010000
00000000
,
00001000
00000000
00100000
00000000
01000000
00000000
00010000
00001000
,
00000010
00000001
00000100
00000000
00001000
00000000
00001000
00010000
,
00100000
10000000
01000000
00000000
00010000
00000000
00011000
00000000
,
01000000
00000000
00011000
00000000
00000010
00000000
00001000
00000100
,
00000010
00000000
00001000
00000100
00000010
00000000
00001000
00000100
,
00000010
00000001
00000100
00001000
00010000
00000000
00200000
00000000
,
20300000
00000000
30100000
00010000
00001000
00000000
00000020
00000000
,
00000032
00000000
00000013
00001000
00010000
00000000
02000000
00000000
,
23000000
00000000
31000000
00010000
00001000
00000000
00101000
00000000
,
00010000
00010010
00001000
01001000
,
00010000
00010100
00001000
00022000
,
00033000
00000000
00000000
00010000
00000000
00001000
00010000
00000000
00000000
00000100
00000000
00001000
,
00000100
00000000
00000000
00000010
00000000
00000001
00000100
00000000
00000001
00000100
00000000
00000001
,
00001000
00000010
00010000
00001000
,
00100000
00000000
00000000
01000000
00000000
20000000
00000000
00000000
30100000
00000000
00000000
00100000
,
01000000
00000000
00000000
00010000
00000000
00100000
00010000
00000000
00000000
00100000
00000000
00001000
,
00100000
00000000
00000000
00001000
00000000
00010000
00001000
00000000
00010000
00001000
00000000
00010000
,
00000010
00001000
00000100
00000010
,
00000001
00000000
00000100
00000100
00000000
00000220
00000000
00000330
,
00000010
00000000
00001000
00000010
00000000
00000000
00010000
00000000
00001000
00010000
00000000
00000000
,
00100000
00000000
10000000
01000000
00000000
10000000
01000000
00000000
10000000
00010000
00000000
00000000
,
01000000
00001000
00010000
00000100
,
00000010
00000000
00000002
00000000
00000000
00001003
00000000
00000000
00001000
00000010
00000000
00010000
,
00001000
00000000
01000000
00010000
00000000
00000000
01000000
00000000
00001000
00010000
00000000
00000000
,
00000010
00000000
00010000
00001000
00000000
00000000
00010000
00000000
00000010
00001000
00000000
00000000
,
00000100
00000000
00010000
00001000
00000000
00000000
00100000
00000000
00001000
00010000
00000000
00000000
,
00001000
00000000
00000000
00000000
00001000
00000000
00100000
00000000
00000000
00000000
00100000
00000000
01000000
00000000
00000000
00000000
01000000
00000000
10000000
00000000
00000000
10000000
00000000
00000000
,
00000000
00000000
10200000
00000000
00000000
00000000
00320000
00000000
00000000
00032000
00000000
00000000
,
00003010
00000000
00000001
00000100
00000000
00002000
00000000
00000000
00000000
00023000
00000000
00000000
,
00000000
00000000
00000000
00000000
,
00000000
00002000
00000000
00033000
00000000
00000000
00000000
00000000
;

//---------------dance-single - ----------------
#NOTES:
     dance-single:
     :
     Beginner:
     5:
     0.225966,0.304106,0.000000,0.020410,0.000000,155.000000,155.000000,0.000000,2.000000,0.000000,0.000000,0.225966,0.304106,0.000000,0.020410,0.000000,155.000000,155.000000,0.000000,2.000000,0.000000,0.000000:
0000
0000
0000
0000
,
0000
0000
0000
0000
,
0000
0000
0000
0000
,
0000
0000
0000
0000
,
1000
0000
1000
0000
,
1000
0000
1000
0000
,
0001
0000
0001
0000
,
0001
0000
0001
0000
,
1000
0000
1000
0000
,
0001
0000
0001
0000
,
1000
0000
0001
0000
,
1000
1000
1000
0000
,
0010
0000
0010
0000
,
0010
0000
0010
0000
,
0100
0000
0100
0000
,
0100
0000
0100
0000
,
0010
0000
0010
0000
,
0100
0000
0100
0000
,
0010
0000
0100
0000
,
0010
0010
0010
0000
,
1000
0000
0100
0000
,
0010
0000
0001
0000
,
1000
0000
0100
0000
,
0010
0000
0001
0000
,
0100
0000
0100
0000
,
1000
1000
1000
0000
,
0010
0000
0001
0000
,
1000
0001
0000
1000
,
0000
1000
0000
0010
,
0000
0010
0000
0100
,
0000
0100
0000
0001
,
0000
0001
0000
1000
,
0000
0100
0000
0001
,
0000
0010
0000
1000
,
0000
0001
0000
0100
,
0000
0010
0000
0100
,
0100
0100
0000
0010
,
0010
0010
0000
1000
,
1000
0001
0001
1000
,
0000
0001
0000
0100
,
0100
0100
0000
0010
,
0010
0010
0000
0100
,
0000
0010
0000
0100
,
0100
0010
0000
1000
,
0000
0001
0000
0100
,
0000
0010
0000
1000
,
0000
0001
0000
0100
,
0000
0010
0000
0010
,
0000
1000
0000
0100
,
0000
0001
0000
0010
,
0000
0010
0000
0001
,
0000
0001
0000
0100
,
0000
0100
0000
1000
,
0000
0010
0000
0001
,
0000
0100
0100
0200
,
0300
1000
0000
1000
,
0000
0001
0000
0001
,
0000
1000
0000
0001
,
0000
1000
0001
1000
,
0000
0001
0000
0001
,
0000
1000
0000
1000
,
0000
0001
0000
1000
,
0000
0001
1000
0000
,
0001
0000
0001
0000
,
1000
0000
1000
0000
,
0010
0100
0010
0010
,
0010
0000
0100
0000
,
0010
0000
1000
0000
,
0001
0000
0100
0000
,
1000
0000
0010
0000
,
0001
0000
1000
0000
,
0100
0000
0010
0000
,
0100
0100
0100
0020
,
0000
0000
0000
0000
,
0000
0000
0030
0000
;

//---------------dance-single - ----------------
#NOTES:
     dance-single:
     :
     Easy:
     8:
     0.348425,0.494173,0.112254,0.071434,0.000000,239.000000,228.000000,11.000000,7.000000,0.000000,0.000000,0.348425,0.494173,0.112254,0.071434,0.000000,239.000000,228.000000,11.000000,7.000000,0.000000,0.000000:
0000
0000
0000
0000
,
0000
0000
0000
0000
,
0000
0000
0000
0000
,
0000
0000
0000
0000
,
1000
1000
0000
1000
,
0001
0001
0000
0001
,
1000
1000
0000
1000
,
0001
0000
0000
1000
0000
0000
0000
0000
,
0001
0001
0100
0100
,
1000
0010
0000
0010
,
0100
0001
1000
0010
,
0100
0000
0001
0000
1000
1000
0000
0000
,
0001
0001
0000
0001
,
1000
1000
0000
1000
,
0001
0001
0000
0001
,
1000
0000
0000
0001
0000
0000
0000
0000
,
1000
1000
0010
0010
,
0001
0100
0000
0100
,
1000
0000
0001
0000
,
0100
0100
0010
0010
,
1000
0100
0010
0000
,
0010
0001
0100
0000
,
1000
0100
0010
0000
,
0010
0001
0100
0000
,
1000
0100
0010
0000
,
0010
0001
0100
0100
,
1000
0001
1000
0001
,
1001
0110
0000
0010
,
0010
0000
0010
0100
,
0100
0000
0100
0010
,
0010
0000
0010
0100
,
0100
0000
0100
0010
,
1000
0001
0100
1000
,
0000
0001
0000
0000
0000
1000
0000
0000
,
0001
1000
0001
1000
,
0000
1001
0000
0000
0001
0000
0100
0000
,
0001
0100
0100
1000
,
0100
1000
0100
0100
,
0001
0010
1000
0100
,
0010
0010
1000
0100
,
0010
0001
0001
0010
,
0100
1000
1000
1010
,
0000
0101
0000
0110
,
0110
1001
1001
1000
,
0100
0010
0001
1000
,
0100
0020
0030
0001
,
0010
0200
0300
1000
,
0010
0100
0001
1000
,
0010
0001
0010
1000
,
0010
0001
0001
0010
,
0100
2000
3000
0100
,
0010
0002
0003
0010
,
0100
1000
0100
0001
,
0010
1000
0100
0001
,
0001
1000
1000
2002
,
3003
0001
0000
0001
,
0000
0001
0100
0001
,
0000
1000
0000
1000
,
0000
1000
0100
1000
,
0000
0001
0000
0001
,
0000
0001
0010
0001
,
0000
1000
0000
1000
,
0000
0000
1000
0000
0010
0010
0000
0000
,
0100
0001
0100
0001
,
1000
0010
1000
0010
,
0100
0001
1000
0010
,
0100
0100
0100
0000
,
0010
1000
0100
0010
,
0001
0010
0010
0000
,
0001
0100
1000
0100
,
0010
1000
0100
0010
,
0000
0110
0000
0000
0001
0000
0100
0000
,
1000
0010
0100
0020
,
0000
0000
0000
0000
,
0000
0000
0030
0000
;

//---------------dance-double - ----------------
#NOTES:
     dance-double:
     :
     Easy:
     8:
     0.346967,0.418146,0.102049,0.081639,0.000000,238.000000,228.000000,10.000000,8.000000,0.000000,0.000000,0.346967,0.418146,0.102049,0.081639,0.000000,238.000000,228.000000,10.000000,8.000000,0.000000,0.000000:
// measure 0
00000000
00000000
00000000
00000000
,  // measure 1
00000000
00000000
00000000
00000000
,  // measure 2
00000000
00000000
00000000
00000000
,  // measure 3
00000000
00000000
00000000
00000000
,  // measure 4
00001000
00001000
00000000
00001000
,  // measure 5
00010000
00010000
00000000
00010000
,  // measure 6
00001000
00001000
00000000
00001000
,  // measure 7
00010000
00000000
00000000
00001000
00000000
00000000
00000000
00000000
,  // measure 8
00010000
00010000
00001000
00001000
,  // measure 9
00000010
00000001
00000000
00000001
,  // measure 10
00000100
00001000
00010000
00001000
,  // measure 11
00010000
00000000
00100000
00000000
10000000
10000000
00000000
00000000
,  // measure 12
01000000
01000000
00000000
01000000
,  // measure 13
00010000
00010000
00000000
00010000
,  // measure 14
00001000
00001000
00000000
00001000
,  // measure 15
00000010
00000000
00000000
00000001
00000000
00000000
00000000
00000000
,  // measure 16
00000100
00001000
00010000
00001000
,  // measure 17
00000100
00001000
00000000
00001000
,  // measure 18
00010000
00000000
00010000
00000000
,  // measure 19
00100000
00100000
10000000
10000000
,  // measure 20
01000000
00010000
00001000
00000000
,  // measure 21
00100000
00010000
01000000
00000000
,  // measure 22
00100000
00010000
00001000
00000000
,  // measure 23
00100000
00010000
01000000
00000000
,  // measure 24
00001000
00010000
00000100
00000000
,  // measure 25
00000010
00000001
00000100
00000100
,  // measure 26
00001000
00010000
00001000
00010000
,  // measure 27
00011000
00011000
00000000
00001000
,  // measure 28
00001000
00000000
00010000
00100000
,  // measure 29
10000000
00000000
10000000
00100000
,  // measure 30
00010000
00000000
00001000
00000100
,  // measure 31
00000001
00000000
00000001
00000100
,  // measure 32
00001000
00010000
00100000
10000000
,  // measure 33
00000000
01000000
00000000
00000000
00000000
00010000
00000000
00000000
,  // measure 34
00001000
00010000
00001000
00000010
,  // measure 35
00000000
00000110
00000000
00000000
00000001
00000000
00000100
00000000
,  // measure 36
00000001
00000100
00001000
00010000
,  // measure 37
00001000
00010000
00100000
10000000
,  // measure 38
01000000
00100000
01000000
10000000
,  // measure 39
01000000
00010000
00001000
00100000
,  // measure 40
01000000
00010000
00001000
00000010
,  // measure 41
00000100
00001000
00000001
00000011
,  // measure 42
00000000
00001010
00000000
00011000
,  // measure 43
00010000
00011000
00001000
00100000
,  // measure 44
01000000
10000000
00100000
00010000
,  // measure 45
00001000
00200000
00300000
00001000
,  // measure 46
00010000
00000020
00000030
00010000
,  // measure 47
00001000
01000000
00010000
01000000
,  // measure 48
00001000
00010000
00100000
00010000
,  // measure 49
00001000
00010000
00100000
00010000
,  // measure 50
00001000
00000020
00000030
00001000
,  // measure 51
00010000
00200000
00300000
00010000
,  // measure 52
00001000
00000010
00000001
00000100
,  // measure 53
00001000
00010000
00100000
10000000
,  // measure 54
01000000
00010000
00001000
00022000
,  // measure 55
00033000
00010000
00000000
00010000
,  // measure 56
00000000
00010000
00000010
00010000
,  // measure 57
00000000
00001000
00000000
00001000
,  // measure 58
00000000
00001000
01000000
00001000
,  // measure 59
00000000
00010000
00000000
00010000
,  // measure 60
00000000
00010000
00000100
00010000
,  // measure 61
00000000
00001000
00000000
00001000
,  // measure 62
00000000
00000000
00001000
00000000
00100000
00100000
00000000
00000000
,  // measure 63
00010000
01000000
00001000
00010000
,  // measure 64
00000100
00001000
00000010
00010000
,  // measure 65
00001000
00100000
00010000
00100000
,  // measure 66
01000000
01000000
10000000
00000000
,  // measure 67
00100000
00010000
00001000
00000010
,  // measure 68
00001000
00010000
00001000
00000000
,  // measure 69
00000010
00000001
00000100
00001000
,  // measure 70
00010000
00100000
10000000
01000000
,  // measure 71
00000000
01100000
00000000
00000000
00010000
00000000
00001000
00000000
,  // measure 72
00000100
00000010
00000100
00002002
,  // measure 73
00000000
00000000
00000000
00000000
,  // measure 74
00000000
00000000
00003003
00000000
;
