#TITLE:World's end loneliness;
#SUBTITLE:;
#ARTIST:打打だいず;
#TITLETRANSLIT:;
#SUBTITLETRANSLIT:;
#ARTISTTRANSLIT:D-D-Dice;
#GENRE:VARIETY;
#CREDIT:;
#BANNER:World's end loneliness.png;
#BACKGROUND:World's end loneliness-bg.png;
#LYRICSPATH:;
#CDTITLE:;
#MUSIC:World's end loneliness.ogg;
#OFFSET:0.021000;
#SAMPLESTART:87.606972;
#SAMPLELENGTH:12.818050;
#SELECTABLE:YES;
#DISPLAYBPM:103.000000:205.000000;
#BPMS:0.000000=180,26.000000=151.6,28.000000=142.76,30.000000=120.24,32.000000=101.28,34.000000=205,194.000000=102.5,202=205,218=102.5,233=205,259=102.5,261=205,345.000000=102.5,360.500000=410,362.500000=205,418.500000=102.5,422.500000=205;
#STOPS:
;
#BGCHANGES:0.000=World's end loneliness.avi=1.000=0=0=0=StretchNoLoop====,
99999=-nosongbg-=1.000=0=0=0 // don't automatically add -songbackground-
;
#KEYSOUNDS:;
#ATTACKS:;

//---------------dance-single - ----------------
#NOTES:
     dance-single:
     :
     Hard:
     17:
     0.882597,1.015924,0.363826,0.624683,0.799731,900.000000,847.000000,53.000000,91.000000,0.000000,0.000000,0.882597,1.015924,0.363826,0.624683,0.799731,900.000000,847.000000,53.000000,91.000000,0.000000,0.000000:
// measure 0
0000
0000
0000
0000
,  // measure 1
0000
0000
0000
0000
,  // measure 2
0000
0000
0000
0000
,  // measure 3
0000
0000
0000
0000
,  // measure 4
0000
0000
0000
0000
0000
0000
0100
0001
0100
0001
0010
0001
,  // measure 5
0010
0100
0010
0100
1000
0100
1000
0010
1000
0010
0100
0010
,  // measure 6
0100
0001
0100
0001
1000
0001
2000
0000
0000
0000
0000
0000
,  // measure 7
3020
0000
0032
0000
,  // measure 8
0203
0000
0000
0000
1300
1000
0100
0010
,  // measure 9
0001
0000
0100
0000
0010
1000
0010
0000
1000
0000
0100
0000
0010
0000
0001
0000
,  // measure 10
0100
0000
0010
0000
1000
0010
1000
0000
0100
0000
0010
0000
0001
0000
0100
0000
,  // measure 11
0010
0000
1000
0000
0010
1000
0010
0000
1000
0000
0100
0010
0100
0000
0010
0000
,  // measure 12
0001
0010
0100
0010
0011
0001
0100
0010
,  // measure 13
1000
0000
0100
0000
0010
0001
0010
0000
0001
0000
0100
0000
0010
0000
1000
0000
,  // measure 14
0100
0000
0010
0000
0001
0010
0001
0000
0100
0010
0100
0000
0010
1000
0010
0000
,  // measure 15
0100
0010
0100
0000
0001
0100
0002
0000
0000
0000
1003
0100
0010
0000
0100
0000
,  // measure 16
1000
0000
0100
0000
0120
0000
0000
0000
0031
0000
0000
0001
0000
0000
0100
0000
,  // measure 17
0000
0010
0000
0000
1000
0000
0001
0100
0010
0000
0000
0010
0000
0000
1000
0000
,  // measure 18
0000
0001
0000
0000
0100
0010
0100
0010
1000
0000
0000
1000
0000
0000
0001
0000
,  // measure 19
0000
0010
0000
0000
0100
0000
1000
0000
0020
0000
0000
0000
0000
0000
0200
0000
,  // measure 20
0000
0330
0110
0000
1001
1000
0010
0100
,  // measure 21
0110
0001
0100
0010
0110
0100
0001
1000
,  // measure 22
1001
0000
0001
0000
0100
0000
0010
0000
1000
0100
1000
0000
0001
0100
0001
0000
,  // measure 23
1000
0010
1000
0010
1000
0010
1000
0010
0200
0000
0000
0000
0000
0000
0000
0000
,  // measure 24
0302
1000
1003
0000
1001
0000
1000
0100
,  // measure 25
0001
0100
1000
0010
0100
1000
0100
0010
,  // measure 26
1000
0100
0010
0000
1001
0000
0001
0010
,  // measure 27
1000
0000
0010
0000
0001
0000
0100
0000
0010
0000
1000
0001
1000
0000
0010
1000
,  // measure 28
0010
0000
0100
0001
0200
0000
0000
0000
0310
0000
0010
0000
1000
0000
0100
0000
,  // measure 29
0010
0001
0100
0000
0010
0010
1000
0100
,  // measure 30
0010
0001
0200
0010
0320
0000
0000
1000
,  // measure 31
2030
0000
0000
0000
0002
3003
0011
0011
,  // measure 32
0000
0000
0000
1100
0000
0000
0000
0000
0000
1001
0000
0000
0001
0000
0100
0000
0010
0000
0100
0000
0001
0000
0010
0000
,  // measure 33
0001
0100
0010
1000
0000
0000
0010
0100
0001
0100
0010
1000
,  // measure 34
0010
0000
0000
0000
0100
0000
0000
0000
0001
0000
0000
0000
0010
0000
0000
0000
0000
0000
0010
0000
0000
0000
0000
0000
0100
0000
0000
1000
0000
0000
0000
0000
0000
0100
0000
0000
0010
0000
0000
0000
0000
0000
0100
0000
0000
0000
0000
0000
,  // measure 35
1000
0100
0000
0010
0100
0000
0010
0000
0001
0010
0001
0000
0100
0000
0010
1000
,  // measure 36
0010
0100
0001
0001
0010
0100
1000
1000
,  // measure 37
0100
0010
0001
0001
0010
0100
1000
1000
,  // measure 38
0010
0100
0101
0101
0000
1010
0100
0100
,  // measure 39
0110
0000
0000
1001
0000
0000
0220
0000
0330
0000
0010
1000
0100
1000
0100
0010
,  // measure 40
0002
0000
0100
0103
0001
0100
0010
1000
,  // measure 41
0100
0000
0010
0000
0001
0100
0001
0000
0100
0000
0010
0000
1000
0000
0100
0000
,  // measure 42
0010
0000
0001
0000
0100
0001
0100
0000
0010
0000
1000
0000
0100
0000
0010
0000
,  // measure 43
0001
0000
0100
0000
0001
0100
0001
0000
0010
0000
0100
0010
0100
0000
1000
0000
,  // measure 44
0100
0000
0000
0010
0000
0000
0100
0000
0000
1000
0000
0000
0020
0000
0000
0000
0000
0000
0130
0000
0001
0000
0100
0000
,  // measure 45
0010
0000
0000
0000
1000
0000
0000
0000
0100
0000
0000
0000
0010
0000
0000
0000
0001
0000
0000
0000
0100
0000
0000
0000
0020
0000
0000
0000
0000
0000
0000
0000
0000
0000
0000
0000
1030
0000
0000
0100
0000
0000
1000
0000
0000
0100
0000
0000
,  // measure 46
0010
0001
0010
0001
0010
0000
0100
0000
1000
0000
0000
0010
0000
0000
0001
0000
,  // measure 47
0100
0000
0000
1000
0000
0000
0010
0000
0210
0000
0000
0000
0000
0000
0000
0000
,  // measure 48
0000
0000
0000
0000
0302
0000
0000
0013
,  // measure 49
0100
1000
0010
0001
2000
0000
0000
3100
,  // measure 50
0002
0023
0230
2300
3010
0010
0100
0001
,  // measure 51
0011
0010
0100
1000
1010
0010
0100
0001
,  // measure 52
1001
0000
1000
0000
0100
0000
0010
0000
0001
0100
0001
0000
1000
0100
1000
0000
,  // measure 53
0001
0010
0001
0100
0010
1000
0100
0010
0002
0000
0000
0000
0000
0000
0000
0000
,  // measure 54
0000
0000
0000
0000
1003
0010
0001
0010
,  // measure 55
0100
1000
0100
0101
0000
0001
0010
1000
,  // measure 56
0010
0100
0001
0100
2100
0010
0010
3001
,  // measure 57
0102
0000
0000
0000
0010
0000
0000
0000
0010
0000
0000
0000
1003
0000
0000
0000
1000
0000
0010
0000
0100
0000
0001
0000
0010
0100
0010
0100
1000
0001
1000
0001
,  // measure 58
0200
0000
0000
0000
0020
0000
0000
0000
0000
0000
0330
0000
0010
0000
0000
1000
,  // measure 59
0000
0000
0100
0000
0000
0001
0000
0000
0100
0000
0010
0001
0010
0000
0000
0001
,  // measure 60
0000
0000
0100
0000
0000
1000
0000
0000
0100
0010
0100
0010
0001
0000
0000
0010
,  // measure 61
0000
0000
1000
0000
0000
0100
0000
0000
0010
0000
0001
0000
0201
0000
0000
0000
,  // measure 62
0000
0320
0000
0000
2030
0000
3001
0010
,  // measure 63
0100
0000
1000
0000
0010
0000
0100
0000
0001
0000
1000
0100
1000
0000
0100
0010
,  // measure 64
0100
0000
0010
0001
0010
0000
0001
0100
0001
0100
0010
1000
0002
0000
0000
0000
,  // measure 65
0203
0000
0310
0010
1000
1000
0001
0100
,  // measure 66
0220
0000
0030
0000
0310
0000
0000
0010
1000
0000
0000
1000
0100
0000
0000
0100
,  // measure 67
0010
0000
0000
0010
0001
0000
0000
0001
0100
0000
0020
0000
0000
0000
1030
0000
,  // measure 68
0000
0000
1100
0000
0100
0000
0000
0100
0010
0000
0000
0010
0001
0000
0000
0001
,  // measure 69
0100
0000
0000
0100
0010
0000
1000
0000
0001
0000
0101
0000
0000
0000
0110
0000
,  // measure 70
0000
1010
0002
0000
0103
0100
2000
0000
,  // measure 71
3010
0010
0001
0100
0010
1000
0100
0010
,  // measure 72
0001
0000
0100
0000
0120
0000
0000
0000
1030
0100
1000
0100
0020
0000
0000
0000
,  // measure 73
0031
0100
0001
0100
0010
1000
0000
1000
0100
0000
0100
0020
0000
0000
0031
0100
,  // measure 74
0010
0000
1000
0010
0100
0000
0000
0100
0001
0000
0000
0001
0010
0000
0000
0010
,  // measure 75
0100
0000
0000
0100
1000
0000
0000
1000
0010
0000
0210
0000
0000
0000
0302
0000
,  // measure 76
0000
0000
1000
0000
1003
0000
0000
1000
0010
0000
0100
0000
0110
0000
0000
0001
,  // measure 77
0100
0000
0010
0000
0110
0000
1000
0100
0010
0000
0001
0100
0010
0000
1000
0100
,  // measure 78
0020
0000
0000
0000
0031
0100
0001
0000
0010
0000
0100
0000
0001
0000
0100
0000
,  // measure 79
0010
0000
0100
0000
1000
0010
1000
0000
0100
0000
0010
0000
1000
0000
0010
0000
,  // measure 80
0100
0000
0010
0000
0001
0100
0001
0100
0010
0100
0010
0100
0010
1000
0010
1000
,  // measure 81
0001
1000
0001
1000
0002
0000
0000
0000
0000
0000
0000
0000
2000
0000
0000
0000
,  // measure 82
3003
0000
0000
0000
1000
0000
0000
0010
0000
0000
0001
0000
0000
0100
0000
0000
,  // measure 83
1000
0000
0010
0000
0110
0000
0000
0001
0000
0000
0100
0000
0000
1000
0000
0000
,  // measure 84
0010
0100
0010
0100
0002
0000
0000
0000
0103
0010
0100
0010
2000
0000
0000
0000
,  // measure 85
3010
0000
0000
0100
0000
0000
0010
0000
0000
0100
0000
0000
0001
0000
0000
0000
0010
0000
0000
0000
0100
0000
0000
0000
1000
0000
0000
0000
0010
0000
0000
0000
0100
0000
0000
0000
0001
0000
0000
0000
1000
0000
0000
0000
0100
0000
0000
0000
,  // measure 86
0010
0000
0000
0000
0000
0000
0000
0000
0000
0000
0000
0000
0000
0000
0000
0000
0001
0000
0000
0000
0000
0000
0000
0000
0000
0000
0000
0000
0000
0000
0000
0000
1000
0000
0000
0000
0000
0000
0000
0000
0000
0000
0000
0000
0000
0000
0000
0000
0010
0000
0000
0000
0000
0000
0100
0000
0000
0000
0000
0000
0020
0000
0000
0000
0000
0000
0000
0000
0000
0000
0000
0000
0000
0000
0000
0000
0000
0000
0000
0000
0000
0000
0000
0000
0000
0000
0000
0000
0000
0000
0000
0000
0000
0000
0000
0000
0000
0000
0000
0000
0000
0000
0000
0000
0000
0000
0000
0000
0000
0000
0000
0000
0000
0000
0000
0000
0000
0000
0000
0000
0000
0000
0000
0000
0000
0000
0000
0000
0000
0000
0000
0000
0000
0000
0000
0000
0000
0000
0000
0000
0000
0000
0000
0000
1000
0000
0000
0000
0000
0000
0000
0000
0000
0000
0000
0000
0000
0000
0000
0000
0000
0000
0000
0000
0000
0000
0000
0000
0000
0000
0000
0000
0000
0000
0000
0000
0000
0000
0000
0000
0000
0000
0000
0000
0000
0000
0000
0000
0000
0000
0000
0000
,  // measure 87
0000
0230
0302
0000
0023
0230
2300
3020
,  // measure 88
0230
0302
0020
0033
0202
0303
2200
3300
,  // measure 89
2020
0000
3030
0000
0010
0100
0001
1000
0100
0010
0001
0100
0020
0000
0000
0000
,  // measure 90
1030
0001
1000
0001
2000
0000
0000
0000
0000
0000
0000
0000
0000
0000
0000
0000
0000
0000
0000
0000
3001
0000
0000
0000
0001
0000
0000
0000
0100
0000
0000
0000
,  // measure 91
1010
0000
0010
0100
0001
1000
1000
0010
,  // measure 92
0101
0000
0000
0000
0100
0000
0010
0000
1000
0000
1001
0000
0001
0000
0010
0100
,  // measure 93
0010
0100
1000
0000
0100
0000
0010
0100
0010
0100
1000
0000
0100
0010
0100
0010
,  // measure 94
0100
0000
0000
0010
0000
0000
0001
0000
0000
0000
0100
0000
0000
0000
0001
0000
0000
0000
1000
0000
0000
0000
0010
0000
0000
0000
1000
0000
0000
0000
0100
0000
0000
0000
0010
0000
0000
0000
0100
0000
0000
0000
1000
0000
0000
0000
0010
0000
,  // measure 95
0000
0100
0000
1000
0000
0100
0000
0010
0000
0001
0000
0010
0000
0100
0000
0001
0000
0010
0000
0100
0000
0010
0000
0001
,  // measure 96
0000
0000
0100
0000
0000
0000
0010
0000
0000
1000
0000
0000
0010
0000
0000
1000
0000
0000
0001
0000
0000
0010
0000
0000
0200
0000
0000
0000
0000
0000
0310
0000
0000
0000
0000
0000
0011
0000
0000
0000
0000
0000
0001
0000
0000
0100
0000
0000
,  // measure 97
0010
0000
0100
0000
0001
0010
0100
0000
0010
0000
0001
0100
0010
0100
0001
0000
,  // measure 98
0020
0000
0230
0000
2300
0000
3020
0000
0130
0001
1000
0000
1100
0000
0100
1000
,  // measure 99
0010
0000
0100
0000
0010
1000
0100
0000
0010
0000
0100
0010
0001
0010
0100
0000
,  // measure 100
2000
0000
3020
0000
0230
0000
0302
0000
1003
0100
0010
0000
0010
0000
0001
0000
,  // measure 101
0001
0000
0100
0000
0100
0000
0010
0000
0010
0000
1000
0001
0200
0000
0010
0000
,  // measure 102
0310
0000
0000
0000
0000
0000
0001
0000
0000
1000
0000
0000
0020
0000
0000
0000
0000
0000
0100
0000
0000
0000
0000
0000
0130
0000
0000
0000
0000
0000
1000
0000
0000
0000
0100
0000
0000
0000
0010
0000
0000
0000
1000
0000
0000
0000
0010
0000
,  // measure 103
0000
0000
0001
0000
0000
0000
1000
0000
0000
0000
0100
0000
0000
0000
0001
0000
0000
0000
0100
0000
0000
0000
0010
0000
0000
0000
0001
0000
0000
0000
0100
0000
0000
0010
0000
0000
2000
0000
0000
0000
0000
0000
0001
0000
0000
0000
0000
0000
,  // measure 104
3001
0000
0001
0010
0100
1000
0001
0100
0010
1000
0002
0000
0000
0000
0000
0000
,  // measure 105
0203
0000
0000
2300
0000
0000
3020
0000
0000
0032
0000
0000
1003
0000
0000
1100
0000
0000
0000
0101
0000
0000
0000
1010
,  // measure 106
0000
0000
0000
0000
0000
0000
0011
0000
0000
0000
0000
0000
0000
0000
1001
0000
0000
0000
0000
0000
0000
0000
0110
0000
0000
0000
0000
0000
0000
0000
2002
0000
0000
0000
0000
0000
3000
0000
0000
0000
0000
0000
1003
0000
0000
0100
0000
0000
,  // measure 107
0001
0000
0000
0220
0000
0000
0000
0000
,  // measure 108
0000
0000
0000
0000
,  // measure 109
0000
0000
0000
0000
0000
0330
0000
0000
;

//---------------dance-double - ----------------
#NOTES:
     dance-double:
     :
     Hard:
     17:
     0.848274,0.978298,0.343232,0.604089,0.693329,865.000000,815.000000,50.000000,88.000000,0.000000,0.000000,0.848274,0.978298,0.343232,0.604089,0.693329,865.000000,815.000000,50.000000,88.000000,0.000000,0.000000:
00000000
00000000
00000000
00000000
,
00000000
00000000
00000000
00000000
,
00000000
00000000
00000000
00000000
,
00000000
00000000
00000000
00000000
,
00000000
00000000
00000000
00000000
00000000
00000000
10000000
01000000
00100000
00010000
01000000
00100000
,
00010000
00001000
00100000
00010000
01000000
00001000
00010000
00000100
00001000
00000010
00010000
00001000
,
00000100
00000010
00001000
00000100
00000010
00000001
00000200
00000000
00000000
00000000
00000000
00000000
,
00002300
00000000
00023000
00000000
,
02030000
00000000
00000000
00000000
13000000
10000000
00010000
01000000
,
00001000
00010000
00100000
00100000
00010000
00001000
00000010
00000001
,
00000100
00000010
00001000
00001000
00000010
00000100
00000001
00000010
,
00000100
00000000
00010000
00000000
00001000
00000000
00001000
00000000
00010000
00000000
01000000
00100000
01000000
00000000
00100000
00000000
,
01000000
10000000
00100000
01000000
01010000
00010000
00100000
00001000
,
00010000
00000100
00000010
00000010
00000100
00001000
00000010
00000001
,
00000010
00000000
00000100
00000000
00001000
00000000
00001000
00000000
00010000
00000100
00010000
00000000
00001000
01000000
00001000
00000000
,
00010000
00000010
00010000
00000000
00001000
00100000
00002000
00000000
00000000
00000000
00013000
00001000
00010000
00000000
01000000
00000000
,
10000000
00000000
01000000
00000000
01200000
00000000
00000000
00000000
00310000
00000000
00000000
00010000
00000000
00000000
01000000
00000000
,
00000000
00001000
00000000
00000000
00010000
00000000
00000100
00000000
00000010
00000000
00000000
00000001
00000000
00000000
00001000
00000000
,
00000000
00000100
00000000
00000000
00010000
00000000
00001000
00000000
00100000
00000000
00000000
01000000
00000000
00000000
10000000
00000000
,
00000000
00100000
00000000
00000000
00010000
00000000
00001000
00000000
00000200
00000000
00000000
00000000
00000000
00000000
00000020
00000000
,
00000000
00000330
00000110
00000000
00001001
00000001
00000100
00001000
,
00011000
00010000
01000000
10000000
10010000
00010000
01000000
00001000
,
00011000
00000000
00010000
00000000
00000100
00000000
00001000
00000000
00000010
00000100
00000010
00000000
00000100
00000001
00000100
00000000
,
00000010
00001000
00000010
00000000
00010000
00001000
00010000
00001000
00200000
00000000
00000000
00000000
00000000
00000000
00000000
00000000
,
02300000
10000000
13000000
00000000
10010000
00000000
00010000
01000000
,
00001000
00010000
00001000
01000000
00010000
00100000
01000000
00010000
,
00001000
00000010
00000001
00000000
00001001
00000000
00001000
00000100
,
00000010
00000000
00001000
00000000
00010000
00000000
01000000
00000000
00100000
00000000
00010000
01000000
00010000
00000000
10000000
00100000
,
10000000
00000000
00010000
00100000
00020000
00000000
00000000
00000000
01000000
00000000
01030000
00000000
00100000
00000000
00010000
00000000
,
00001000
00100000
01000000
00000000
00100000
00100000
00010000
01000000
,
00100000
00010000
00002000
00000010
00003020
00000000
00000000
00000001
,
00000032
00000000
00000000
00001000
00002000
00003003
00001100
00001100
,
00000000
00000000
00000000
00010100
00000000
00000000
00000000
00000000
00000000
00011000
00000000
00000000
00001000
00000000
00100000
00000000
00001000
00000000
00100000
00000000
00010000
00000000
01000000
00000000
,
00100000
10000000
01000000
00100000
00000000
00000000
00010000
01000000
00010000
01000000
00001000
00010000
,
00000100
00000000
00000000
00000000
00000010
00000000
00000000
00000000
00000001
00000000
00000000
00000000
00000100
00000000
00000000
00000000
00000000
00000000
00000100
00000000
00000000
00000000
00000000
00000000
00001000
00000000
00000000
00000000
00000000
00000000
00000000
00000000
00000000
00010000
00000000
00000000
00000000
00000000
00000000
00000000
00000000
00000000
00001000
00000000
00000000
00000000
00000000
00000000
,
00100000
00000000
00000000
01000000
00000000
00000000
00100000
00000000
00010000
00100000
00010000
00000000
10000000
00000000
01000000
00100000
,
01000000
00010000
00001000
00001000
00100000
01000000
00010000
00010000
,
00000100
00000010
00001000
00001000
00100000
01000000
00010000
00010000
,
00000100
00000010
00001000
00011000
00000000
00010100
00010000
00001000
,
01001000
00000000
00000000
01010000
00000000
00000000
20020000
00000000
30030000
00000000
10000000
01000000
10000000
01000000
00100000
00010000
,
02000000
00000000
00001000
03001000
00010000
00000100
00001000
00000010
,
00000100
00000001
00000010
00000010
00000001
00000100
00001000
00010000
,
00100000
00010000
00001000
00001000
00010000
01000000
10000000
00100000
,
01000000
00000000
00010000
00000000
00100000
00000000
00100000
00000000
01000000
00000000
00010000
00001000
00010000
00000000
00000100
00000000
,
00000010
00000000
00000000
00000001
00000000
00000000
00000100
00000000
00000000
00001000
00000000
00000000
00020000
00000000
00000000
00000000
00000000
00000000
00031000
00000000
00100000
00000000
00001000
00000000
,
00100000
00000000
00000000
00000000
00010000
00000000
00000000
00000000
01000000
00000000
00000000
00000000
00010000
00000000
00000000
00000000
01000000
00000000
00000000
00000000
00100000
00000000
00000000
00000000
20000000
00000000
00000000
00000000
00000000
00000000
00000000
00000000
00000000
00000000
00000000
00000000
30010000
00000000
00000000
00100000
00000000
00000000
00010000
00000000
00000000
00100000
00000000
00000000
,
00001000
00010000
00001000
00010000
00001000
00000000
00000010
00000000
00000001
00000000
00000000
00000100
00000000
00000000
00001000
00000000
,
00010000
00000000
00000000
01000000
00000000
00000000
10000000
00000000
10200000
00000000
00000000
00000000
00000000
00000000
00000000
00000000
,
00000000
00000000
00000000
00000000
00320000
00000000
00000000
00031000
,
00000100
00000001
00000010
00000100
00000020
00000000
00000000
00000031
,
00000200
00002300
00023000
02030000
13000000
10000000
00100000
01000000
,
01010000
00010000
00100000
00001000
00011000
00010000
00000100
00001000
,
00001010
00000000
00000010
00000000
00000100
00000000
00000001
00000000
00001000
00000010
00001000
00000000
00000100
00010000
00000100
00000000
,
00010000
00001000
00010000
00001000
00100000
00010000
00100000
00010000
20000000
00000000
00000000
00000000
00000000
00000000
00000000
00000000
,
00000000
00000000
00000000
00000000
30100000
01000000
00010000
00100000
,
01000000
00010000
00001000
00011000
00000000
00000100
00000010
00001000
,
00000100
00000010
00001000
00010000
00012000
00100000
00100000
01003000
,
00021000
00000000
00000100
00000000
00000100
00000000
00030010
00000000
00010000
00001000
00000100
00000001
00000010
00001000
00010000
01000000
,
20000000
00000000
00000000
00000000
00020000
00000000
00000000
00000000
30030000
00000000
00000000
00000000
00010000
00000000
00000000
01000000
,
00000000
00000000
00001000
00000000
00000000
00010000
00000000
00000000
00000100
00000000
00001000
00000000
00000010
00000000
00000000
00000001
,
00000000
00000000
00000010
00000000
00000000
00000100
00000000
00000000
00001000
00000000
00010000
00000000
00100000
00000000
00000000
10000000
,
00000000
00000000
01000000
00000000
00000000
00100000
00000000
00000000
00010000
00000000
01000000
00000000
01002000
00000000
00000000
00000000
,
00000000
00023000
00000000
00000000
00030200
00000000
00000310
00000001
,
00001000
00000000
00000100
00000000
00000010
00000000
00001000
00000000
00010000
00000000
01000000
10000000
01000000
00000000
00100000
01000000
,
00100000
00000000
00010000
00100000
00010000
00000000
01000000
00001000
01000000
00001000
00010000
00000100
00002000
00000000
00000000
00000000
,
00003002
00000000
00000103
00000100
00001000
00001000
00010000
00001000
,
00022000
00000000
00030000
00000000
00013000
00000000
00000000
00010000
00100000
00000000
00000000
00100000
10000000
00000000
00000000
10000000
,
01000000
00000000
00000000
01000000
00100000
00000000
00000000
00100000
00010000
00000000
02000000
00000000
00000000
00000000
03001000
00000000
,
00000000
00000000
00011000
00000000
00010000
00000000
00000000
00010000
00000100
00000000
00000000
00000100
00001000
00000000
00000000
00001000
,
00000010
00000000
00000000
00000010
00000100
00000000
00000001
00000000
00001000
00000000
00001100
00000000
00000000
00000000
00010100
00000000
,
00000000
00011000
00002000
00000000
01003000
01000000
00020000
00000000
,
00030100
00000100
00001000
00010000
01000000
10000000
00100000
01000000
,
00010000
00000000
00100000
00000000
00102000
00000000
00000000
00000000
00013000
00000100
00010000
00000100
00000020
00000000
00000000
00000000
,
00000031
00000100
00000001
00000000
00001000
00000100
00000000
00010000
00000100
00000000
00001000
00000200
00000000
00000000
00000310
00000001
,
00000010
00000000
00000100
00001000
00000100
00000000
00000000
00010000
00001000
00000000
00000000
00001000
00000010
00000000
00000000
00000010
,
00000001
00000000
00000000
00000001
00000100
00000000
00000000
00000100
00001000
00000000
00021000
00000000
00000000
00000000
00230000
00000000
,
00000000
00000000
10000000
00000000
10300000
00000000
00000000
10000000
01000000
00000000
00100000
00000000
00110000
00000000
00000000
10000000
,
00100000
00000000
01000000
00000000
01010000
00000000
00010000
00100000
00001000
00000000
00010000
00000100
00001000
00000000
00000010
00000100
,
00000002
00000000
00000000
00000000
00001003
00000100
00000010
00000000
00000001
00000000
00000100
00000000
00001000
00000000
00010000
00000000
,
00100000
00000000
10000000
00000000
00010000
00100000
01000000
00000000
10000000
00000000
00100000
00000000
00010000
00000000
00001000
00000000
,
00000100
00000000
00000001
00000000
00000010
00000100
00000010
00000100
00001000
00000100
00001000
00000100
00010000
00000100
00010000
00000100
,
00010000
00001000
00010000
00001000
00020000
00000000
00000000
00000000
00000000
00000000
00000000
00000000
00002000
00000000
00000000
00000000
,
00033000
00000000
00000000
00000000
00001000
00000000
00000000
00010000
00000000
00000000
01000000
00000000
00000000
10000000
00000000
00000000
,
00100000
00000000
01000000
00000000
01100000
00000000
00000000
00010000
00000000
00000000
00001000
00000000
00000000
00000100
00000000
00000000
,
00000001
00000010
00000001
00000000
00000200
00000000
00000000
00000000
00000301
00000010
00000001
00000000
00002000
00000000
00000000
00000000
,
00003001
00000000
00000000
00000010
00000000
00000000
00000001
00000000
00000000
00000000
00000000
00000000
00000010
00000000
00000000
00000000
00001000
00000000
00000000
00000000
00010000
00000000
00000000
00000000
00100000
00000000
00000000
00000000
00010000
00000000
00000000
00000000
00001000
00000000
00000000
00000000
00000100
00000000
00000000
00000000
00001000
00000000
00000000
00000000
00010000
00000000
00000000
00000000
,
01000000
00010000
00001000
00021000
00000000
00000000
00000000
00000000
00000000
00100000
00000000
00000000
,
00000000
00032000
00003020
00000000
00000032
00000203
00000320
00020030
,
00032000
00203000
02000000
03300000
00022000
00033000
00000220
00000330
,
00002002
00000000
00003003
00000000
00001000
00000100
00000010
00000001
00000100
00000010
00001000
00000100
00020000
00000000
00000000
00000000
,
00031000
00010000
00001000
00010000
00002000
00000000
00000000
00000000
00000000
00000000
00000000
00000000
00000000
00000000
00000000
00000000
00000000
00000000
00000000
00000000
00013000
00000000
00000000
00000000
00010000
00000000
00000000
00000000
01000000
00000000
00000000
00000000
,
11000000
00000000
10000000
00100000
00010000
00001000
00001000
00000010
,
00000011
00000000
00000000
00000000
00000001
00000000
00000100
00000000
00001000
00000000
00010000
00000000
00010000
00000000
00100000
10000000
,
01000000
00000000
00100000
00000000
01000000
00000000
10000000
00100000
01000000
00000000
00010000
00000000
00100000
00001000
00100000
00001000
,
00100000
00000000
00000000
00001000
00000000
00000000
00010000
00000000
00000000
00000000
00001000
00000000
00000000
00000000
00010000
00000000
00000000
00000000
00001000
00000000
00000000
00000000
00010000
00000000
00000000
00000000
00001000
00000000
00000000
00000000
00010000
00000000
00000000
00000000
00000100
00000000
00000000
00000000
00001000
00000000
00000000
00000000
00000010
00000000
00000000
00000000
00000100
00000000
,
00000000
00000001
00000000
00001000
00000000
00000010
00000000
00010000
00000000
00001000
00000000
00100000
00000000
00010000
00000000
01000000
00000000
00100000
00000000
10000000
00000000
00010000
00000000
00100000
,
00000000
00000000
01000000
00000000
00000000
00000000
10000000
00000000
00000000
00100000
00000000
00000000
10000000
00000000
00000000
00100000
00000000
00000000
10000000
00000000
00000000
00100000
00000000
00000000
20000000
00000000
00000000
00000000
00000000
00000000
00010000
00000000
00000000
00000000
00000000
00000000
30010000
00000000
00000000
00000000
00000000
00000000
00010000
00000000
00000000
01000000
00000000
00000000
,
00001000
00000000
00010000
00000000
00001000
00010000
00000100
00000000
00001000
00000000
00000010
00000100
00000001
00000000
00001000
00000000
,
00000200
00000000
00020300
00000000
00032000
00000000
02003000
00000000
03100000
10000000
01000000
00000000
01000000
00000000
00100000
00001000
,
00010000
00000000
00001000
00000000
00010000
00000010
00001000
00000000
00000100
00000000
00000010
00000001
00000100
00000000
00000010
00000000
,
00002000
00000000
00003200
00000000
00020300
00000000
00032000
00000000
00103000
01000000
10000000
00000000
00100000
00000000
00010000
00000000
,
00010000
00000000
00001000
00000000
00001000
00000000
00000100
00000000
00000100
00000000
00000001
00000010
00001000
00000000
00000010
00000000
,
00001000
00000000
00000000
00010000
00000000
00000000
00100000
00000000
00000000
00000000
00000000
00000000
00010000
00000000
00000000
00000000
00000000
00000000
00100000
00000000
00000000
00000000
00000000
00000000
10000000
00000000
00000000
00000000
00000000
00000000
01000000
00000000
00000000
00000000
00100000
00000000
00000000
00000000
00010000
00000000
00000000
00000000
01000000
00000000
00000000
00000000
00100000
00000000
,
00000000
00000000
00010000
00000000
00000000
00000000
00001000
00000000
00000000
00000000
00000100
00000000
00000000
00000000
00000010
00000000
00000000
00000000
00001000
00000000
00000000
00000000
00000100
00000000
00000000
00000000
00000010
00000000
00000000
00000000
00001000
00000000
00000000
00010000
00000000
00000000
00002000
00000000
00000000
00000000
00000000
00000000
00010000
00000000
00000000
00000000
00000000
00000000
,
00013000
00000000
00010000
00000100
00010000
00000100
00001000
00000010
00001000
00000010
00000200
00000000
00000000
00000000
00000000
00000000
,
00000302
00000000
00000000
00000023
00000000
00000000
00000230
00000000
00000000
00002300
00000000
00000000
00013000
00000000
00000000
00011000
00000000
00000000
00000000
00101000
00000000
00000000
00000000
00010010
,
00000000
00000000
00000000
00000000
00000000
00000000
01001000
00000000
00000000
00000000
00000000
00000000
00000000
00000000
00010100
00000000
00000000
00000000
00000000
00000000
00000000
00000000
00011000
00000000
00000000
00000000
00000000
00000000
00000000
00000000
01200000
00000000
00000000
00000000
00000000
00000000
00000000
00000000
00000000
00000000
00000000
00000000
10300000
00000000
00000000
01000000
00000000
00000000
,
00010000
00000000
00000000
00000220
00000000
00000000
00000000
00000000
,
00000000
00000000
00000000
00000000
,
00000000
00000000
00000000
00000000
00000000
00000330
00000000
00000000
;

//---------------dance-single - ----------------
#NOTES:
     dance-single:
     :
     Beginner:
     6:
     0.226533,0.376268,0.096105,0.061782,0.000000,231.000000,217.000000,14.000000,9.000000,0.000000,0.000000,0.226533,0.376268,0.096105,0.061782,0.000000,231.000000,217.000000,14.000000,9.000000,0.000000,0.000000:
0000
0000
0000
0000
,
0000
0000
0000
0000
,
0000
0000
0000
0000
,
0000
0000
0000
0000
,
0000
0000
0100
0000
,
0001
0000
1000
0000
,
0010
0000
0100
0000
,
0100
0000
0100
0000
,
0100
0000
0100
0000
,
0001
0000
0010
0000
,
0100
0000
1000
0000
,
0001
0000
0010
0000
,
0100
0100
0100
0000
,
1000
0000
0001
0000
,
0010
0000
0100
0000
,
0100
0000
0000
0100
,
0100
0100
0100
0000
,
1000
0000
0100
0000
,
0001
0000
0100
0000
,
1000
0000
0100
0000
,
0000
0000
0010
0000
,
0010
0000
0010
0000
,
0010
0000
0010
0010
,
0010
0010
0010
0000
,
0000
0000
0010
0000
,
0000
0000
0001
0000
,
0000
0000
0100
0000
,
0000
0000
0010
0000
,
0000
0000
1000
0000
,
0000
0000
0100
0000
,
0000
0000
0010
0000
,
0010
0000
0010
0010
,
0010
0000
0001
0000
,
1000
0000
0001
0000
,
1000
0000
0010
0000
,
0100
0000
0010
0000
,
0100
0000
0010
0000
,
0010
0000
0100
0000
,
0100
0000
0010
0000
,
0100
0100
0100
0000
,
0000
0000
0010
0000
,
1000
0000
0100
0000
,
0010
0000
0001
0000
,
1000
0000
0100
0100
,
0100
0000
0010
0000
,
0001
0000
1000
0000
,
0100
0000
0100
0100
,
0100
0100
0200
0000
,
0000
0300
1001
0000
,
1000
0001
2000
3000
,
0001
1000
0001
0000
,
0001
0000
0100
0000
,
0100
0000
1000
0000
,
1000
0000
0020
0000
,
0000
0030
0010
0000
,
0010
0010
0010
0000
0001
0000
0000
0000
,
0001
0001
0001
0000
1000
0000
1000
0000
,
1000
1000
0010
0010
,
0010
0220
0330
0110
,
0000
0000
0000
0110
,
0000
0000
0000
0110
,
0000
0000
0000
0110
,
0000
0000
0000
0010
,
0000
1000
0000
0001
,
0000
0100
0000
0010
,
0000
0010
0000
0010
,
0010
1000
0000
0100
,
0000
0010
0000
0001
,
0000
1000
0000
0010
,
0000
0100
0000
0001
,
0000
0010
0000
0100
,
0000
1000
0000
0010
,
0000
0100
0000
0001
,
0000
1000
0000
0010
,
0000
0100
0000
0001
,
0000
1000
0000
0100
,
0000
0010
0000
0001
,
0000
0100
0000
0100
,
0000
1000
0000
0010
,
0000
0001
0000
0100
,
0000
1000
0000
0010
,
0000
0001
0000
1000
,
0000
1001
0000
0000
,
0000
1001
0000
0000
,
0000
1001
0000
1001
,
0000
2002
0000
0000
,
3003
1001
0000
0000
,
0000
0001
0100
0010
,
1000
0001
1000
1001
,
0000
0010
0010
0010
,
0010
0010
0000
0000
0000
0010
0000
0000
,
0000
0000
0000
0000
0000
1000
0000
0000
,
0000
0000
0000
0000
0000
0100
0000
0000
,
0000
0000
0000
0000
0000
0001
0000
0000
,
0000
0010
0000
0000
0000
1000
0000
0000
,
0000
0100
0000
0000
0000
0010
0000
0000
,
0000
0001
0000
0000
0000
0100
0000
0000
,
0000
0100
0000
0000
0000
0100
0000
0000
,
0000
0100
0000
0000
0000
0100
0000
0100
,
0000
0100
0000
0000
0000
0100
0000
0100
,
0000
0100
0000
0000
0000
0001
0000
0000
,
0000
1000
0000
0000
0000
0001
0000
0000
,
0000
1000
0000
0000
0000
0001
0000
1000
,
0000
0001
0000
1000
0000
0010
0000
0100
,
0000
0010
0000
0100
0000
0010
0000
0000
,
0000
0100
0000
0100
0000
1000
0000
0000
,
0000
0001
0000
0000
0000
1000
0000
0000
,
0001
0000
0000
2002
0000
0000
0000
0000
,
0000
0000
0000
0000
,
0000
0000
0000
0000
0000
3003
0000
0000
;

//---------------dance-single - ----------------
#NOTES:
     dance-single:
     :
     Easy:
     10:
     0.403053,0.526776,0.219669,0.233398,0.000000,411.000000,379.000000,32.000000,34.000000,0.000000,0.000000,0.403053,0.526776,0.219669,0.233398,0.000000,411.000000,379.000000,32.000000,34.000000,0.000000,0.000000:
0000
0000
0000
0000
,
0000
0000
0000
0000
,
0000
0000
0000
0000
,
0000
0000
0000
0000
,
0000
0000
1000
1000
,
0100
0100
0010
0010
,
0001
0001
0200
0000
,
0320
0000
2030
0000
,
0002
3003
1001
0000
,
0001
1000
0001
0000
,
1000
0001
1000
0000
,
0001
1000
0001
0100
,
0010
0100
1001
0000
,
0001
1000
0001
0000
,
1000
0001
1000
0010
,
0100
1001
0000
0100
,
0010
0000
0200
0000
0310
0000
0000
0010
,
0000
0000
0010
0000
1000
0000
0000
1000
,
0000
0000
1000
0000
0001
0000
0000
0001
,
0000
0000
0001
0000
0100
0000
0000
0100
,
0000
0100
0010
1000
,
0010
1000
0100
0001
,
0100
0001
0010
1000
,
0100
0001
0020
0000
,
0130
0110
1000
0100
,
0010
0000
0010
0001
,
0100
0000
0001
0010
,
0100
0000
0100
1000
,
0010
0000
0100
0001
,
0100
0100
0010
1000
,
0010
0010
1010
0000
,
0101
0000
0011
0010
,
1100
0100
1001
0001
,
0100
0001
0100
1000
,
0100
1000
0100
0001
,
0100
1000
0200
0000
,
0310
0000
0010
0010
0000
0000
1000
1000
,
0000
0000
0001
0001
0000
0000
0100
0100
,
0000
0000
0010
0010
0000
0000
1001
0000
,
0100
0100
0200
0000
,
0000
0300
1000
0010
,
1000
1000
0001
0010
,
0001
0001
1000
0100
,
1000
1000
0001
0100
,
0001
0001
1000
0000
,
0010
0000
0001
0000
,
0100
0000
2000
0000
,
3020
0000
0230
0000
,
0302
0000
0000
0000
1003
0000
0000
1000
,
1000
0000
0100
0000
0020
0000
0000
0031
,
0001
0100
0010
0000
,
0010
0000
0010
0000
,
0010
0000
0010
1000
,
0001
0100
0010
0010
,
0010
0010
1001
0100
,
1000
0100
1000
0000
1001
0000
0010
0000
,
0001
0010
0001
0000
0100
0100
0010
0000
,
1000
1000
0001
0000
0010
0010
0010
0100
,
0020
0230
0000
0310
,
0000
0010
0000
0000
0010
0000
0001
0000
,
0000
0001
0000
0000
0001
0000
0100
0000
,
0000
0100
0000
0000
0100
0000
1000
0000
,
0000
1000
0000
0000
1000
0000
0010
0000
,
0100
0001
0100
0010
,
1000
0010
0100
1001
,
2000
0000
3002
0000
0000
0003
0200
0000
,
0320
1030
1100
1000
,
1100
0001
0101
0001
,
0101
1000
1010
1000
,
1010
0001
0011
0001
,
0011
0100
0100
0010
,
0010
0000
1000
0000
0001
0100
0000
0010
,
0000
1000
0001
0000
0100
0010
0100
0000
,
0001
1000
0001
0000
0100
0000
0010
0000
,
1000
0001
0011
0001
,
0101
1000
1010
1000
,
1100
0000
0001
0100
0001
0000
1000
0100
,
1000
0010
0100
0010
,
0110
1000
1000
0010
,
0010
0001
0001
0100
,
0100
1000
0010
0001
,
0100
2000
0000
3002
,
0000
0000
0103
0000
0000
0010
0000
0000
,
1000
0000
0001
0000
0000
0010
0000
0000
,
0100
0000
1000
0000
0000
0010
0000
0000
,
0001
0200
0000
0000
,
0000
0310
0000
0110
,
0000
0010
0010
0000
1000
0100
0010
0000
,
0001
0100
0020
0000
2030
0000
3002
0000
,
0023
0000
0130
0100
0100
0100
2000
0000
,
0001
3001
0000
0000
0000
1000
0000
0100
,
0000
0010
0000
0010
0000
0001
0000
0100
,
0000
0010
0000
0010
0000
1000
0000
0100
,
0000
0010
0000
0010
0000
0001
0000
0100
,
0000
1000
0000
0010
0000
0001
0000
1000
,
0000
0001
0000
1000
0000
0100
0000
0010
,
0000
0100
0000
0010
0000
0001
0001
0000
,
0000
0100
0000
0010
0000
1000
0000
0001
,
0000
0010
0000
0100
0000
1000
1000
0000
,
0000
0010
0000
0100
0000
0001
0000
1000
,
0000
0100
0000
0010
0000
0001
0000
0101
,
0000
0100
0000
1100
0000
1000
0000
1010
,
0000
0010
0000
0011
0000
0002
0000
0203
,
0000
0320
0000
2030
0000
3001
0001
0001
,
0000
0100
0010
0100
0010
0200
0000
0000
,
0310
0010
1000
0001
0100
0010
0000
0010
,
0000
0010
0000
0010
0000
1000
0000
0000
,
0001
0000
0000
2002
0000
0000
0000
0000
,
0000
0000
0000
0000
,
0000
0000
0000
0000
0000
3003
0000
0000
;

//---------------dance-single - ----------------
#NOTES:
     dance-single:
     :
     Medium:
     14:
     0.654102,0.790163,0.343232,0.411879,0.099537,667.000000,617.000000,50.000000,60.000000,0.000000,0.000000,0.654102,0.790163,0.343232,0.411879,0.099537,667.000000,617.000000,50.000000,60.000000,0.000000,0.000000:
0000
0000
0000
0000
,
0000
0000
0000
0000
,
0000
0000
0000
0000
,
0000
0000
0000
0000
,
0000
0000
0000
0000
0000
0000
0001
0000
0001
0100
0000
0000
,
1000
0000
1000
0100
0000
0000
0001
0000
0001
0010
0000
0010
,
0100
0000
0100
1000
0000
1000
0002
0000
0000
0000
0000
0000
,
0203
0000
0320
0000
,
2030
0000
0000
0000
3001
0001
0100
0000
,
0000
0010
1000
0010
1000
1000
0100
0000
,
0000
0010
0001
0010
0001
0001
0100
0000
,
0000
0010
1000
0200
0000
1300
0100
0010
,
0001
0100
0010
0000
1000
1000
0100
0000
,
0000
0010
0001
0010
0001
0001
0100
0000
,
0000
0010
1000
0010
0200
0000
0302
0000
,
2003
0000
3010
0110
0000
0100
0001
0010
,
0100
1000
0020
0000
0130
0000
0100
0001
,
0000
0001
0010
0010
0100
0000
1000
0010
,
0000
0010
0100
0100
0001
0000
0010
0100
,
0000
1000
0010
0010
0200
0000
0000
0302
,
0000
0000
0023
0000
0130
1000
0100
0000
,
0010
0001
0010
0000
0001
0100
0001
0000
,
1000
0010
1000
0000
0001
0010
0100
1000
,
0010
0100
0001
1000
0200
0000
0000
0000
,
0010
0010
0310
0000
1001
0000
0001
0100
,
0000
0010
1000
0100
0010
0000
0100
1000
,
0000
0010
0100
0001
1000
0000
0100
0010
,
0000
0001
0100
0010
0100
0000
0001
0010
,
0000
0100
1000
0010
0100
0000
1000
0100
,
0000
0001
0010
0100
1000
0000
0010
0001
,
0000
0010
0100
0001
0011
0000
0010
0100
,
1100
0000
1000
0010
0110
0000
0001
0101
,
0000
1010
0000
2002
3003
0000
0001
0100
,
0010
1000
0100
0010
0001
1000
0010
0100
,
0001
0000
0010
0000
0100
0000
1000
0000
0001
0000
0000
0100
0000
0000
0100
0000
,
1000
0000
0000
0010
0000
0000
0010
0000
0002
0000
0000
0000
0203
0000
0000
0000
,
0320
0000
1030
0100
0100
0000
0001
0100
,
0100
0000
1000
0010
0010
0000
0001
0010
,
0010
0000
1000
1001
0000
0001
0100
0010
,
1010
0000
0000
0110
0000
0000
0101
0000
0000
0000
0001
0000
0010
0000
1000
0000
,
0001
0100
2000
0000
3010
0010
0100
0000
,
0000
0001
0010
0001
0010
0010
0100
0000
,
0000
1000
0010
1000
0010
0010
0100
0000
,
0000
0001
0010
0200
0000
0310
0001
0010
,
0100
1000
0010
0100
0101
0000
0001
0010
,
0100
1000
0010
0100
0001
0000
1000
0100
,
0010
0000
0001
0000
0100
0000
0010
0000
1000
0000
0000
0100
0000
0000
0001
0000
,
0010
0000
0000
1000
0000
0000
0001
0000
2002
0000
0000
0000
0000
0000
0000
0000
,
0000
0000
3003
0000
1001
0000
0000
0001
,
0100
1000
0001
0010
1000
0000
0000
1000
,
0100
0001
1000
0010
0011
0001
0100
0000
,
0110
0010
1000
0000
1100
0100
0010
0000
,
0110
0010
0001
0000
0100
1000
0100
0010
,
0001
0010
0100
0001
2000
0000
3020
0000
,
0230
0000
0302
0000
0013
0010
0001
0001
,
0100
0100
1000
1010
0000
0100
0100
1000
,
1000
0010
0010
0001
0101
0010
1000
0100
,
1100
0000
0010
0000
0001
0000
0100
0000
0010
1000
0010
0000
0100
0001
0100
0000
,
0002
0023
0230
1300
,
1000
0010
0000
0010
0100
0100
0001
0000
,
0010
0100
0000
1000
0010
0010
0100
0000
,
0001
0010
0000
0010
0100
0100
2000
0000
,
0000
3020
0000
0000
0032
0000
0103
1000
,
0010
0000
0100
0001
0010
0000
0100
0010
,
0001
0000
1000
0100
0010
0100
0120
0000
,
0230
0000
0310
0100
0010
0001
1000
0100
,
0010
0001
1001
0000
1010
0000
0101
0000
,
0011
0001
0200
0000
0310
1000
0000
1100
,
0000
1010
0101
1100
,
0011
0000
0110
0100
0010
0002
0000
0203
,
0000
0310
1000
0000
0001
0100
1000
0000
,
0001
0010
1000
0000
0100
0010
0000
0220
,
0000
0330
0100
0010
0001
0100
1000
0100
,
0010
0100
0001
1000
0010
0100
0010
0001
,
0010
1000
1100
0000
0011
0000
1010
0000
,
0101
0001
0020
0000
0031
0100
0000
1100
,
0000
0110
0010
0100
0001
0000
0010
0100
,
1000
0000
0010
0100
0001
1000
0100
0001
,
0100
0010
0001
0100
1000
0000
0001
0010
,
1000
0000
1000
0100
0001
0000
1000
0010
,
0001
0000
0100
1000
0100
0001
0100
1000
,
0100
0010
2000
0000
0000
0000
3002
0000
,
0000
0000
0013
0000
0010
0100
0000
1000
,
0010
0010
0001
0000
1000
0100
0000
0100
,
0001
0001
0020
0000
0130
1000
0020
0000
,
0130
0001
0010
1000
0010
0001
0010
1000
,
0010
0100
2000
0000
0000
0000
0002
0000
,
3003
0101
1010
0000
1000
0100
0001
0100
,
0010
0001
0201
0000
2300
0000
3020
0000
,
0032
0000
0000
0000
1003
0010
0100
0000
0001
0100
0010
0000
0120
0000
0000
0000
,
1030
0001
2000
0000
0000
0000
0000
0000
0000
0000
3001
0000
0001
0000
0100
0000
,
0110
0000
0001
0100
0000
1000
1000
0010
,
0110
0000
1000
0010
0000
0001
0001
0010
,
0000
1000
1000
0100
0000
0001
0100
1000
,
0010
0000
0000
0001
0000
0000
1000
0000
0000
0010
0000
0000
0100
0000
0000
0001
0000
0000
0000
0001
0000
0010
0000
0000
,
0000
0000
0000
0100
0000
0000
0000
0100
0000
1000
0000
0000
0000
0000
0000
0010
0000
0000
0000
0010
0000
0100
0000
0000
,
0000
0000
0000
0001
0000
0000
0000
0001
0000
1000
0000
0000
0000
0000
0000
0100
0000
0000
0110
0000
0000
0000
0000
0000
,
0001
0100
1000
0100
0001
0010
1000
0010
,
0001
0100
0010
1000
0000
0010
0110
0000
,
1000
0010
0001
0010
1000
0100
0001
0100
,
1000
0010
0100
0001
0010
1000
0100
0002
,
0000
1003
0100
0020
0000
0031
0100
2000
,
0000
0000
0000
3001
0000
0000
0010
0000
0000
0200
0000
0000
0000
0000
0000
0301
0000
0000
0000
0001
0000
1000
0000
0000
,
0000
1000
0000
0010
0000
0000
0000
0010
0000
0100
0000
0000
0000
0100
0000
0001
0000
0000
0010
0000
0000
1000
0000
0000
,
0010
0100
0001
0100
1000
0020
0000
0000
,
0130
0000
0000
0001
0000
0000
0010
0000
0000
0100
0000
0000
1000
0000
0000
1100
0000
0000
0000
0100
0000
0000
0000
0010
,
0000
0000
0000
0000
0000
0000
0001
0000
0000
0000
0000
0000
0000
0000
1000
0000
0000
0000
0000
0000
0000
0000
0100
0000
0000
0000
0000
0000
0000
0000
0020
0000
0000
0000
0000
0000
0000
0000
0000
0000
0000
0000
0031
0000
0000
0100
0000
0000
,
0010
0000
0000
0220
0000
0000
0000
0000
,
0000
0000
0000
0000
,
0000
0000
0000
0000
0000
0330
0000
0000
;

//---------------dance-double - ----------------
#NOTES:
     dance-double:
     :
     Easy:
     10:
     0.379517,0.526776,0.151022,0.240263,0.000000,387.000000,365.000000,22.000000,35.000000,0.000000,0.000000,0.379517,0.526776,0.151022,0.240263,0.000000,387.000000,365.000000,22.000000,35.000000,0.000000,0.000000:
00000000
00000000
00000000
00000000
,
00000000
00000000
00000000
00000000
,
00000000
00000000
00000000
00000000
,
00000000
00000000
00000000
00000000
,
00000000
00000000
00001000
00001000
,
01000000
01000000
00001000
00001000
,
00010000
00010000
00000200
00000000
,
00020300
00000000
00032000
00000000
,
00020000
00033000
00011000
00000000
,
00001000
00010000
00001000
00000000
,
00010000
00001000
00010000
00000000
,
00001000
00010000
00001000
01000000
,
00100000
01000000
01100000
00000000
,
00001000
00010000
00001000
00000000
,
00010000
00001000
00010000
00000010
,
00000100
00000110
00000000
00010000
,
00001000
00000000
00020000
00000000
00031000
00000000
00000000
00100000
,
00000000
00000000
00010000
00000000
10000000
00000000
00000000
00100000
,
00000000
00000000
01000000
00000000
00010000
00000000
00000000
00100000
,
00000000
00000000
00001000
00000000
00010000
00000000
00000000
00000100
,
00000000
00001000
00000001
00000100
,
00000001
00000100
00001000
00010000
,
00001000
00010000
00100000
10000000
,
01000000
00010000
00002000
00000000
,
00013000
00011000
00000100
00000010
,
00000001
00000000
00000010
00000001
,
00000100
00000000
00000001
00000100
,
00001000
00000000
00000100
00001000
,
00010000
00000000
00001000
00010000
,
00100000
00100000
10000000
01000000
,
00100000
00100000
00110000
00000000
,
00011000
00000000
00001010
00000010
,
00000101
00000100
00001001
00001000
,
00000100
00001000
00000100
00010000
,
00001000
00010000
00001000
01000000
,
00010000
10000000
00200000
00000000
,
01300000
00000000
01000000
00010000
00000000
00000000
00010000
00100000
,
00000000
00000000
00100000
00001000
00000000
00000000
00001000
00010000
,
00000000
00000000
00010000
00000010
00000000
00000000
00000110
00000000
,
00001000
00000001
00002002
00000000
,
00000000
00003003
00001000
00000100
,
00010000
00000000
00001000
00100000
,
00010000
00000000
01000000
00100000
,
10000000
00000000
00010000
01000000
,
00001000
00000000
00010000
00000000
,
00000100
00000000
00000010
00000000
,
00000001
00000000
00000200
00000000
,
00002300
00000000
00023000
00000000
,
00230000
00000000
00000000
00000000
10300000
00000000
00000000
10000000
,
10000000
00000000
01000000
00000000
00200000
00000000
00000000
00310000
,
00010000
00001000
00000010
00000000
,
00000010
00000000
00000010
00000000
,
00000010
00000000
00000010
00001000
,
00000001
00000100
00000010
00000010
,
00000010
00000010
00001001
00001000
,
00000100
00010000
00011000
00001000
,
01000000
00000000
00010000
00000000
10000000
00100000
10000000
00000000
,
00010000
01000000
00010000
00000000
00100000
00001000
00100000
00001000
,
00020000
00030200
00000000
00001300
,
00000000
00000001
00000000
00000000
00000100
00000000
00000010
00000000
,
00000000
00010000
00000000
00000000
00001000
00000000
00100000
00000000
,
00000000
01000000
00000000
00000000
10000000
00000000
00100000
00000000
,
00000000
01000000
00000000
00000000
00010000
00000000
00100000
00000000
,
00001000
00100000
00010000
01000000
,
00001000
00010000
00000100
00001000
,
00000020
00000000
00020030
00000000
00000000
00030000
00002000
00000000
,
00203000
00310000
01000000
00010000
,
01000000
00001000
00010000
00001000
,
00010000
00000100
00000010
00000100
,
00000010
00000001
00000100
00000001
,
00000100
00001000
00000000
00010000
,
00000000
00000000
00100000
00000000
10000000
01000000
00000000
01000000
,
00000000
00100000
00010000
00000000
01000000
00001000
00010000
00000000
,
00000100
00010000
00001000
00000000
00010000
00000000
00000100
00000000
,
00000010
00000001
00000100
00000001
,
00000100
00001000
00010000
00001000
,
00010000
00100000
10000000
01000000
,
00100000
00010000
01000000
00001000
,
00011000
00100000
00100000
00010000
,
00010000
01000000
01000000
00001000
,
00001000
00010000
00000100
00000010
,
00000001
00000200
00000000
00002300
,
00000000
00000000
00013000
00000000
00000000
00100000
00000000
00000000
,
00010000
00000000
00001000
00000000
00000000
00000010
00000000
00000000
,
00001000
00000000
00010000
00000000
00000000
01000000
00000000
00000000
,
00010000
00002000
00000000
00000000
,
00000000
00013000
00000000
00011000
,
00000000
00010000
00001000
00000000
00010000
00000100
00001000
00000000
,
00000100
00000010
00000002
00000000
00002003
00000000
00003200
00000000
,
00020300
00000000
00031000
00010000
00001000
00010000
00002000
00000000
,
00010000
00013000
00000000
00000000
00000000
00011000
00000000
01000000
,
00000000
00010000
00000000
00000000
00000000
00011000
00000000
00000010
,
00000000
00001000
00000000
00000000
00000000
00011000
00000000
00100000
,
00000000
00010000
00000000
00000000
00000000
00011000
00000000
00000100
,
00000000
00001000
00000000
00000000
00000000
00000100
00000000
00000010
,
00000000
00000001
00000000
00001000
00000000
00000100
00000000
00000010
,
00000000
00000001
00000000
00001000
00000000
00000100
00000100
00000000
,
00000000
00010000
00000000
00001000
00000000
00100000
00000000
01000000
,
00000000
10000000
00000000
00010000
00000000
00100000
00100000
00000000
,
00000000
00001000
00000000
00010000
00000000
00000100
00000000
00000010
,
00000000
00000001
00000000
00000100
00000000
00001100
00000000
00001000
,
00000000
00010000
00000000
01000000
00000000
10000000
00000000
10100000
,
00000000
00100000
00000000
00010000
00000000
00002000
00000000
00203000
,
00000000
00320000
00000000
02030000
00000000
03001000
00010000
00001000
,
00000000
00010000
00001000
00010000
00001000
00020000
00000000
00000000
,
00030100
00000100
00000010
00000001
00000100
00001000
00000000
00010000
,
00000000
00100000
00000000
10000000
00000000
00010000
00000000
00000000
,
00001000
00000000
00000000
00022000
00000000
00000000
00000000
00000000
,
00000000
00000000
00000000
00000000
,
00000000
00000000
00000000
00000000
00000000
00033000
00000000
00000000
;

//---------------dance-double - ----------------
#NOTES:
     dance-double:
     :
     Medium:
     14:
     0.633509,0.790163,0.295180,0.391285,0.113267,646.000000,603.000000,43.000000,57.000000,0.000000,0.000000,0.633509,0.790163,0.295180,0.391285,0.113267,646.000000,603.000000,43.000000,57.000000,0.000000,0.000000:
00000000
00000000
00000000
00000000
,
00000000
00000000
00000000
00000000
,
00000000
00000000
00000000
00000000
,
00000000
00000000
00000000
00000000
,
00000000
00000000
00000000
00000000
00000000
00000000
00001000
00000000
00010000
00000100
00000000
00000000
,
00001000
00000000
00000100
00010000
00000000
00000000
00001000
00000000
00010000
00000100
00000000
00000100
,
00000010
00000000
00000010
00000001
00000000
00000001
00000200
00000000
00000000
00000000
00000000
00000000
,
00002300
00000000
00023000
00000000
,
00230000
00000000
00000000
00000000
10300000
10000000
01000000
00000000
,
00000000
10000000
00100000
10000000
00100000
00100000
00010000
00000000
,
00000000
00100000
00010000
00100000
00010000
00010000
00001000
00000000
,
00000000
00010000
00001000
00000020
00000000
00000031
00000100
00000010
,
00001000
00000100
00000010
00000000
00000001
00000001
00000100
00000000
,
00000000
00000001
00000010
00000001
00000010
00000010
00001000
00000000
,
00000000
00000010
00001000
00010000
00200000
00000000
20300000
00000000
,
30020000
00000000
01030000
01100000
00000000
00100000
10000000
01000000
,
00100000
00010000
02000000
00000000
03001000
00000000
00001000
00010000
,
00000000
00000100
00000010
00000000
00000001
00000000
00000100
00001000
,
00000000
00010000
01000000
00000000
10000000
00000000
00100000
01000000
,
00000000
00010000
00100000
00000000
02000000
00000000
00000000
03020000
,
00000000
00000000
00032000
00000000
00003010
00000001
00000010
00000000
,
00000100
00001000
00000100
00000000
01000000
00010000
01000000
00000000
,
00100000
10000000
00100000
00000000
10000000
01000000
00100000
00010000
,
01000000
00100000
00010000
00001000
00000020
00000000
00000000
00000000
,
00000001
00000001
00000031
00000000
00001001
00000000
00001000
00000010
,
00000000
00010000
00001000
00100000
00010000
00000000
01000000
10000000
,
00000000
01000000
00100000
10000000
01000000
00000000
00100000
00001000
,
00000000
00010000
00001000
00000100
00000001
00000000
00000010
00000100
,
00000000
00001000
00000010
00000001
00001000
00000000
00000100
00000001
,
00000000
00000010
00000100
00010000
00001000
00000000
00100000
01000000
,
00000000
10000000
00100000
01000000
00010000
00000000
00001000
00000010
,
00000100
00000000
00000001
00001000
00001001
00000000
00000100
00000110
,
00000000
00010010
00000000
00022000
00033000
00000000
00001000
00100000
,
00010000
01000000
00100000
10000000
01000000
00100000
00010000
01000000
,
00001000
00000000
00010000
00000000
00000100
00000000
00000010
00000000
00000001
00000000
00000000
00000100
00000000
00000000
00001000
00000000
,
00010000
00000000
00000000
00100000
00000000
00000000
10000000
00000000
02000000
00000000
00000000
00000000
03200000
00000000
00000000
00000000
,
00302000
00000000
00013000
00000010
00000010
00000000
00010000
00000100
,
00000100
00000000
00010000
00001000
00001000
00000000
00010000
01000000
,
01000000
00000000
10000000
10010000
00000000
00010000
01000000
00001000
,
00010000
00000000
00000000
00011000
00000000
00000000
00002000
00000000
00000000
00000000
00013000
00000000
00001000
00000000
00000100
00000000
,
00000010
00001000
00000200
00000000
00000310
00000010
00000001
00000000
,
00000000
00000100
00000001
00000100
00000001
00000001
00000010
00000000
,
00000000
00001000
00010000
00001000
00010000
00010000
01000000
00000000
,
00000000
10000000
00100000
02000000
00000000
13000000
01000000
00100000
,
10000000
01000000
00010000
00001000
00011000
00000000
00010000
00100000
,
10000000
01000000
00010000
00001000
00010000
00000000
00001000
00000010
,
00000001
00000000
00000100
00000000
00001000
00000000
00010000
00000000
00001000
00000000
00000000
01000000
00000000
00000000
00001000
00000000
,
00010000
00000000
00000000
00000100
00000000
00000000
00010000
00000000
00022000
00000000
00000000
00000000
00000000
00000000
00000000
00000000
,
00000000
00000000
00033000
00000000
00011000
00000000
00000000
00001000
,
00100000
01000000
00010000
00001000
00010000
00000000
00000000
00010000
,
00000100
00000010
00001000
00010000
00011000
00001000
00100000
00000000
,
00101000
00001000
00010000
00000000
00011000
00010000
00000010
00000000
,
00010010
00010000
00001000
00000000
00100000
01000000
10000000
01000000
,
00100000
00001000
00010000
00000100
00000020
00000000
00000032
00000000
,
00000203
00000000
00002300
00000000
00013000
00010000
00000100
00000100
,
00000010
00000010
00000001
00000100
00000000
00001000
00001000
00010000
,
00010000
00100000
00100000
10000000
11000000
01000000
00010000
00001000
,
00011000
00000000
00010000
00000000
00000100
00000000
00000010
00000000
00000001
00000100
00000001
00000000
00001000
00000010
00001000
00000000
,
00000200
00020300
00032000
01003000
,
01000000
00100000
00000000
10000000
00010000
00000000
00100000
00000000
,
00001000
00010000
00000000
00000100
00000010
00000000
00000001
00000000
,
00000100
00001000
00000000
00010000
01000000
00000000
20000000
00000000
,
00000000
30200000
00000000
00000000
00320000
00000000
00031000
00100000
,
01000000
00000000
00100000
00001000
00010000
00000000
00010000
00000100
,
00000010
00000000
00000100
00010000
00001000
00000100
00000102
00000000
,
00000023
00000000
00000130
00001000
00000010
00000100
00001000
00010000
,
00100000
01000000
10010000
00000000
00110000
00000000
11000000
00000000
,
10000000
00100000
00020000
00000000
00031000
00000100
00000000
00000101
,
00000000
00000011
00000110
00010100
,
00011000
00000000
00001000
00100000
01000000
20000000
00000000
30020000
,
00000000
01030000
00001000
00000000
00010000
00001000
00000100
00000000
,
00001000
00000100
00000001
00000000
00000010
00000100
00000000
00020200
,
00000000
00030300
00010000
00001000
00000100
00000010
00001000
00000100
,
00000010
00001000
00010000
00001000
00000100
00001000
00010000
00001000
,
00000010
00000001
00000101
00000000
00001100
00000000
00011000
00000000
,
00001000
00100000
02000000
00000000
13000000
00100000
00000000
01010000
,
00000000
00010000
00100000
10000000
00010000
00000000
01000000
10000000
,
00100000
00000000
00010000
00001000
00000100
00000001
00000010
00000100
,
00000010
00001000
00010000
01000000
10000000
00000000
00100000
00010000
,
00001000
00000000
00000100
00000001
00000010
00000000
00001000
00010000
,
01000000
00000000
10000000
00100000
00010000
00001000
00010000
00100000
,
10000000
00100000
00020000
00000000
00000000
00000000
00032000
00000000
,
00000000
00000000
00003100
00000000
00000100
00000001
00000000
00000010
,
00000100
00000000
00010000
00000000
01000000
10000000
00000000
00100000
,
00010000
00000000
00000020
00000000
00000130
00000001
00000020
00000000
,
00000130
00010000
00001000
00000100
00001000
00010000
00001000
00000100
,
00001000
00010000
02000000
00000000
00000000
00000000
23000000
00000000
,
00000000
00010000
30010000
00000000
00010000
00100000
01000000
00010000
,
00001000
00000100
00000102
00000000
00002003
00000000
00023000
00000000
,
20030000
00000000
00000000
00000000
30100000
00010000
00001000
00000000
00010000
00001000
00000100
00000000
00000210
00000000
00000000
00000000
,
00001300
00010000
00002000
00000000
00000000
00000000
00000000
00000000
00000000
00000000
00013000
00000000
00000000
00000000
00011000
00000000
,
00000000
00100000
00000000
00110000
00000000
10000000
00000000
01010000
,
00000000
00001000
00000000
00011000
00000000
00000100
00000000
00001100
,
00000000
00000001
00000000
00000101
00000000
00000100
00001000
00010000
,
01000000
00000000
00000000
10000000
00000000
00000000
00000000
10000000
00000000
00100000
00000000
00000000
00000000
00100000
00000000
01000000
00000000
00000000
00000000
01000000
00000000
00010000
00000000
00000000
,
00000000
00010000
00000000
00100000
00000000
00000000
00000000
00100000
00000000
00001000
00000000
00000000
00000000
00001000
00000000
00010000
00000000
00000000
00000000
00010000
00000000
00000100
00000000
00000000
,
00000000
00000100
00000000
00001000
00000000
00000000
00000000
00001000
00000000
00000001
00000000
00000000
00000100
00000000
00000000
00000010
00000000
00000000
00000110
00000000
00000000
00000000
00000000
00000000
,
00001000
00000100
00010000
00000100
00001000
00000010
00001000
00000100
,
00010000
00001000
00100000
00010000
00000000
01000000
01100000
00000000
,
00010000
01000000
00001000
01000000
00010000
00100000
00010000
01000000
,
00001000
01000000
00010000
00100000
00010000
01000000
00100000
10000000
,
00000000
01000000
00000000
00010000
00000000
00001000
00000000
00000010
,
00000000
00000000
00000000
00000001
00000000
00000000
00000000
00000000
00000000
00000100
00000000
00000000
00000000
00000000
00000000
00001000
00000000
00000000
00000000
00001000
00000000
00010000
00000000
00000000
,
00000000
00010000
00000000
01000000
00000000
00000000
00000000
01000000
00000000
00100000
00000000
00000000
00000000
00100000
00000000
10000000
00000000
00000000
00100000
00000000
00000000
01000000
00000000
00000000
,
10000000
00100000
01000000
00010000
00100000
00002000
00000000
00000000
,
00013000
00000000
00000000
00001000
00000000
00000000
00000100
00000000
00000000
00000010
00000000
00000000
00000100
00000000
00000000
00000101
00000000
00000000
00000000
00000001
00000000
00000000
00000000
00000010
,
00000000
00000000
00000000
00000100
00000000
00000000
00000000
00001000
00000000
00000000
00000000
00010000
00000000
00000000
00000000
02000000
00000000
00000000
00000000
00000000
00000000
00100000
00000000
00000000
,
03100000
00000000
00000000
20020000
00000000
00000000
00000000
00000000
,
00000000
00000000
00000000
00000000
,
00000000
00000000
00000000
00000000
00000000
30030000
00000000
00000000
;
