#TITLE:Wonder -Driving ver.-;
#SUBTITLE:;
#ARTIST:LUCY;
#TITLETRANSLIT:;
#SUBTITLETRANSLIT:;
#ARTISTTRANSLIT:;
#GENRE:K-POP;
#CREDIT:MUINELIM;
#BANNER:Wonder -Driving ver.-.png;
#BACKGROUND:Wonder -Driving ver.--bg.png;
#LYRICSPATH:;
#CDTITLE:;
#MUSIC:Wonder -Driving ver.-.ogg;
#OFFSET:0.000000;
#SAMPLESTART:34.956524;
#SAMPLELENGTH:14.608696;
#SELECTABLE:YES;
#DISPLAYBPM:115;
#BPMS:0.000000=115;
#STOPS:
;
#BGCHANGES:0.000=Wonder -Driving ver.-.avi=1.000=1=0=0=StretchNoLoop==CrossFade==,
99999=-nosongbg-=1.000=0=0=0 // don't automatically add -songbackground-
;
#KEYSOUNDS:;
#ATTACKS:;

//---------------dance-single - ----------------
#NOTES:
     dance-single:
     :
     Beginner:
     3:
     0.099058,0.140539,0.057784,0.008255,0.000000,84.000000,77.000000,7.000000,1.000000,0.000000,0.000000,0.099058,0.140539,0.057784,0.008255,0.000000,84.000000,77.000000,7.000000,1.000000,0.000000,0.000000:
0000
0000
0000
0000
,
0000
0000
0000
0000
,
0000
0000
0000
0000
,
0000
0000
0000
0000
,
0000
0000
0000
0000
,
1000
0000
1000
0000
,
0001
0000
0001
0000
,
1000
0000
0001
0000
,
1000
0000
0000
0000
,
0001
0000
0001
0000
,
1000
0000
1000
0000
,
0001
0000
1000
0000
,
0001
0000
0000
0000
,
1000
0000
0000
0000
,
0001
0000
0000
0000
,
1000
0000
0001
0000
,
1000
0000
0000
0000
,
1001
0000
0000
0000
,
0001
0000
1000
0000
,
0001
0000
1000
0000
,
0001
0000
1000
0000
,
0001
0000
0001
0000
,
0001
0000
0001
0000
,
1000
0000
1000
0000
,
1000
0000
1000
0000
,
1001
0000
0000
0000
,
1000
0000
0000
0000
,
0001
0000
0000
0000
,
1000
1000
1000
0000
,
1001
0000
0000
0000
,
0001
0000
0000
0000
,
1000
0000
0000
0000
,
0001
0001
0001
0000
,
0100
0000
0000
0000
,
0010
0000
0000
0000
,
0100
0000
0000
0000
,
0010
0000
0000
0000
,
0100
0000
0000
0000
,
0010
0000
0000
0000
,
0100
0000
0000
0000
,
0020
0000
0030
0000
,
1000
0000
1000
0000
,
1000
0000
1000
0000
,
0001
0000
0001
0000
,
0001
0000
0001
0000
,
1000
0000
0001
0000
,
1000
0000
0001
0000
,
1000
0000
1000
0000
,
0001
0000
0001
0000
,
1001
0000
0000
0000
,
0000
0000
0000
0000
,
0110
0000
0000
0000
,
0000
0000
0000
0000
,
1001
0000
0000
0000
,
0000
0000
0000
0000
,
0110
0000
0000
0000
,
0000
0100
0100
0100
;

//---------------dance-single - ----------------
#NOTES:
     dance-single:
     :
     Hard:
     11:
     0.382081,0.447000,0.198116,0.412742,0.189861,324.000000,300.000000,24.000000,50.000000,0.000000,0.000000,0.382081,0.447000,0.198116,0.412742,0.189861,324.000000,300.000000,24.000000,50.000000,0.000000,0.000000:
0000
0000
0000
0000
,
0000
0000
0000
0000
,
0000
0000
0000
0000
,
0000
0000
0000
0000
,
0000
0000
0000
0000
,
0001
0101
1000
1100
,
0001
0011
1000
1010
,
0001
0010
0100
0000
1000
0010
0100
0000
,
0010
0100
0000
0001
0100
0000
0010
0100
0000
0001
0100
0000
0020
0000
0000
0000
,
1030
0000
1100
0000
0100
1000
0100
0010
,
0002
0000
0000
0000
0103
0000
0100
0010
0100
0000
0010
0000
1000
0000
0100
0000
,
0020
0000
0031
0000
0001
1000
0001
0100
,
1000
0100
0001
0100
1000
0100
0010
1000
,
1100
0000
0001
0101
0000
0100
0010
1000
,
1010
0201
0320
2030
,
3002
0023
0230
2300
,
3010
0100
0000
0001
0100
0000
0010
0100
0000
0001
0100
0000
0020
0000
0000
0000
,
2030
0000
0000
0000
0000
0000
3100
0010
0200
0000
0000
0000
0000
0000
0010
0000
,
0320
0000
0032
0000
2003
0000
0000
0001
,
3002
0000
0203
0000
0320
0000
0000
1000
,
2030
3020
0230
0301
,
0021
0130
1200
0310
,
0201
0310
1020
0130
,
0100
0001
1000
0100
0010
0001
0100
0000
,
0110
0000
0000
0010
1000
0000
0010
0100
0000
0010
1000
0000
0020
0000
0000
0000
,
0130
0000
0000
0000
1001
0000
0000
0000
0010
0000
0000
0000
1001
0000
0100
0010
,
0100
0010
1000
0100
0010
0000
0010
0001
,
0100
0010
1000
0100
0010
0000
0010
0001
,
0100
0010
1000
0100
0020
0000
0031
0000
,
1000
0000
0000
0000
0110
0000
0000
0000
0001
0000
0000
0000
0110
0000
1000
0001
,
1000
0001
0100
0010
1000
0000
0001
0100
,
0010
1000
0100
0010
0010
0000
1001
0000
,
0001
0100
0000
0001
0010
0000
0001
1000
0000
0001
0010
0000
0200
0000
0000
0000
,
2300
0000
0000
3000
,
0020
0000
0000
0030
,
0002
0000
0000
0003
,
0200
0000
0000
0300
,
2000
3000
0002
0003
,
0020
0030
2000
3000
,
0200
0300
0002
0000
,
1003
0010
0000
1000
0100
0000
1000
0001
0000
1000
0100
0000
0020
0000
0000
0000
,
0032
0000
0000
0000
0103
0000
0100
0010
0200
0000
0000
0000
0310
0000
0010
0000
,
1000
0100
0010
0001
0010
0100
1100
0000
,
1000
0010
0100
0001
0100
0010
1010
0000
,
0001
0010
0100
1000
0010
0100
1001
0000
,
0002
0000
0203
0000
2300
0000
0010
3020
,
0000
0032
0000
2003
0000
0000
3010
0000
,
0010
0100
0001
1000
0100
0010
0001
0000
,
0011
0000
0000
0010
0100
0000
0010
0001
0000
0010
0100
0000
0010
0000
0001
0000
,
1001
0000
0000
1000
0100
0000
0000
0000
0001
0000
0000
0001
0100
0000
0000
0000
,
1000
0000
0000
1000
0010
0000
0000
0000
0001
0000
0000
0001
0010
0000
0000
0000
,
0100
0000
0000
0100
0010
0000
0000
0000
1000
0000
0000
1000
0001
0000
0010
0000
,
0100
0000
0000
0100
1000
0000
0000
1000
0010
0000
0000
0010
0100
0000
0000
0100
,
0001
0000
0000
0010
0001
0000
0100
0000
0010
0000
0000
0010
1000
0000
0100
0000
,
0010
0000
0000
0010
0001
0000
0100
0000
0010
0000
0000
0010
1000
0000
0100
0000
,
0010
0000
0000
0010
0001
0000
0100
0000
1000
0000
0000
1000
0100
0000
0001
0000
,
0010
0000
0100
0000
1000
0010
0000
0100
0010
0000
0100
0001
0020
0000
0230
0000
,
0300
0000
0000
0000
;

//---------------dance-single - ----------------
#NOTES:
     dance-single:
     :
     Easy:
     4:
     0.148587,0.235263,0.082548,0.082548,0.000000,126.000000,116.000000,10.000000,10.000000,0.000000,0.000000,0.148587,0.235263,0.082548,0.082548,0.000000,126.000000,116.000000,10.000000,10.000000,0.000000,0.000000:
0000
0000
0000
0000
,
0000
0000
0000
0000
,
0000
0000
0000
0000
,
0000
0000
0000
0000
,
0000
0000
0000
0000
,
0100
0000
0100
0000
,
0001
0000
0001
0000
,
1000
0000
1000
0000
,
0010
0010
0010
0100
,
0020
0030
0000
0000
,
1000
0000
0000
0000
,
0200
0300
0000
0000
,
0001
0000
0000
0000
,
0010
0000
0100
0000
,
0010
0000
1000
0000
,
0001
0000
1000
0000
,
2002
0000
3003
0100
,
0100
0000
1001
0000
,
0100
1000
0001
0000
,
0010
0001
1000
0000
,
0100
1000
0001
0000
,
0100
0000
1000
0000
,
0010
0000
0001
0000
,
1000
0001
2000
3000
,
0001
1000
0002
0003
,
1001
0000
1001
0000
,
0100
0010
0100
0000
,
0010
0100
0010
0000
,
0100
0010
0100
0000
,
0110
0000
0110
0000
,
0001
1000
0001
0000
,
1000
0001
1000
0000
,
2002
0000
0000
3003
,
0001
0000
0000
0000
,
0100
0000
0000
0000
,
1000
0000
0000
0000
,
0010
0000
0000
0000
,
0001
0000
0100
0000
,
1000
0000
0010
0000
,
0001
0000
0100
0000
,
2002
0000
3003
0010
,
0010
0000
1001
0000
,
0010
0100
0001
0000
,
0100
0010
1000
0000
,
0010
0100
0001
0000
,
0010
0000
1000
0000
,
0100
0000
0001
0000
,
1000
0100
0010
0001
,
0010
0100
1000
0001
,
1001
0000
1000
0000
,
0010
0000
1000
0000
,
0100
0000
1000
0000
,
0010
0000
1000
0000
,
0100
0000
0001
0000
,
0010
0000
0001
0000
,
0100
0000
0001
0000
,
0010
0000
0001
0001
,
0100
0000
0000
0000
;

//---------------dance-single - ----------------
#NOTES:
     dance-single:
     :
     Medium:
     9:
     0.260617,0.329368,0.156842,0.470526,0.000000,221.000000,202.000000,19.000000,57.000000,0.000000,0.000000,0.260617,0.329368,0.156842,0.470526,0.000000,221.000000,202.000000,19.000000,57.000000,0.000000,0.000000:
0000
0000
0000
0000
,
0000
0000
0000
0000
,
0000
0000
0000
0000
,
0000
0000
0000
0000
,
0000
0000
0000
0000
,
0010
0010
1000
1000
,
0001
0001
0100
0100
,
0010
1000
0001
0100
,
2002
0000
0000
0000
3003
0000
1000
0001
,
0200
0310
1000
0100
,
0010
0000
0001
0000
0100
0000
0010
1000
,
0002
0103
0010
1000
,
0001
0000
0010
0000
0100
0000
1000
0010
,
0200
0000
0000
0302
0000
0000
1003
0000
,
2000
0000
0000
3020
0000
0000
0130
0000
,
0100
0001
0100
0000
0010
1000
0010
0000
,
0220
0000
0330
0110
,
2001
0000
0000
0001
3001
0000
1000
0000
,
1010
0001
0022
0033
,
0101
1000
2200
3300
,
1010
0001
2002
3003
,
1000
0010
0001
0100
,
1000
0000
0010
0100
0020
0000
0130
0000
,
0100
0001
0100
0000
0010
1000
0010
0000
,
1000
0100
0010
0000
0001
0010
0100
0000
,
1100
0000
0011
0000
,
0010
0001
0100
0001
0010
0000
0010
0000
,
0100
1000
0010
1000
0100
0000
0100
0000
,
1000
0001
0100
0010
0200
0000
0310
0000
,
1010
0000
0101
0000
,
0001
0010
0100
0010
0001
0000
0001
0000
,
1000
0100
0010
0100
1000
0000
1000
0000
,
2002
0000
0000
3003
,
1001
0000
0000
0000
,
0010
0000
0000
0000
,
1000
0000
0000
0000
,
0100
0000
0000
0000
,
0001
0000
0010
0000
,
0100
0000
1000
0000
,
0010
0000
0100
0000
,
0220
0000
0330
1001
,
0120
0000
0000
0100
0130
0000
0010
0000
,
0100
0001
0010
0100
1000
0000
0001
0000
,
1000
0010
0100
0001
0100
0000
0010
0000
,
1000
0100
0010
0001
1000
0000
0001
0000
,
2000
3010
0002
0013
,
2000
3100
0002
0103
,
0100
0010
1000
0000
0010
0100
0001
0000
,
1000
0100
0001
0000
0001
0010
1000
0000
,
0002
0203
0302
0023
,
0032
2003
3020
0130
,
0200
0302
0203
0320
,
0230
2300
3200
0310
,
0020
2030
3002
2003
,
3020
2030
3200
1300
,
2000
3020
0032
0023
,
0230
0320
2030
0002
,
3003
0000
0000
0000
;

//---------------dance-double - ----------------
#NOTES:
     dance-double:
     :
     Easy:
     4:
     0.148587,0.235263,0.115568,0.066039,0.000000,126.000000,112.000000,14.000000,8.000000,0.000000,0.000000,0.148587,0.235263,0.115568,0.066039,0.000000,126.000000,112.000000,14.000000,8.000000,0.000000,0.000000:
00000000
00000000
00000000
00000000
,
00000000
00000000
00000000
00000000
,
00000000
00000000
00000000
00000000
,
00000000
00000000
00000000
00000000
,
00000000
00000000
00000000
00000000
,
01000000
00000000
00001000
00000000
,
00010000
00000000
00000100
00000000
,
00001000
00000000
00000010
00000000
,
00010000
00001000
00010000
00001000
,
00020000
00030000
00000000
00000000
,
01000000
00000000
00000000
00000000
,
00002000
00003000
00000000
00000000
,
00000100
00000000
00000000
00000000
,
00010000
00000000
00001000
00000000
,
00000100
00000000
00000001
00000000
,
00000010
00000000
00000100
00000000
,
00002002
00000000
00003003
00000100
,
00000100
00000000
00011000
00000000
,
00001000
00100000
00001000
00000000
,
00010000
00000010
00010000
00000000
,
00001000
01000000
00001000
00000000
,
00010000
00000000
00000100
00000000
,
00000010
00000000
00000001
00000000
,
00000100
00001000
00010000
00000000
,
01000000
00010000
00001000
00000000
,
00011000
00000000
00011000
00000000
,
00010000
00100000
01000000
00000000
,
00100000
10000000
01000000
00000000
,
10000000
00100000
00010000
00000000
,
00011000
00000000
00011000
00000000
,
00001000
00000100
00000010
00000000
,
00000100
00000001
00000010
00000000
,
00000220
00000000
00000000
00000330
,
00000001
00000000
00000000
00000000
,
00001000
00000000
00000000
00000000
,
00010000
00000000
00000000
00000000
,
10000000
00000000
00000000
00000000
,
00100000
00000000
00010000
00000000
,
00001000
00000000
00000010
00000000
,
00000100
00000000
00010000
00000000
,
00022000
00000000
00033000
00100000
,
00100000
00000000
10010000
00000000
,
10000000
00100000
01000000
00000000
,
00010000
00100000
00001000
00000000
,
00010000
00000100
00001000
00000000
,
00000010
00000000
00010000
00000000
,
00001000
00000000
00100000
00000000
,
01000000
10000000
00100000
00010000
,
00001000
00000100
00000001
00000010
,
00000110
00000000
00000000
00000000
,
00011000
00000000
00000000
00000000
,
01100000
00000000
00000000
00000000
,
10010000
00000000
00000000
00000000
,
10000000
00000000
00100000
00000000
,
00010000
00000000
00001000
00000000
,
00000100
00000000
00000001
00000000
,
00000010
00000000
00001000
00010000
,
00011000
00000000
00000000
00000000
;

//---------------dance-double - ----------------
#NOTES:
     dance-double:
     :
     Medium:
     7:
     0.248825,0.329368,0.132078,0.288920,0.000000,211.000000,195.000000,16.000000,35.000000,0.000000,0.000000,0.248825,0.329368,0.132078,0.288920,0.000000,211.000000,195.000000,16.000000,35.000000,0.000000,0.000000:
// measure 0
00000000
00000000
00000000
00000000
,  // measure 1
00000000
00000000
00000000
00000000
,  // measure 2
00000000
00000000
00000000
00000000
,  // measure 3
00000000
00000000
00000000
00000000
,  // measure 4
00000000
00000000
00000000
00000000
,  // measure 5
01000000
01000000
00001000
00001000
,  // measure 6
00010000
00010000
00000100
00000100
,  // measure 7
00001000
00000010
00010000
00001000
,  // measure 8
00022000
00000000
00000000
00000000
00033000
00000000
00010000
00001000
,  // measure 9
00200000
00310000
10000000
01000000
,  // measure 10
00100000
00000000
00010000
00000000
01000000
00000000
00001000
00010000
,  // measure 11
00000200
00001300
00000010
00000100
,  // measure 12
00000001
00000000
00001000
00000000
00000100
00000000
00000010
00001000
,  // measure 13
00020000
00000000
00000000
00230000
00000000
00000000
20300000
00000000
,  // measure 14
32000000
00000000
00000000
03020000
00000000
00000000
00032000
00000000
,  // measure 15
00003010
00000100
00000010
00000000
00000100
00000010
00000100
00000000
,  // measure 16
00002002
00000000
00003003
00000110
,  // measure 17
00020010
00000000
00000000
00001000
00031000
00000000
00100000
00000000
,  // measure 18
00010000
01000000
20200000
30300000
,  // measure 19
10000000
00100000
02020000
03030000
,  // measure 20
01000000
00001000
00022000
00033000
,  // measure 21
00010000
00000100
00001000
00000100
,  // measure 22
00000010
00000000
00000001
00001000
00000100
00000000
00010000
00000000
,  // measure 23
00001000
00100000
00010000
00000000
00100000
00001000
00010000
00000000
,  // measure 24
00001000
00010000
00000010
00000000
00001000
00000010
00010000
00000000
,  // measure 25
00011000
00000000
00110000
00000000
,  // measure 26
00100000
10000000
01000000
00000000
00010000
00000000
00010000
00000000
,  // measure 27
01000000
10000000
00100000
00000000
00010000
00000000
00010000
00000000
,  // measure 28
00100000
10000000
01000000
00000000
00020000
00000000
00031000
00000000
,  // measure 29
00011000
00000000
00001010
00000000
,  // measure 30
00000010
00000001
00000100
00000000
00001000
00000000
00001000
00000000
,  // measure 31
00000100
00000001
00000010
00000000
00001000
00000000
00001000
00000000
,  // measure 32
00022000
00000000
00000000
00033000
,  // measure 33
00011000
00000000
00000000
00000000
,  // measure 34
00100000
00000000
00000000
00000000
,  // measure 35
01000000
00000000
00000000
00000000
,  // measure 36
00010000
00000000
00000000
00000000
,  // measure 37
00001000
00000000
00000010
00000000
,  // measure 38
00000001
00000000
00000100
00000000
,  // measure 39
00001000
00000000
00010000
00000000
,  // measure 40
00022000
00000000
00033000
00101000
,  // measure 41
00120000
00000000
00000000
10000000
10030000
00000000
00100000
00000000
,  // measure 42
01000000
00001000
00010000
00000000
00000100
00000000
00001000
00000000
,  // measure 43
00000010
00010000
00001000
00000000
00100000
00000000
01000000
00000000
,  // measure 44
00010000
00001000
00000010
00000000
00000001
00000000
00001000
00000000
,  // measure 45
00000020
00020030
00032000
00203000
,  // measure 46
02300000
23000000
30200000
00310000
,  // measure 47
00010000
00001000
00000100
00000000
00001000
00010000
01000000
00000000
,  // measure 48
00010000
00001000
00000010
00000000
00001000
00010000
00100000
00000000
,  // measure 49
10000000
01000000
00100000
00010000
,  // measure 50
00001000
00000100
00000020
00000031
,  // measure 51
00000001
00000100
00000010
00001000
,  // measure 52
00010000
01000000
00200000
10300000
,  // measure 53
10000000
01000000
00010000
00001000
,  // measure 54
00000010
00000001
00000100
00001000
,  // measure 55
00010000
01000000
00001000
00000100
,  // measure 56
00010000
00100000
00001000
00000020
,  // measure 57
00000130
00000000
00000000
00000000
;

//---------------dance-double - ----------------
#NOTES:
     dance-double:
     :
     Hard:
     11:
     0.359675,0.423474,0.239390,0.379723,0.144460,305.000000,276.000000,29.000000,46.000000,0.000000,0.000000,0.359675,0.423474,0.239390,0.379723,0.144460,305.000000,276.000000,29.000000,46.000000,0.000000,0.000000:
00000000
00000000
00000000
00000000
,
00000000
00000000
00000000
00000000
,
00000000
00000000
00000000
00000000
,
00000000
00000000
00000000
00000000
,
00000000
00000000
00000000
00000000
,
00010000
00010010
00001000
00101000
,
00010000
00010100
00001000
01001000
,
00010000
00001000
00000010
00000000
00001000
00010000
00100000
00000000
,
10000000
00000000
00000000
01000000
00000000
00000000
00010000
00000000
00000000
00001000
00000000
00000000
00000020
00000000
00000000
00000000
,
00000031
00000000
00000101
00000000
00000100
00000010
00010000
00001000
,
00200000
00000000
00000000
00000000
01300000
00000000
01000000
10000000
01000000
00000000
10000000
00000000
00100000
00000000
01000000
00000000
,
00002000
00000000
00013000
00000000
00010000
00000100
00010000
00001000
,
00000100
00000001
00000010
00001000
00000010
00000001
00000010
00000100
,
00001100
00000000
00010000
00011000
00000000
00001000
01000000
00010000
,
00110000
12000000
03020000
00032000
,
00003020
00000032
00000203
00002300
,
00013000
00000000
00000000
00100000
00000000
00000000
10000000
00000000
00000000
01000000
00000000
00000000
00200000
00000000
00000000
00000000
,
00302000
00000000
00000000
00000000
00000000
00000000
00013000
00000100
00002000
00000000
00000000
00000000
00000000
00000000
00000001
00000000
,
00003002
00000000
00000023
00000000
00002030
00000000
00000000
00010000
,
00023000
00000000
00030200
00000000
00000320
00000000
00000000
00001000
,
00002030
00023000
00230000
10300000
,
11000000
00010000
00011000
00000010
,
00000011
00001000
00011000
01000000
,
10000000
00100000
00010000
00001000
00000100
00000001
00001000
00000000
,
00000110
00000000
00000000
00000001
00000000
00000000
00000100
00000000
00000000
00001000
00000000
00000000
00020000
00000000
00000000
00000000
,
00130000
00000000
00000000
00000000
01100000
00000000
00000000
00000000
01000000
00000000
00000000
00000000
01100000
00000000
00100000
10000000
,
00100000
01000000
00001000
00010000
00000100
00000000
00001000
00000010
,
00010000
00001000
00100000
00010000
01000000
00000000
00001000
00010000
,
00000100
00000010
00000001
00000100
00002000
00000000
00013000
00000000
,
00001000
00000000
00000000
00000000
00000110
00000000
00000000
00000000
00000001
00000000
00000000
00000000
00000110
00000000
00000100
00000001
,
00000100
00000010
00010000
00001000
00100000
00000000
00010000
01000000
,
00001000
00010000
00000100
00000010
00001000
00000000
00011000
00000000
,
00010000
00000000
00000000
01000000
00000000
00000000
10000000
00000000
00000000
00100000
00000000
00000000
00020000
00000000
00000000
00000000
,
00032000
00000000
00000000
00003000
,
00000020
00000000
00000000
00000030
,
00000002
00000000
00000000
00000003
,
00002000
00000000
00000000
00003000
,
00000020
00000030
00020000
00030000
,
00002000
00003000
00200000
00300000
,
02000000
03000000
20000000
00000000
,
30100000
00000000
00000000
00010000
00000000
00000000
00001000
00000000
00000000
00000100
00000000
00000000
00000020
00000000
00000000
00000000
,
00000230
00000000
00000000
00000000
00000301
00000000
00000001
00001000
00000020
00000000
00000000
00000000
00010030
00000000
00010000
00000000
,
00001000
00100000
01000000
10000000
00100000
00010000
00011000
00000000
,
00010000
00000100
00000010
00000001
00000100
00001000
00011000
00000000
,
00001000
00100000
00010000
10000000
01000000
00010000
00011000
00000000
,
00002000
00000000
00003200
00000000
00000302
00000000
00000010
00000023
,
00000000
00000230
00000000
00020300
00000000
00000000
00031000
00000000
,
00001000
00100000
01000000
10000000
00100000
01000000
00010000
00000000
,
10010000
00000000
00000000
01000000
00000000
00000000
00100000
00000000
00000000
00010000
00000000
00000000
00001000
00000000
00000100
00000000
,
00000110
00000000
00000000
00000001
00000100
00000000
00000000
00000000
00000110
00000000
00000000
00001000
00000100
00000000
00000000
00000000
,
00011000
00000000
00000000
00010000
00000010
00000000
00000000
00000000
00011000
00000000
00000000
00001000
00100000
00000000
00000000
00000000
,
01100000
00000000
00000000
10000000
00100000
00000000
00000000
00000000
01100000
00000000
00000000
00010000
00100000
00000000
01000000
00000000
,
10000000
00000000
00000000
10000000
00100000
00000000
00000000
00100000
00010000
00000000
00000000
00010000
00001000
00000000
00000000
00001000
,
00000100
00000000
00000000
00000100
00000001
00000000
00001000
00000000
00000100
00000000
00000000
00000100
00000010
00000000
00001000
00000000
,
00010000
00000000
00000000
00010000
01000000
00000000
10000000
00000000
00100000
00000000
00000000
00100000
01000000
00000000
10000000
00000000
,
01000000
00000000
00000000
01000000
00010000
00000000
00100000
00000000
01000000
00000000
00000000
01000000
00010000
00000000
00001000
00000000
,
00000010
00000000
00000001
00000000
00000000
00001000
00000000
00000000
00010000
00000000
01000000
00100000
20000000
00000000
00020000
00000000
,
30030000
00000000
00000000
00000000
;
