#VERSION:0.83;
#TITLE:When Can I See You Again ?;
#SUBTITLE:;
#ARTIST:Owl City;
#TITLETRANSLIT:;
#SUBTITLETRANSLIT:;
#ARTISTTRANSLIT:;
#GENRE:POP CHARTS;
#ORIGIN:;
#CREDIT:MUINELIM;
#BANNER:When Can I See You Again.png;
#BACKGROUND:When Can I See You Again-bg.png;
#PREVIEWVID:;
#JACKET:When Can I See You Again-jacket.png;
#CDIMAGE:;
#DISCIMAGE:;
#LYRICSPATH:;
#CDTITLE:;
#MUSIC:When Can I See You Again.ogg;
#OFFSET:1.674009;
#SAMPLESTART:45.669739;
#SAMPLELENGTH:12.167999;
#SELECTABLE:YES;
#BPMS:0.000=128.000;
#STOPS:101.000=0.938;
#DELAYS:;
#WARPS:;
#TIMESIGNATURES:0.000=4=4;
#TICKCOUNTS:0.000=4;
#COMBOS:0.000=1;
#SPEEDS:0.000=1.000=0.000=0;
#SCROLLS:0.000=1.000;
#FAKES:;
#LABELS:0.000=Song Start;
#BGCHANGES:0.000=When Can I See You Again-bg.png=1.000=0=0=1=StretchNormal===#000000=#000000,
4.000=When Can I See You Again.avi=1.000=1=0=0=StretchNoLoop==CrossFade==,
99999=-nosongbg-=1.000=0=0=0 // don't automatically add -songbackground-
;
#KEYSOUNDS:;
#ATTACKS:
;

//---------------dance-single - ----------------
#NOTEDATA:;
#CHARTNAME:;
#STEPSTYPE:dance-single;
#DESCRIPTION:;
#CHARTSTYLE:;
#DIFFICULTY:Beginner;
#METER:3;
#RADARVALUES:0.092553,0.130892,0.007533,0.015067,0.000000,86.000000,85.000000,1.000000,2.000000,0.000000,0.000000,0.000000,0.000000,0.000000,0.092553,0.130892,0.007533,0.015067,0.000000,86.000000,85.000000,1.000000,2.000000,0.000000,0.000000,0.000000,0.000000,0.000000;
#CREDIT:MILEN;
#NOTES:
// measure 0
0000
0000
0000
0000
,  // measure 1
0000
0000
0000
0000
,  // measure 2
0000
0000
0000
0000
,  // measure 3
0000
0000
0000
0000
,  // measure 4
0000
0000
0000
0000
,  // measure 5
0000
0000
0000
0000
,  // measure 6
1000
0000
0000
0000
,  // measure 7
0001
0000
0000
0000
,  // measure 8
1000
0000
0000
0000
,  // measure 9
0001
0000
0000
1000
,  // measure 10
1000
0000
0000
0000
,  // measure 11
0100
0000
0000
0000
,  // measure 12
0010
0000
0000
0000
,  // measure 13
0001
0000
0000
0000
,  // measure 14
1000
0000
0000
0000
,  // measure 15
0010
0000
0000
0000
,  // measure 16
0100
0000
0000
0000
,  // measure 17
0001
0000
0000
0000
,  // measure 18
0010
0000
0000
0000
,  // measure 19
0100
0000
0000
0000
,  // measure 20
1000
0000
0000
0000
,  // measure 21
0010
0000
0000
0000
,  // measure 22
0100
0000
0000
0000
,  // measure 23
0010
0000
0000
0000
,  // measure 24
0000
0000
0000
0000
,  // measure 25
0000
1001
1000
0000
,  // measure 26
1000
0000
0000
0000
,  // measure 27
0000
0000
0001
0000
,  // measure 28
0001
0000
0000
0000
,  // measure 29
0000
0000
0100
0000
,  // measure 30
0100
0000
0100
0000
,  // measure 31
0000
0000
0010
0000
,  // measure 32
0010
0000
0010
0000
,  // measure 33
0000
0000
1000
0000
,  // measure 34
1000
0000
1000
0000
,  // measure 35
0000
0000
0001
0000
,  // measure 36
0001
0000
0001
0000
,  // measure 37
0000
0000
0100
0000
,  // measure 38
0100
0000
0100
0000
,  // measure 39
0010
0000
0100
0000
,  // measure 40
0010
0000
0020
0000
,  // measure 41
0000
0000
0030
0000
,  // measure 42
0000
0000
0000
0000
,  // measure 43
0000
0000
0000
0000
,  // measure 44
0000
0000
0010
0000
,  // measure 45
0010
0010
0000
0000
,  // measure 46
1000
0000
0000
0000
,  // measure 47
0001
0000
0000
0000
,  // measure 48
0100
0000
0000
0000
,  // measure 49
0010
0010
0010
0000
,  // measure 50
1000
0000
0010
0000
,  // measure 51
0000
0000
0100
0000
,  // measure 52
0001
0000
0100
0000
,  // measure 53
0000
0000
0001
0000
,  // measure 54
0010
0000
0001
0000
,  // measure 55
0000
0000
1000
0000
,  // measure 56
0100
0000
1000
0000
,  // measure 57
0000
0000
0001
0000
,  // measure 58
1000
0000
0001
0000
,  // measure 59
1000
0000
0010
0000
,  // measure 60
0100
0000
0010
0000
,  // measure 61
0100
0000
0001
0000
,  // measure 62
1000
0000
0010
0000
,  // measure 63
0100
0000
0001
0000
,  // measure 64
1000
0000
0020
0000
,  // measure 65
0000
0000
0030
0000
,  // measure 66
0000
0000
0000
0100
,  // measure 67
0100
0000
0001
0000
,  // measure 68
1000
0000
0100
0000
,  // measure 69
0010
0000
0001
0000
;

//---------------dance-single - ----------------
#NOTEDATA:;
#CHARTNAME:;
#STEPSTYPE:dance-single;
#DESCRIPTION:;
#CHARTSTYLE:;
#DIFFICULTY:Easy;
#METER:4;
#RADARVALUES:0.148515,0.209427,0.052733,0.052733,0.000000,138.000000,131.000000,7.000000,7.000000,0.000000,0.000000,0.000000,0.000000,0.000000,0.148515,0.209427,0.052733,0.052733,0.000000,138.000000,131.000000,7.000000,7.000000,0.000000,0.000000,0.000000,0.000000,0.000000;
#CREDIT:MILEN;
#NOTES:
0000
0000
0000
0000
,
0000
0000
0000
0000
,
0000
0000
0000
0000
,
0000
0000
0000
0000
,
0000
0000
0000
0000
,
0000
0000
0000
0000
,
1000
0000
1000
0000
,
0001
0000
0001
0000
,
1000
0000
0001
0000
,
1000
0000
0001
1001
,
1000
0000
0010
0000
,
0100
0000
0001
0000
,
1000
0000
0100
0000
,
0010
0000
0001
0000
,
0001
0000
0100
0000
,
0010
0000
1000
0000
,
0001
0000
0010
0000
,
0100
0000
1000
0000
,
0010
0000
0010
0000
,
0001
0000
0001
0000
,
0100
0000
0100
0000
,
1000
0000
1000
0000
,
0020
0030
0200
0300
,
0110
0000
0000
0010
,
0010
0000
1000
0000
,
0001
0001
1000
0100
,
1000
0000
0100
0000
,
1000
0000
0001
0010
,
0001
0000
0010
0000
,
0001
0000
1000
0010
,
1000
0000
0010
0000
,
1000
0000
0001
0100
,
0001
0000
0100
0000
,
0001
0000
1000
0000
,
0100
0000
0010
0000
,
0001
0000
1000
0000
,
0010
0000
0100
0000
,
0001
0000
0010
0000
,
0100
0000
1000
0000
,
0010
0000
0100
0000
,
0001
0000
1000
0000
,
1001
0000
0220
0000
,
0000
0000
0000
0000
,
0000
0000
0330
0000
,
0000
0000
0020
0000
,
0030
0010
0000
1000
,
1000
0000
0001
0000
,
0100
0000
1000
0000
,
0010
0000
0001
0000
,
1000
1001
0001
0000
,
0001
0000
0100
0000
,
0100
0000
1000
0000
,
1000
0000
0010
0000
,
0010
0000
0001
0000
,
0001
0000
1000
0000
,
1000
0000
0010
0000
,
0100
0000
0010
1000
,
0001
0100
0100
0000
,
1000
0000
0010
0000
,
0001
0000
0100
0000
,
1000
0000
0010
0000
,
0001
0000
1000
0000
,
0100
0000
0001
0000
,
0010
0000
1000
0000
,
0100
0000
0001
0000
,
0010
0000
0220
0000
,
0000
0000
0000
0000
,
0000
0330
0100
0100
,
0100
0000
0010
0000
,
1000
0001
1001
0000
;

//---------------dance-single - ----------------
#NOTEDATA:;
#CHARTNAME:;
#STEPSTYPE:dance-single;
#DESCRIPTION:;
#CHARTSTYLE:;
#DIFFICULTY:Medium;
#METER:7;
#RADARVALUES:0.280887,0.392676,0.339001,0.128067,0.000000,261.000000,216.000000,45.000000,17.000000,0.000000,0.000000,0.000000,0.000000,0.000000,0.280887,0.392676,0.339001,0.128067,0.000000,261.000000,216.000000,45.000000,17.000000,0.000000,0.000000,0.000000,0.000000,0.000000;
#CREDIT:MILEN;
#NOTES:
0000
0000
0000
0000
,
0000
0000
0000
0000
,
0000
0000
0000
0000
,
0000
0000
0000
0000
,
0000
0000
0000
0000
,
0000
0000
0000
0000
,
1000
1000
1000
0000
,
0001
0001
0001
0000
,
1000
1000
0001
0001
,
1000
0001
1000
2002
,
3003
0001
0100
0001
,
0010
0001
0100
0100
,
0000
1000
0010
1000
,
0100
1000
0010
0010
,
0000
0001
1000
0010
,
0100
0001
1000
0010
,
0010
0001
0100
1000
,
1001
0010
0100
0020
,
1030
0100
1000
0100
,
0001
0010
0001
0010
,
1000
0100
1000
0100
,
0001
0010
0001
0010
,
0200
0000
0320
0000
,
2030
0000
0000
0000
,
0002
0000
0000
0000
,
3003
1001
0010
1000
,
1100
0100
1000
0010
,
0100
1000
0100
0001
,
0011
0010
0001
1000
,
0010
0001
0010
1000
,
0001
0100
0010
0110
,
0100
0001
0010
0100
,
1000
0020
0130
0010
,
0010
0010
1001
1000
,
0100
0010
0001
0101
,
1100
0101
1100
0001
,
0010
0100
1000
1010
,
0011
1010
0011
1000
,
0100
0010
0001
1000
,
0010
0100
0002
1003
,
2000
3001
0101
1100
,
1010
0011
2002
0000
,
0000
0000
0000
0000
,
0000
0000
0003
0000
,
0000
0000
0000
0000
,
3000
0110
0000
0010
,
1000
0100
0010
0001
,
0100
0100
0000
1000
,
0001
1001
0000
0010
,
0100
0020
1030
0100
,
0001
0010
1000
0100
,
0001
0010
0001
0100
,
1000
0010
0001
0100
,
1000
0010
0100
0001
,
0010
1000
0100
0001
,
0010
1000
0010
0001
,
0100
1000
1010
0011
,
0101
1100
1001
0010
,
0100
0001
1000
1100
,
0011
1100
1001
0010
,
0100
0001
1000
1010
,
0101
1010
1001
0100
,
0010
1000
0001
0011
,
1100
1010
0101
1000
,
0010
0100
0101
1010
,
1100
0011
2002
0000
,
0000
0000
0000
0000
,
0000
3000
1000
1000
,
2003
0000
3020
0130
,
0001
1000
1001
0000
;

//---------------dance-single - ----------------
#NOTEDATA:;
#CHARTNAME:;
#STEPSTYPE:dance-single;
#DESCRIPTION:;
#CHARTSTYLE:;
#DIFFICULTY:Hard;
#METER:9;
#RADARVALUES:0.360525,0.418854,0.331468,0.158200,0.022600,335.000000,291.000000,44.000000,21.000000,0.000000,0.000000,0.000000,0.000000,0.000000,0.360525,0.418854,0.331468,0.158200,0.022600,335.000000,291.000000,44.000000,21.000000,0.000000,0.000000,0.000000,0.000000,0.000000;
#CREDIT:MILEN;
#NOTES:
0000
0000
0000
0000
,
0000
0000
0000
0000
,
0000
0000
0000
0000
,
0000
0000
0000
0000
,
0000
0000
0000
0000
,
0000
0000
0000
0000
,
1000
0010
0100
0000
,
0001
0010
0100
0000
,
1000
0010
0100
0001
,
0010
0100
1000
2002
,
3003
0000
0001
0100
0001
0000
0010
0000
,
0001
0100
1000
1000
,
0010
0000
1000
0100
1000
0000
0010
0000
,
1000
0100
0001
0001
,
1000
0010
1000
0000
0001
0010
0001
0000
,
1000
0010
0001
0100
,
0100
1000
0001
1000
,
1001
0000
0010
0100
0020
0000
2030
0000
,
3001
0000
0001
0010
0100
0000
0010
0001
,
0100
0000
0001
0010
0100
0000
1100
0000
,
1001
0000
1000
0010
0100
0000
0010
1000
,
0100
0000
1000
0010
0100
0000
0101
0000
,
2001
0000
0000
3020
0000
0000
0100
0230
,
0000
0000
0000
0000
0000
0000
0301
0020
,
0000
0000
0000
0230
0000
2300
0000
0002
,
3000
1003
1100
0101
,
1100
0000
1000
0000
0010
0000
0100
0001
,
0010
0001
0100
0000
0101
0000
1100
0000
,
0101
0000
0001
0000
0010
0000
0100
1000
,
0010
1000
0100
0000
1100
0000
0110
0000
,
0011
0000
1001
0010
0000
0010
0200
0000
,
0310
1000
0100
0000
1000
0001
0010
0000
,
0001
1000
0100
0000
0010
0001
0100
0001
,
0010
0001
0100
0100
1000
0000
0001
0000
,
0100
0010
1000
1100
,
0101
1100
1001
1000
,
0010
0100
0001
0011
,
1010
0011
1001
1000
,
0010
0100
0001
1000
,
0100
0010
0001
1000
0200
0000
0310
0000
,
0002
0000
0000
0000
1003
0000
0000
0000
1000
0000
0000
0010
0000
0000
0100
0000
,
0001
0000
0000
0010
0000
0000
0100
0000
0220
0000
0000
0000
0000
0000
0000
0000
,
0000
0000
0000
0000
,
0000
0000
0300
0000
,
0000
0000
0032
0000
,
1003
0100
0010
0000
0000
0010
0001
0000
,
0100
1000
0010
0001
,
0100
0100
0010
0100
0000
0010
1000
0000
,
0100
0000
0001
0000
0010
0000
1000
1000
,
0001
1000
1001
0000
0001
0100
0010
0000
,
0100
0001
0010
0000
0001
1000
0100
0000
,
1000
0001
0010
0000
0100
1000
0010
0000
,
0100
0010
1000
0000
0010
0100
0001
0010
,
0100
1000
0010
0000
0100
0001
1000
0000
,
0100
1000
0001
0000
0010
0001
1000
0000
,
0010
1000
0001
0000
0100
0010
1000
0001
,
0100
0000
0010
0000
1000
0000
0100
0000
0100
0000
0000
0010
0000
0000
0001
0000
,
1000
0000
0000
0010
0000
0000
0100
0000
0110
0000
0000
0000
1010
0000
0000
0000
,
0011
0000
0101
0000
1100
0000
1000
0010
,
0100
0010
1000
0000
0001
0000
0011
0000
,
1010
0000
1100
0000
0101
0000
0001
0010
,
0100
0010
0001
0000
1000
0000
1010
0000
,
0101
0000
0011
0000
1100
0000
1000
0001
,
0100
0010
1000
0000
0001
0000
0101
0000
,
1010
0000
0000
0000
0110
0000
0000
0000
0100
0000
0000
0001
0000
0000
1000
0000
,
0100
0000
0000
0010
0000
0000
0001
0000
2002
0000
0000
0000
0000
0000
0000
0000
,
0000
0000
0000
0000
,
0000
0003
0010
0010
,
3020
0000
0000
0230
0000
0301
0010
0100
,
1000
0010
0100
0001
1001
0000
0000
0000
;

//---------------dance-single - ----------------
#NOTEDATA:;
#CHARTNAME:;
#STEPSTYPE:dance-single;
#DESCRIPTION:;
#CHARTSTYLE:;
#DIFFICULTY:Challenge;
#METER:12;
#RADARVALUES:0.502582,0.628282,0.519801,0.188334,0.131834,467.000000,398.000000,69.000000,25.000000,0.000000,0.000000,0.000000,0.000000,0.000000,0.502582,0.628282,0.519801,0.188334,0.131834,467.000000,398.000000,69.000000,25.000000,0.000000,0.000000,0.000000,0.000000,0.000000;
#CREDIT:MILEN;
#NOTES:
0000
0000
0000
0000
,
0000
0000
0000
0000
,
0000
0000
0000
0000
,
0000
0000
0000
0000
,
0000
0000
0000
0000
,
0000
0000
0000
0000
,
0000
1000
0100
0010
0001
0100
0010
0010
,
0000
0001
0010
0100
1000
0010
0100
0100
,
0000
1000
0100
0010
0001
0100
0010
0010
,
0000
1010
0000
0012
0000
0000
2000
3003
,
1000
0100
0010
0001
0100
0000
0100
0010
,
1020
0001
1000
0230
,
0000
0301
0010
0100
1000
0000
0001
0100
,
0210
0001
1000
0301
,
0000
0001
0010
0100
1100
0000
1000
0010
,
0102
0000
0023
0000
2030
0100
3100
0001
,
0000
0001
0100
1000
0100
0010
1000
0100
,
0000
0001
0100
1000
0010
0100
0001
1000
,
1001
0000
0000
0001
0100
0000
0010
0000
0100
0000
0000
0001
0010
0000
0001
0000
,
0100
0000
0000
0010
1000
0000
0100
0000
1000
0000
0000
0010
0100
0000
0010
0000
,
1000
0000
0000
0100
0010
0000
0001
0000
1000
0000
0000
0010
0100
0000
0001
0000
,
0010
0000
0000
0100
1000
0000
0010
0000
0100
0000
0001
0000
1000
0000
0100
0000
,
0020
0000
0000
0032
0000
0000
0100
0203
,
0000
0000
0000
0000
0000
0000
0010
0320
,
0000
0000
0000
2030
0000
0000
0000
0000
,
0000
3001
0101
1100
,
0101
0000
0001
0010
0100
0001
0100
1000
,
0010
0100
0001
0010
0011
0000
1010
0000
,
0011
0000
0001
0100
0010
1000
0010
0001
,
0010
1000
0100
0010
0011
0000
1100
0000
,
1001
0000
0110
0110
0000
0010
2000
0000
,
3001
0010
0100
1000
0010
0100
0001
1000
,
0100
0010
0001
0100
0000
0001
0001
0010
,
0010
0000
0100
0000
0100
0000
1000
0000
1010
0000
0000
0010
0100
0000
0000
0100
,
0001
0000
0000
0001
1000
0000
0000
1000
0100
0000
0100
0000
0010
0000
0001
0000
,
0100
0000
0010
0000
1000
0000
0001
0000
0011
0000
0000
0010
0100
0000
0000
0100
,
1000
0000
0000
1000
0010
0000
0000
0010
0100
0000
0100
0000
0001
0000
1000
0000
,
0100
0000
0010
0000
0001
0000
0100
0000
0110
0000
0000
0010
1000
0000
0000
1000
,
0001
0000
0000
0001
0010
0000
0000
0010
0100
0000
0000
0100
1000
0000
1000
0000
,
0010
0100
0001
1000
0100
0001
0100
1000
,
0010
0000
0100
0000
0001
0000
1000
0000
1100
0000
0000
1010
0000
0000
0101
0000
,
0011
0000
0000
1001
0000
0000
0110
0000
2002
0000
0000
0000
0000
0000
0000
0000
,
0000
0000
0000
0000
,
0000
0000
0003
0000
,
0000
0000
3020
0000
,
0130
0001
1001
0000
0000
1000
0100
0010
,
0001
0000
0001
0100
2010
0000
3200
0000
,
0302
0010
0013
1000
0000
1000
0100
0010
,
0001
0100
0010
1000
0000
0001
0010
0100
,
1000
0000
0001
0000
1001
0000
0000
0000
0110
0000
0000
0010
1000
0000
0100
0000
,
0110
0000
0000
0010
0001
0000
0100
0000
0010
0000
1000
0000
0100
0000
0010
0000
,
0001
0000
1000
0000
1001
0000
0000
0000
1010
0000
0000
0100
0001
0000
0010
0000
,
0011
0000
0000
0100
1000
0000
0010
0000
0100
0000
0001
0000
1000
0000
0100
0000
,
0010
0000
0001
0000
0101
0000
0000
0000
1100
0000
0000
1000
0100
0000
0010
0000
,
0011
0000
0000
0001
0100
0000
0010
0000
1000
0000
0001
0000
0010
0000
0100
0000
,
1000
0000
0010
0000
0110
0000
0000
0000
1001
0000
0000
0010
1000
0000
0001
0000
,
1001
0000
0000
0010
0001
0000
1000
0000
1100
0000
0000
0101
0000
0000
0011
0000
,
1010
0000
0000
1001
0000
0000
0110
0000
2002
0000
3003
0000
1000
0000
0100
0000
,
0010
0001
0100
0010
1000
0001
0011
0010
,
0110
0100
1100
1000
1001
0000
0001
0100
,
0010
1000
0100
0010
0001
0100
0101
0001
,
1001
1000
1010
0010
0110
0000
0100
0001
,
1000
0010
0001
0010
0100
1000
1100
0100
,
0101
0001
0011
0010
1010
0000
1000
0010
,
0001
0000
0100
0000
0010
0000
1000
0000
1001
0000
0000
0011
0000
0000
0101
0000
,
1100
0000
0000
1010
0000
0000
0110
0000
1002
0000
0000
0000
1000
0000
0000
0000
,
1000
0000
1000
0000
1000
1003
0100
0010
,
0001
0100
0010
1000
0001
0010
0100
2000
,
0000
0000
0000
3020
0000
0130
0001
1000
,
0100
0000
0010
0100
0010
0000
0001
0000
1001
0000
0000
0000
0000
0000
0000
0000
;

//---------------dance-double - ----------------
#NOTEDATA:;
#CHARTNAME:;
#STEPSTYPE:dance-double;
#DESCRIPTION:;
#CHARTSTYLE:;
#DIFFICULTY:Easy;
#METER:4;
#RADARVALUES:0.144210,0.209427,0.060267,0.037667,0.000000,134.000000,126.000000,8.000000,5.000000,0.000000,0.000000,0.000000,0.000000,0.000000,0.144210,0.209427,0.060267,0.037667,0.000000,134.000000,126.000000,8.000000,5.000000,0.000000,0.000000,0.000000,0.000000,0.000000;
#CREDIT:MILEN;
#NOTES:
00000000
00000000
00000000
00000000
,
00000000
00000000
00000000
00000000
,
00000000
00000000
00000000
00000000
,
00000000
00000000
00000000
00000000
,
00000000
00000000
00000000
00000000
,
00000000
00000000
00000000
00000000
,
00001000
00000000
00001000
00000000
,
00010000
00000000
00010000
00000000
,
00001000
00000000
00010000
00000000
,
00001000
00000000
00010000
00011000
,
00001000
00000000
00100000
00000000
,
00010000
00000000
01000000
00000000
,
00001000
00000000
00100000
00000000
,
00010000
00000000
01000000
00000000
,
00001000
00000000
00010000
00000000
,
00000100
00000000
00001000
00000000
,
00000010
00000000
00010000
00000000
,
00000100
00000000
00001000
00000000
,
00000010
00000000
00000100
00000000
,
00000001
00000000
00001000
00000000
,
00000100
00000000
00010000
00000000
,
00001000
00000000
00100000
00000000
,
00010000
00000000
10000000
00000000
,
10010000
00000000
00000000
00010000
,
00010000
00000000
00001000
00000000
,
00000001
00000001
00000100
00000000
,
00001000
00000000
00010000
00000000
,
01000000
00000000
00010000
00000000
,
00001000
00000000
00000010
00000000
,
00001000
00000000
00010000
00000000
,
00100000
00000000
00010000
00000000
,
00001000
00000000
00000100
00000000
,
00001000
00000000
00010000
00000000
,
00100000
00000000
10000000
00000000
,
01000000
00000000
00100000
00000000
,
00010000
00000000
00001000
00000000
,
00000010
00000000
00000100
00000000
,
00000001
00000000
00000010
00000000
,
00000100
00000000
00001000
00000000
,
00010000
00000000
01000000
00000000
,
00100000
00000000
10000000
00000000
,
00010000
00000000
02200000
00000000
,
00000000
00000000
00000000
00000000
,
00000000
00000000
03300000
00000000
,
00000000
00000000
02000000
00000000
,
03000000
00010000
00000000
00001000
,
00011000
00000000
00000010
00000000
,
00000001
00000000
00000100
00000000
,
00001000
00000000
00010000
00000000
,
00001000
00011000
00010000
00000000
,
01000000
00000000
10000000
00000000
,
00100000
00000000
00010000
00000000
,
00001000
00000000
00000010
00000000
,
00000001
00000000
00000100
00000000
,
00001000
00000000
00010000
00000000
,
00100000
00000000
10000000
00000000
,
01000000
00000000
00010000
00000000
,
00011000
00000100
00000100
00000000
,
00000010
00000000
00000001
00000000
,
00001000
00000000
00000010
00000000
,
00010000
00000000
00001000
00000000
,
00100000
00000000
00010000
00000000
,
10000000
00000000
00100000
00000000
,
01000000
00000000
00001000
00000000
,
00010000
00000000
00000100
00000000
,
00001000
00000000
00002002
00000000
,
00000000
00000000
00000000
00000000
,
00000000
00003003
00000001
00001000
,
00000001
00000000
00000100
00000000
,
00001000
00010000
00011000
00000000
;

//---------------dance-double - ----------------
#NOTEDATA:;
#CHARTNAME:;
#STEPSTYPE:dance-double;
#DESCRIPTION:;
#CHARTSTYLE:;
#DIFFICULTY:Medium;
#METER:7;
#RADARVALUES:0.264744,0.366498,0.188334,0.120534,0.000000,246.000000,221.000000,25.000000,16.000000,0.000000,0.000000,0.000000,0.000000,0.000000,0.264744,0.366498,0.188334,0.120534,0.000000,246.000000,221.000000,25.000000,16.000000,0.000000,0.000000,0.000000,0.000000,0.000000;
#CREDIT:MILEN;
#NOTES:
00000000
00000000
00000000
00000000
,
00000000
00000000
00000000
00000000
,
00000000
00000000
00000000
00000000
,
00000000
00000000
00000000
00000000
,
00000000
00000000
00000000
00000000
,
00000000
00000000
00000000
00000000
,
00001000
00001000
00001000
00000000
,
00010000
00010000
00010000
00000000
,
00001000
00001000
00010000
00010000
,
00001000
00010000
00001000
00022000
,
00033000
00010000
00000100
00010000
,
00001000
00010000
00000010
00000010
,
00000000
00001000
00100000
00001000
,
00010000
00001000
01000000
01000000
,
00000000
00010000
00000100
00001000
,
00000010
00010000
00001000
00100000
,
00010000
01000000
00001000
00010000
,
00011000
00001000
00000010
00000002
,
00000103
00001000
00000100
00001000
,
00010000
00100000
00010000
00100000
,
10000000
01000000
10000000
01000000
,
00010000
00001000
00010000
00001000
,
00000020
00000000
00000032
00000000
,
00000203
00000000
00000000
00002300
,
00020000
00000000
00000000
00000000
,
00033000
00011000
00010000
01000000
,
11000000
10000000
00100000
01000000
,
10000000
01000000
00010000
00100000
,
01100000
01000000
00010000
00001000
,
00000010
00000001
00000100
00000010
,
00001000
00000100
00000010
00000011
,
00000001
00000100
00001000
00010000
,
00100000
20000000
31000000
00010000
,
00001000
00010000
00011000
00001000
,
00000100
00000010
00000100
00001000
,
00000100
00000001
00001001
00001000
,
00000100
00010000
00001000
00100000
,
00010000
10000000
10010000
00010000
,
01000000
10000000
01000000
00010000
,
01000000
00100000
00020000
00030010
,
00002000
00103000
00011000
01001000
,
00011000
00010100
00022000
00000000
,
00000000
00000000
00000000
00000000
,
00000000
00000000
00030000
00000000
,
00000000
00000000
00000000
00000000
,
00003000
00011000
00000000
00010000
,
00100000
10000000
01000000
00100000
,
00001000
00001000
00000000
00010000
,
00000100
00000110
00000000
00000001
,
00000100
00002000
00013000
01000000
,
00010000
01000000
10000000
00100000
,
10000000
00100000
00010000
00001000
,
00010000
00001000
00000100
00000001
,
00000100
00000001
00000010
00001000
,
00000010
00001000
00010000
00001000
,
00010000
00100000
10000000
01000000
,
00010000
00001000
00000010
00000001
,
00000100
00001000
00011000
00001000
,
00000100
00000101
00000001
00000010
,
00000100
00000001
00000100
00001000
,
00000010
00000110
00000100
00001000
,
00010000
00100000
10000000
01000000
,
00100000
00010000
01000000
00100000
,
10100000
10000000
01000000
00010000
,
00001000
00000010
00000101
00001000
,
00010100
00100000
20020000
00000000
,
00000000
00000000
30000000
10000000
,
10000000
10030000
01000000
00010000
,
00001000
00000010
00000001
00000101
,
00001000
00010000
11000000
00000000
;

//---------------dance-double - ----------------
#NOTEDATA:;
#CHARTNAME:;
#STEPSTYPE:dance-double;
#DESCRIPTION:;
#CHARTSTYLE:;
#DIFFICULTY:Hard;
#METER:10;
#RADARVALUES:0.361601,0.418854,0.316401,0.150667,0.022600,336.000000,294.000000,42.000000,20.000000,0.000000,0.000000,0.000000,0.000000,0.000000,0.361601,0.418854,0.316401,0.150667,0.022600,336.000000,294.000000,42.000000,20.000000,0.000000,0.000000,0.000000,0.000000,0.000000;
#CREDIT:MILEN;
#NOTES:
00000000
00000000
00000000
00000000
,
00000000
00000000
00000000
00000000
,
00000000
00000000
00000000
00000000
,
00000000
00000000
00000000
00000000
,
00000000
00000000
00000000
00000000
,
00000000
00000000
00000000
00000000
,
00001000
00100000
01000000
00000000
,
00100000
00001000
00010000
00000000
,
00010000
00000100
00000010
00000000
,
00000100
00010000
00001000
00022000
,
00033000
00000000
00010000
00100000
00010000
00000000
00001000
00000000
,
00000010
00000001
00000100
00001000
,
00010000
00000000
00001000
00000010
00001000
00000000
00010000
00000000
,
00100000
10000000
01000000
00010000
,
00001000
00000100
00001000
00000000
00010000
01000000
00010000
00000000
,
00001000
00000010
00000001
00000100
,
00001000
00010000
00100000
10000000
,
11000000
00000000
01000000
00100000
00001000
00010000
00000100
00000010
,
00000001
00000000
00000100
00001000
00010000
00000000
00001000
00000100
,
00000010
00000000
00000100
00001000
00010000
00000000
00001000
00000000
,
00011000
00000000
00010000
00100000
01000000
00000000
00100000
00010000
,
00001000
00000000
00010000
00100000
01000000
00000000
00100000
00000000
,
20100000
00000000
00000000
30020000
00000000
00000000
01000000
02030000
,
00000000
00000000
00000000
00000000
00000000
00000000
00001000
03002000
,
00000000
00000000
00000000
00023000
00000000
00030200
00000000
00000320
,
00000000
00000031
00000101
00001100
,
00000101
00000000
00000001
00000000
00000010
00000000
00000100
00010000
,
00001000
00100000
01000000
00000000
11000000
00000000
01010000
00000000
,
11000000
00000000
10000000
00000000
00100000
00000000
01000000
00001000
,
00010000
00000100
00000010
00000000
00000011
00000000
00001010
00000000
,
00000011
00000000
00000001
00000100
00000000
00000100
00002000
00000000
,
00013000
00001000
00000010
00000000
00001000
00010000
00100000
00000000
,
10000000
01000000
00100000
00000000
00010000
01000000
00001000
00010000
,
00000100
00000010
00000001
00001000
00000100
00000000
00010000
00000000
,
00001000
00100000
01000000
11000000
,
10100000
01010000
00110000
00100000
,
01000000
00010000
00001000
00101000
,
00010100
01001000
00010010
00000010
,
00001000
00000100
00000010
00000001
,
00000100
00001000
00010000
00100000
20000000
00000000
32000000
00000000
,
03200000
00000000
00000000
00000000
00310000
00000000
00000000
00000000
00010000
00000000
00000000
01000000
00000000
00000000
00001000
00000000
,
00010000
00000000
00000000
00000010
00000000
00000000
00001000
00000000
00002002
00000000
00000000
00000000
00000000
00000000
00000000
00000000
,
00000000
00000000
00000000
00000000
,
00000000
00000000
00003000
00000000
,
00000000
00000000
00000203
00000000
,
00000310
00010000
00011000
00000000
00000000
00100000
00010000
00000000
,
01000000
10000000
01000000
00010000
,
00100000
01000000
00010000
00001000
00000000
00010000
00001000
00000010
,
00000001
00000100
00000100
00000010
00000000
00001000
00000100
00010000
,
00001000
00010000
00011000
00000000
00001000
00010000
01000000
00000000
,
00010000
00001000
00000100
00000000
00001000
00010000
00100000
00000000
,
00010000
00001000
00000010
00000000
00000001
00000100
00000010
00000000
,
00001000
00000100
00010000
00000000
00001000
00100000
00010000
00000000
,
01000000
00100000
10000000
00000000
01000000
00100000
00010000
00000000
,
00100000
00010000
00001000
00000000
00010000
00001000
00000100
00000000
,
00001000
00000100
00000010
00000000
00000001
00000100
00000010
00001000
,
00000001
00000000
00000100
00000000
00000010
00000000
00001000
00000000
00001000
00000000
00000000
00000100
00000000
00000000
00010000
00000000
,
00001000
00000000
00000000
00100000
00000000
00000000
01000000
00000000
01100000
00000000
00000000
00000000
11000000
00000000
00000000
00000000
,
01010000
00000000
11000000
00000000
10010000
00000000
00010000
01000000
,
00001000
00010000
00000100
00000000
00000010
00000000
00000011
00000000
,
00001010
00000000
00000011
00000000
00001001
00000000
00001000
00000100
,
00010000
00001000
01000000
00000000
00100000
00000000
10100000
00000000
,
11000000
00000000
00110000
00000000
01010000
00000000
01000000
00001000
,
00010000
00000100
00000010
00000000
00000001
00000000
00000101
00000000
,
00010010
00000000
00000000
00000000
00101000
00000000
00000000
00000000
00100000
00000000
00000000
01000000
00000000
00000000
10000000
00000000
,
00100000
00000000
00000000
00010000
00000000
00000000
00001000
00000000
00022000
00000000
00000000
00000000
00000000
00000000
00000000
00000000
,
00000000
00000000
00000000
00000000
,
00000000
00003000
00000010
00030010
,
00000020
00000000
00000000
00000230
00000000
00000301
00000010
00000100
,
00001000
00010000
01000000
00100000
10100000
00000000
00000000
00000000
;

//---------------dance-double - ----------------
#NOTEDATA:;
#CHARTNAME:;
#STEPSTYPE:dance-double;
#DESCRIPTION:;
#CHARTSTYLE:;
#DIFFICULTY:Challenge;
#METER:13;
#RADARVALUES:0.507963,0.575925,0.482135,0.210934,0.207167,472.000000,408.000000,64.000000,28.000000,0.000000,0.000000,0.000000,0.000000,0.000000,0.507963,0.575925,0.482135,0.210934,0.207167,472.000000,408.000000,64.000000,28.000000,0.000000,0.000000,0.000000,0.000000,0.000000;
#CREDIT:MILEN;
#NOTES:
00000000
00000000
00000000
00000000
,
00000000
00000000
00000000
00000000
,
00000000
00000000
00000000
00000000
,
00000000
00000000
00000000
00000000
,
00000000
00000000
00000000
00000000
,
00000000
00000000
00000000
00000000
,
00000000
00001000
00010000
00100000
10000000
01000000
00100000
00010000
,
00000000
00010000
00001000
00000100
00000001
00000010
00000100
00001000
,
00000000
00001000
00010000
00100000
10000000
01000000
00100000
00010000
,
00000000
01010000
00000000
00011000
00000000
00001010
00000020
00000000
,
00000130
00000001
00000010
00000100
00010000
00000000
01000000
10000000
,
10200000
00320000
00032000
00003020
,
00000000
00000031
00000100
00000010
00010000
00000000
00001000
00100000
,
02100000
23000000
30200000
00320000
,
00000000
00031000
00100000
01000000
11000000
00000000
10000000
00100000
,
02100000
00000000
03002000
00000000
00013000
00000100
00000010
00000011
,
00000000
00000001
00000100
00001000
00000100
00000010
00010000
00011000
,
00000000
00001000
00100000
01000000
10000000
00100000
00010000
00001000
,
00011000
00000000
00000000
00010000
00000100
00000000
00000000
00000100
00000010
00000000
00000000
00000010
00000001
00000000
00000000
00000001
,
00001000
00000000
00000000
00001000
00000010
00000000
00000000
00000010
00010000
00000000
00000000
00010000
00001000
00000000
00000000
00001000
,
00100000
00000000
00000000
00100000
01000000
00000000
00000000
01000000
10000000
00000000
00000000
10000000
00100000
00000000
00000000
00100000
,
00010000
00000000
00000000
00010000
00001000
00000000
00000010
00000000
00001000
00000000
00010000
00000000
00100000
00000000
00010000
00000000
,
00002000
00000000
00000000
00003020
00000000
00000000
00000001
00000032
,
00000000
00000000
00000000
00000000
00000000
00000000
00000100
00000203
,
00000000
00000000
00000000
00002300
00000000
00000000
00000000
00000000
,
00000000
00013000
00010100
01001000
,
00010100
00000000
00000100
00000010
00000001
00001000
00000010
00000001
,
00000010
00000100
00001000
00010000
00010010
00000000
00101000
00000000
,
00010010
00010000
00001000
00100000
01000000
00010000
01000000
10000000
,
00100000
00010000
00001000
00100000
00110000
00000000
11000000
00000000
,
10010000
00000000
01100000
01100000
00000000
10000000
02000000
00000000
,
03010000
00001000
00000010
00001000
00010000
00100000
00010000
00001000
,
00000100
00001000
00010000
02000000
00000000
03100000
00100000
00001000
,
00001000
00000000
00010000
00000000
00010000
00000000
00000010
00000000
00000110
00000000
00000000
00000000
00000100
00000000
00000001
00000100
,
00000001
00000000
00000100
00001000
00000100
00000000
00001000
00010000
00001000
00000000
00001000
00000000
00100000
00000000
01000000
00000000
,
10000000
00000000
00100000
00000000
00010000
00000000
00100000
00000000
01100000
00000000
00000000
00000000
01000000
00000000
00100000
10000000
,
00100000
00000000
10000000
01000000
10000000
00000000
01000000
00010000
01000000
00000000
01000000
00000000
00100000
00000000
00001000
00000000
,
00010000
00000000
00000100
00000000
00000010
00000000
00000001
00000000
00000101
00000000
00000000
00000000
00000100
00000000
00000010
00001000
,
00000010
00000000
00010000
00001000
00010000
00000000
00001000
00100000
00001000
00000000
00001000
00000000
00010000
00000000
01000000
00000000
,
10000000
00100000
01000000
10000000
01000000
00010000
00100000
01000000
,
00010000
00000000
00001000
00000000
00000010
00000000
00000001
00000000
00000101
00000000
00000000
00001100
00000000
00000000
00011000
00000000
,
00110000
00000000
00000000
10100000
00000000
00000000
11000000
00000000
02200000
00000000
00000000
00000000
00000000
00000000
00000000
00000000
,
00000000
00000000
00000000
00000000
,
00000000
00000000
03000000
00000000
,
00000000
00000000
00302000
00000000
,
00003010
00000001
00000101
00000000
00000000
00001000
00000100
00000010
,
00001000
00000000
00010000
01000000
21000000
00000000
30200000
00000000
,
00310000
00100000
01000000
00010000
00000000
00010000
00001000
00000010
,
00000100
00000001
00000010
00000110
00000000
00000001
00000100
00001000
,
00010000
00000000
00001000
00000000
01001000
00000000
00000000
00000000
00010100
00000000
00000000
00000100
00001000
00000000
00000000
00001000
,
00000010
00000000
00000000
00000010
00000100
00000000
00000000
00000100
00001000
00000000
00000000
00001000
00000100
00000000
00000000
00000100
,
00000001
00000000
00000000
00000001
00000010
00000000
00000000
00000010
00001000
00000000
00000000
00001000
00010000
00000000
00000000
00010000
,
01000000
00000000
00000000
01000000
10000000
00000000
00000000
10000000
00100000
00000000
00000000
00100000
00010000
00000000
00000000
00010000
,
00100000
00000000
00000000
00100000
01000000
00000000
00000000
01000000
00001000
00000000
00000000
00001000
00010000
00000000
00000000
00010000
,
00000100
00000000
00000000
00000100
00000010
00000000
00000000
00000010
00001000
00000000
00000000
00001000
00010000
00000000
00000000
00010000
,
01000000
00000000
00000000
01000000
10000000
00000000
00000000
10000000
00100000
00000000
00000000
00100000
01000000
00000000
00000000
01000000
,
00010000
00000000
00000000
00010000
00001000
00000000
00000010
00000000
00000110
00000000
00000000
00000101
00000000
00000000
00001100
00000000
,
00011000
00000000
00000000
01010000
00000000
00000000
01100000
00000000
20020000
00000000
30030000
00000000
10000000
00000000
01000000
00000000
,
00100000
00010000
01000000
00001000
00010000
00000100
00001100
00000010
,
00000101
00001000
00001100
00000010
00000101
00000000
00000001
00000010
,
00000100
00001000
00000010
00010000
00001000
00100000
00110000
01000000
,
10100000
00010000
00110000
01000000
10100000
00000000
10000000
01000000
,
00100000
00010000
01000000
00001000
00010000
00000100
00001100
00000010
,
00010010
00100000
00101000
00010000
01010000
00000000
01000000
00100000
,
00010000
00000000
00001000
00000000
00000100
00000000
00000010
00000000
00000110
00000000
00000000
00001001
00000000
00000000
00010100
00000000
,
01001000
00000000
00000000
10010000
00000000
00000000
01100000
00000000
12000000
00000000
00000000
00000000
00010000
00000000
00000000
00000000
,
00001000
00000000
00010000
00000000
13000000
01000000
00100000
00010000
,
00001000
00000010
00000100
00001000
00000010
00000100
00000001
00001002
,
00000000
00000000
00000000
00000023
00000000
00001030
00010000
01000000
,
10000000
00100000
00010000
00001000
00011000
00000000
00000000
00000000
;
