#TITLE:What Do You Really Want;
#SUBTITLE:;
#ARTIST:Crash;
#TITLETRANSLIT:;
#SUBTITLETRANSLIT:;
#ARTISTTRANSLIT:;
#GENRE:K-POP;
#CREDIT:MUINELIM;
#BANNER:What Do You Really Want.png;
#BACKGROUND:What Do You Really Want-bg.PNG;
#LYRICSPATH:;
#CDTITLE:;
#MUSIC:What Do You Really Want.MP3;
#OFFSET:-1.312000;
#SAMPLESTART:40.550453;
#SAMPLELENGTH:12.000000;
#SELECTABLE:YES;
#BPMS:0.000000=110
;
#STOPS:
;
#BGCHANGES:;
#KEYSOUNDS:;
#ATTACKS:;

//---------------dance-single - ----------------
#NOTES:
     dance-single:
     :
     Hard:
     13:
     0.564894,0.592683,0.262322,0.000000,0.461492,407.000000,380.000000,27.000000,0.000000,0.000000,0.000000,0.564894,0.592683,0.262322,0.000000,0.461492,407.000000,380.000000,27.000000,0.000000,0.000000,0.000000:
0000
0000
0000
0000
,
0000
0000
0000
0000
,
1001
0000
0000
0000
,
0100
0100
0000
0000
0000
0000
0000
0000
0010
1000
0010
1000
0010
1000
0010
1000
,
0001
0000
0001
0000
0010
0001
0000
0000
1000
0000
1000
0000
0010
1000
0000
0000
,
0100
0010
0001
0100
1000
0010
0100
0110
,
1000
0000
1000
0000
0010
1000
0000
0000
0001
0000
0001
0000
0010
0001
0000
0000
,
0100
0000
0010
0000
1000
0000
0100
0000
0001
0000
0010
0000
0100
0010
0100
0000
,
1000
0000
1000
0000
0001
0100
0000
0000
0001
0000
0001
0000
1000
0010
0000
0000
,
0001
0010
0100
1000
0010
0001
0100
0010
,
0001
0000
0001
0000
0010
0100
0010
0000
1000
0000
1000
0000
0100
0010
0100
0000
,
1001
0000
0000
0000
0000
0000
0000
0000
0010
0100
0001
1000
0010
0000
0010
0000
,
0011
0000
0001
0010
0100
0000
1000
0000
0010
0000
0100
0000
0001
0000
1001
0000
,
0000
0000
1000
0000
0010
0100
0000
0100
0001
0000
1000
0000
0001
0000
0010
0000
,
0010
0000
1000
0100
0010
0000
0001
0000
0100
0000
0010
0000
1000
0000
1001
0000
,
0000
0000
0001
0000
0100
0010
0000
0010
1000
0000
0001
0000
1000
0000
0100
0000
,
0110
0000
0010
0100
1000
0000
0010
0000
0001
0000
1000
0000
0100
0000
0001
0000
,
0010
0000
0100
0000
1000
0010
0000
0010
0001
0100
0001
0000
1000
0010
1000
0000
,
0001
0000
0010
0100
1000
0000
0001
0000
0001
0000
0010
0100
1000
0000
0110
0000
,
0000
0000
0010
0001
0100
0000
0100
0000
1000
0100
0010
0001
0010
0000
1100
0000
,
0000
0000
0000
0000
1010
0000
0010
0100
0001
1000
0010
0000
0100
0000
0110
0000
,
1000
0100
0010
0000
0001
0100
0010
0000
1000
0001
1000
0001
0100
0000
0100
0000
,
1000
0010
0100
0000
0001
0010
0100
0000
1000
0001
1000
0001
0010
0000
0010
0000
,
0100
0010
0001
0000
1000
0100
0010
0000
0001
0100
0010
0100
0001
0100
0010
0100
,
0001
0010
1000
0100
0010
1001
0000
0000
,
1000
0010
0100
0000
0001
0010
0100
0000
1000
0010
0100
0000
0001
0010
0100
0000
,
1100
0010
0001
0100
1000
0011
0000
0000
,
0001
1000
0001
0000
0100
0000
1000
0000
0001
1000
0001
0000
0100
0000
1010
0000
,
1000
0001
1000
0000
0010
0000
0001
0000
1000
0001
1000
0000
0010
0000
0101
0000
,
0000
0000
0001
0010
0100
0000
0010
0000
0001
0100
0001
0010
0001
0100
1000
0000
,
0000
0000
0100
0000
0010
0000
0110
0000
1000
0010
0000
0001
0100
0000
1000
0000
,
0001
0000
0100
0001
0000
0100
0010
0000
0100
0001
0000
0100
0010
0000
1010
0000
,
1000
0100
0010
0000
0100
0100
0000
0010
0000
0001
0010
0100
1100
0000
1100
0000
,
0000
0000
1000
0010
0100
0000
1000
0000
0100
0000
0001
0000
0011
0010
0100
0000
,
0010
0000
0001
0000
0010
0000
1000
0000
0010
0100
0000
0010
0001
0010
0100
0000
,
0110
0000
1000
0010
0001
0000
0000
0000
0000
0000
0000
0000
0100
0000
0000
0000
,
0000
0000
1000
0010
1000
0000
0100
0000
0100
0000
0001
0000
0010
0000
0100
0000
,
0110
0000
0001
0100
1000
0000
0000
0000
0000
0000
0000
0000
0010
0000
0000
0000
,
0000
0000
0001
0100
0001
0000
0010
0000
0010
0000
1000
0000
0100
0000
0010
0000
,
0110
0000
0000
0000
1001
0000
1000
0000
0010
0100
0001
1000
0010
0100
0010
0000
,
0001
0000
0001
0000
0100
1000
0000
0100
0001
0000
0100
0000
0010
0000
1000
0000
,
0001
0000
0010
0000
0100
0001
0000
0100
1000
0000
0100
0000
0010
0000
0001
0000
,
1000
0000
0010
0000
0100
0001
0000
0010
1000
0000
0100
0000
0010
0000
0100
0000
,
0001
0000
1000
0000
0010
0100
0010
0000
1000
0100
0010
0001
0010
0100
0010
0000
,
0110
0000
0000
0000
,
0001
1000
0001
1001
0000
0000
0000
0000
0000
0000
0000
0000
0000
0000
0000
0000
;

//---------------dance-single - ----------------
#NOTES:
     dance-single:
     :
     Medium:
     9:
     0.359478,0.371623,0.126303,0.000000,0.000000,259.000000,246.000000,13.000000,0.000000,0.000000,0.000000,0.359478,0.371623,0.126303,0.000000,0.000000,259.000000,246.000000,13.000000,0.000000,0.000000,0.000000:
0000
0000
0000
0000
,
0000
0000
0000
0000
,
0000
0000
0000
0000
,
1001
0000
0000
0000
0010
0010
0010
0010
,
0100
0001
0100
0000
0010
1000
0010
0000
,
0100
0001
1000
0010
0100
0000
1001
0000
,
0010
1000
0010
0000
0100
0001
0100
0000
,
0010
1000
0001
0100
0010
0000
1001
0000
,
1000
0100
0010
0000
0001
0010
0100
0000
,
1000
0100
0010
0001
0010
0100
0010
0000
,
1001
1000
0100
0000
1001
0001
0100
0000
,
0110
0000
0000
0000
0010
0010
0010
0010
,
1000
0100
0010
0000
1000
0100
0001
0001
,
0000
0000
1000
0000
0010
0100
0010
0000
,
0001
0010
0100
0000
0001
0010
1000
1000
,
0000
0000
0001
0000
0100
0010
0100
0000
,
1000
0010
0001
0000
0001
0100
1000
0000
,
0010
0000
0100
0000
0010
1000
0001
0100
,
0000
1000
1000
0000
0001
0010
0100
1000
,
0000
0001
0001
0000
1000
0100
0010
0001
,
0000
0000
1001
0000
0010
0100
0010
0100
,
0001
0001
1000
1000
0100
0100
0010
0000
,
0001
0001
1000
1000
0010
0010
0100
0000
,
0001
0001
0100
0100
1000
1000
0010
0010
,
0001
0100
1000
0010
0001
1001
0000
0000
,
1000
0010
0100
0001
1000
0010
0100
0100
,
0001
0010
1000
0100
0001
0010
0000
0000
,
1000
0100
0010
0000
1000
0100
0001
0000
,
0001
0010
0100
0000
0001
0010
1000
0000
,
1000
0100
0010
0100
0001
1000
0010
0000
,
0001
0010
0100
0010
1000
0001
0100
0000
,
1000
1000
0010
0001
1000
1000
0010
0001
,
0100
1000
0001
0001
0100
1000
0001
0001
,
0000
1000
0100
0010
0001
0100
0010
0010
,
1000
0001
0010
0100
1000
0010
0100
0010
,
1001
0100
0000
0100
,
0000
0010
0000
0010
,
1001
0100
0000
0100
,
0000
0010
0000
0010
,
1001
1000
0010
0001
,
0100
1000
0100
0000
0010
0001
0010
0000
,
0100
0010
0001
1000
0100
0010
0010
0000
,
0001
0010
0100
0001
1000
0010
0100
1000
,
0001
0100
1000
0000
1000
0010
0001
0000
,
1001
0000
0000
0000
,
1001
0000
0000
0000
;

//---------------dance-single - ----------------
#NOTES:
     dance-single:
     :
     Easy:
     6:
     0.265098,0.371623,0.252606,0.000000,0.000000,191.000000,165.000000,26.000000,0.000000,0.000000,0.000000,0.265098,0.371623,0.252606,0.000000,0.000000,191.000000,165.000000,26.000000,0.000000,0.000000,0.000000:
0000
0000
0000
0000
,
0000
0000
0000
0000
,
0000
0000
0000
0000
,
1001
0000
0010
0010
,
1000
0100
0001
0010
,
1000
0100
0010
0000
,
0001
0010
1000
0100
,
0001
0010
0100
0000
,
1000
0010
0001
0100
,
1000
0010
0100
0000
,
0001
0100
1000
0010
,
0001
0000
0100
0000
0010
0010
0010
0000
,
1000
0000
0001
0000
1000
0001
1000
0000
,
0001
0001
1000
1000
,
0001
0000
1000
0000
0001
1000
0001
0000
,
1000
1000
0001
0001
,
0100
0000
0010
0000
0100
0010
0100
0000
,
0010
0000
0010
0000
0100
0100
0100
0000
,
0110
1001
0100
0010
,
0110
0000
1001
0000
0010
0000
0100
0100
,
0000
0010
0010
0010
,
1000
1100
0100
0101
,
0001
0011
0010
1010
,
1100
0101
0011
1010
,
1100
0000
0101
0000
0010
0010
0000
0000
,
0011
0101
1100
1010
,
0011
0000
0101
0000
1000
1000
0000
0000
,
0010
0100
0001
0100
,
1000
0100
0001
0100
,
0010
1000
0010
0001
,
0010
1000
0010
0100
,
0001
0001
1000
1000
,
0001
0000
0100
0000
1000
0000
0010
0010
,
0000
0000
0001
0000
1000
0000
0010
0100
,
0010
1000
0001
0100
,
0110
0000
0000
0000
,
0000
0010
1000
0001
,
0110
0000
0000
0000
,
0000
0100
0001
1000
,
0110
0001
1000
0010
,
0001
0100
0001
0000
1000
0000
0001
0000
,
1000
0100
1000
0000
0001
0000
1000
0000
,
0010
0100
0010
0000
0100
0010
0100
0000
,
0010
0000
0010
0000
0001
0100
1000
0000
,
1001
0000
0000
0000
,
1001
0000
0000
0000
;

//---------------dance-single - ----------------
#NOTES:
     dance-single:
     :
     Beginner:
     2:
     0.099932,0.131161,0.038862,0.000000,0.000000,72.000000,68.000000,4.000000,0.000000,0.000000,0.000000,0.099932,0.131161,0.038862,0.000000,0.000000,72.000000,68.000000,4.000000,0.000000,0.000000,0.000000:
0000
0000
0000
0000
,
0000
0000
0000
0000
,
0000
0000
0000
0000
,
0100
0000
0100
0100
,
0100
0000
0100
0000
,
0100
0000
0000
0000
,
0010
0000
0010
0000
,
0010
0000
0000
0000
,
1000
0000
1000
0000
,
1000
0000
0000
0000
,
0001
0000
0001
0000
,
0001
0000
0000
0000
,
1000
0000
0010
0000
,
1000
0000
0000
0000
,
0001
0000
0100
0000
,
0001
0000
0000
0000
,
1000
0000
0001
0000
,
1000
0000
0010
0010
,
0010
0000
0000
0000
,
0010
0000
0000
0000
,
0010
0000
0000
0000
,
0010
0000
0100
0000
,
0001
0000
1000
0000
,
0010
0000
0010
0000
,
0010
0000
0001
0000
,
1000
0000
1000
0000
,
1000
0000
0100
0000
,
0001
0000
0000
0000
,
0010
0000
0000
0000
,
0100
0000
0000
0000
,
1000
0000
0000
0000
,
0010
0000
0010
0000
,
0010
0000
0010
0010
,
0000
0100
0000
0100
,
0000
0100
0100
0000
,
1001
0000
0000
0000
,
0000
0000
0000
0000
,
1001
0000
0000
0000
,
0000
0000
0000
0000
,
1000
0000
0001
0000
,
1000
0000
0001
0000
,
0010
0000
0100
0000
,
0010
0000
0100
0000
,
0010
0010
0000
0000
,
1001
0000
0000
0000
,
1001
0000
0000
0000
;

//---------------dance-double - ----------------
#NOTES:
     dance-double:
     :
     Hard:
     13:
     0.537135,0.548781,0.174881,0.000000,0.432345,387.000000,369.000000,18.000000,0.000000,0.000000,0.000000,0.537135,0.548781,0.174881,0.000000,0.432345,387.000000,369.000000,18.000000,0.000000,0.000000,0.000000:
00000000
00000000
00000000
00000000
,
00000000
00000000
00000000
00000000
,
00011000
00000000
00000000
00000000
,
00001000
00010000
00000000
00000000
00000000
00000000
00000000
00000000
00001000
00010000
00001000
00010000
00001000
00010000
00001000
00010000
,
00001000
00000000
00001000
00000000
01000000
00010000
00000000
00000000
00001000
00000000
00001000
00000000
01000000
00010000
00000000
00000000
,
00001000
00100000
01000000
00010000
00001000
00010000
00011000
00000000
,
00010000
00000000
00010000
00000000
00000100
00001000
00000000
00000000
00010000
00000000
00010000
00000000
00000100
00001000
00000000
00000000
,
00010000
00000000
00000010
00000000
00000100
00000000
00001000
00000000
00010000
00000000
00001000
00000000
01000000
00100000
01000000
00000000
,
00100000
00000000
00100000
00000000
10000000
01000000
00000000
00000000
00100000
00000000
00100000
00000000
10000000
01000000
00000000
00000000
,
00010000
00001000
00100000
00010000
00001000
00000010
00000110
00000000
,
00000100
00000000
00000100
00000000
00000001
00000010
00000000
00000000
00000100
00000000
00000100
00000000
00000001
00000010
00000000
00000000
,
00001001
00000000
00000000
00000000
00000000
00000000
00000000
00000000
00001000
00000100
00001000
00000100
00010000
00000000
00001000
00000000
,
00011000
00000000
00010000
00001000
00010000
00000000
01000000
00000000
10000000
00000000
01000000
00000000
00010000
00000000
00001000
00000000
,
00000000
00000000
00100000
00000000
01000000
00010000
00000000
00010000
00001000
00000000
00010000
00000000
01000000
00000000
00100000
00000000
,
00001000
00000000
00001000
00010000
00001000
00000000
00000100
00000000
00000001
00000000
00000100
00000000
00001000
00000000
00010000
00000000
,
00000000
00000000
00000100
00000000
00000010
00001000
00000000
00001000
00010000
00000000
01000000
00000000
01100000
00000000
00000000
00000000
,
10010000
00000000
01000000
00100000
01000000
00000000
00010000
00000000
00100000
00000000
01000000
00000000
00010000
00000000
00001000
00000000
,
00000010
00000000
00000100
00000000
00001000
00000001
00000000
00000100
00001000
00010000
00001000
00000000
00010000
00001000
00010000
00000000
,
00100000
00000000
10000000
01000000
10000000
00000000
00100000
00000000
00010000
00000000
00100000
01000000
00100000
00000000
00010000
00000000
,
00000000
00000000
00001000
00010000
00001000
00000000
00000100
00000000
00001000
00010000
00001000
00000000
00000100
00000000
00000001
00000000
,
00000000
00000000
00000000
00000000
00000011
00000000
00000010
00000100
00000010
00000100
00000010
00000000
00001000
00000000
00010000
00000000
,
01000000
10000000
01000000
00000000
00100000
00010000
00100000
00000000
00001000
00010000
00001000
00000000
00000010
00000000
00000001
00000000
,
00000100
00001000
00000100
00000000
00000010
00000001
00000010
00000000
00010000
00001000
00010000
00000000
01000000
00000000
10000000
00000000
,
00100000
01000000
00010000
00000000
00100000
00001000
00010000
00000000
00000100
00001000
00000010
00001000
00000010
00001000
00000001
00000000
,
00000100
00000100
00001000
00010000
00100000
10100000
00000000
00000000
,
10000000
01000000
00100000
00000000
01000000
00100000
00010000
00000000
00100000
00001000
00010000
00000000
00000100
00001000
00000100
00000000
,
00000110
00000001
00000100
00001000
00010000
00011000
00000000
00000000
,
00001000
00010000
00001000
00000000
01000000
00000000
00010000
00000000
00001000
00010000
00001000
00000000
01000000
00000000
00010000
00000000
,
00010000
00001000
00010000
00000000
00000100
00000000
00001000
00000000
00010000
00001000
00010000
00000000
00000100
00000000
00001000
00000000
,
00000000
00000000
00000100
00000010
00000100
00000000
00000001
00000000
00000010
00001000
00000010
00001000
00010000
00000000
11000000
00000000
,
00000000
00000000
10000000
00000000
00100000
00000000
01010000
00000000
00010000
00100000
00010000
00100000
00001000
00000000
00010000
00000000
,
00000100
00000000
00001000
00000010
00000000
00000010
00000100
00000000
00000100
00000001
00000000
00000001
00000010
00000000
00001000
00000000
,
00010000
00001000
00100000
00000000
00010000
00001000
00000000
00100000
00000000
01000000
10000000
01000000
00100000
00000000
01100000
00000000
,
00000000
00000000
10000000
01000000
00100000
00000000
01000000
00000000
00010000
00000000
00001000
00000000
00000010
00000100
00000010
00000000
,
00000001
00000000
00000100
00000000
00001000
00000000
00010000
00000000
00100000
10000000
00000000
00100000
01000000
00100000
00010000
00000000
,
00011000
00000000
00000100
00000010
00000001
00000000
00000000
00000000
00000000
00000000
00000000
00000000
00001000
00000000
00000000
00000000
,
00000000
00010000
01000000
00100000
10000000
01000000
00100000
00001000
,
00011000
00000000
00100000
01000000
10000000
00000000
00000000
00000000
00000000
00000000
00000000
00000000
00010000
00000000
00000000
00000000
,
00000000
00001000
00000010
00000100
00000001
00000010
00000100
00010000
,
00011000
00000000
00000000
00000000
00001000
00000000
00010000
00000000
00001000
00010000
00001000
00010000
00001000
00010000
00001000
00000000
,
00010000
00000000
00010000
00000000
01000000
10000000
00000000
10000000
00100000
00000000
00010000
00000000
00001000
00000000
00100000
00000000
,
01000000
00000000
00010000
00000000
00001000
00000010
00000000
00000010
00000001
00000000
00000100
00000000
00001000
00000000
00010000
00000000
,
00100000
00000000
10000000
00000000
01000000
00010000
00000000
00010000
00001000
00000000
00000100
00000000
00000010
00000000
00001000
00000000
,
00000001
00000000
00000100
00000000
00001000
00010000
00001000
00000000
00100000
00010000
00100000
01000000
10000000
01000000
00100000
00010000
,
00001000
00000000
00000000
00000000
,
00000010
00000001
00000000
00001100
00000000
00000000
00000000
00000000
00000000
00000000
00000000
00000000
00000000
00000000
00000000
00000000
;

//---------------dance-double - ----------------
#NOTES:
     dance-double:
     :
     Easy:
     7:
     0.262322,0.351706,0.252606,0.000000,0.000000,189.000000,163.000000,26.000000,0.000000,0.000000,0.000000,0.262322,0.351706,0.252606,0.000000,0.000000,189.000000,163.000000,26.000000,0.000000,0.000000,0.000000:
00000000
00000000
00000000
00000000
,
00000000
00000000
00000000
00000000
,
00000000
00000000
00000000
00000000
,
00011000
00000000
00001000
00001000
,
00010000
00100000
10000000
01000000
,
00010000
00100000
10000000
00000000
,
10000000
01000000
00010000
00100000
,
10000000
01000000
00010000
00000000
,
00001000
00000010
00000001
00000100
,
00001000
00000010
00000001
00000000
,
00000001
00000100
00001000
00000010
,
00000001
00000000
00000100
00000000
00000010
00000010
00000010
00000000
,
00001001
00000001
00000100
00001000
,
00010000
00000000
00010000
00000000
00100000
01000000
00100000
00000000
,
10010000
10000000
01000000
00010000
,
00001000
00000000
00001000
00000000
00000010
00000100
00000010
00000000
,
00001001
00000001
00000100
00001000
,
00010000
00100000
10000000
01000000
,
01100000
10010000
00010000
00001000
,
00000110
00001001
00001000
00010000
,
00000000
00100000
00100000
00100000
,
10000000
11000000
01000000
01010000
,
00010000
00011000
00001000
00001010
,
00000010
00000011
00000001
00000101
,
00000100
00000000
00001100
00000000
00010000
00010000
00000000
00000000
,
00110000
10100000
11000000
01010000
,
00011000
00000000
00001010
00000000
00000001
00000001
00000000
00000000
,
00001000
00000100
00000010
00001000
,
00010000
01000000
00100000
00001000
,
00010000
00000100
00000010
00001000
,
00010000
01000000
00100000
00010000
,
10000000
01000000
00010000
00001000
,
00000010
00000000
00000001
00000000
00000100
00000000
00001000
00001000
,
00000000
00000000
00010000
00000000
00100000
00000000
10000000
01000000
,
10000000
00100000
00010000
00001000
,
00011000
00000000
00000000
00000000
,
00000000
00100000
01000000
00010000
,
00011000
00000000
00000000
00000000
,
00000000
00000100
00000010
00001000
,
00011000
00010000
00100000
10000000
,
01000000
00100000
01000000
00000000
00010000
00000000
00001000
00000000
,
00000010
00000100
00000010
00000000
00000001
00000000
00000100
00000000
,
00001000
00010000
00001000
00000000
00010000
00001000
00010000
00000000
,
00100000
10000000
01000000
00010000
,
00011000
00000000
00000000
00000000
,
00001000
00010000
00011000
00000000
00000000
00000000
00000000
00000000
;

//---------------dance-double - ----------------
#NOTES:
     dance-double:
     :
     Medium:
     11:
     0.371970,0.373687,0.204028,0.000000,0.000000,268.000000,247.000000,21.000000,0.000000,0.000000,0.000000,0.371970,0.373687,0.204028,0.000000,0.000000,268.000000,247.000000,21.000000,0.000000,0.000000,0.000000:
// measure 0
00000000
00000000
00000000
00000000
,  // measure 1
00000000
00000000
00000000
00000000
,  // measure 2
00000000
00000000
00000000
00000000
,  // measure 3
00011000
00000000
00000000
00000000
00010000
00001000
00010000
00001000
,  // measure 4
00010000
01000000
10000000
00000000
10000000
00100000
00010000
00000000
,  // measure 5
00100000
00010000
00001000
00010000
01000000
00000000
00011000
00000000
,  // measure 6
00001000
00000100
00000001
00000000
00000001
00000010
00001000
00000000
,  // measure 7
00000010
00001000
00010000
00001000
00000100
00000000
00011000
00000000
,  // measure 8
00010000
00100000
10000000
00000000
10000000
01000000
00010000
00000000
,  // measure 9
00001000
00010000
00100000
00010000
00001000
00010000
01000000
00000000
,  // measure 10
00010000
00001000
00000010
00000000
00000001
00000100
00000010
00000000
,  // measure 11
00001001
00000000
00000000
00000000
00000001
00000100
00000001
00000100
,  // measure 12
00001000
00000000
00010000
00000000
00100000
10000000
01000000
01000000
,  // measure 13
00000000
10000000
00100000
00010000
,  // measure 14
00001000
00000000
00000100
00000000
00000001
00000010
00000100
00000100
,  // measure 15
00000000
00000000
00011000
00000000
00001000
00100000
01000000
00000000
,  // measure 16
00010000
00000100
00000010
00000000
00000001
00000100
00001000
00000000
,  // measure 17
00010000
00000000
00100000
00000000
10000000
01000000
00100000
00010000
,  // measure 18
00000000
01000000
01000000
00000000
00001000
00010000
00100000
01000000
,  // measure 19
00000000
00001000
00001000
00000000
00010000
00001000
00000100
00000010
,  // measure 20
00000000
00000000
00001001
00000000
00000001
00000100
00000001
00000100
,  // measure 21
00001000
00001000
00010000
00010000
00100000
00100000
10000000
10000000
,  // measure 22
01000000
01000000
00010000
00010000
00001000
00001000
00000010
00000010
,  // measure 23
00000001
00000001
00000100
00000100
00010000
00010000
00001000
00001000
,  // measure 24
00100000
00100000
10000000
10000000
00010000
00010000
00000000
00000000
,  // measure 25
01000000
01000000
00100000
00100000
00010000
00010000
00001000
00001000
,  // measure 26
00000100
00000100
00000010
00000010
00001001
00001001
00000000
00000000
,  // measure 27
00000001
00000100
00001000
00000000
00000100
00001000
00010000
00000000
,  // measure 28
00001000
00010000
01000000
00000000
00010000
01000000
10000000
00000000
,  // measure 29
00100000
00010000
00100000
00010000
00001000
00000010
00000001
00000000
,  // measure 30
00000010
00001000
00000010
00001000
00010000
00100000
10000000
00000000
,  // measure 31
01000000
01000000
00010000
01000000
00010000
00010000
00001000
00010000
,  // measure 32
00001000
00001000
00000100
00001000
00000100
00000100
00000001
00000011
,  // measure 33
00000000
00000010
00001000
00010000
00000100
00001000
00010000
00100000
,  // measure 34
00001000
00010000
01000000
10000000
00100000
01000000
00100000
00010000
,  // measure 35
00001000
01001000
00000000
00010100
,  // measure 36
00000000
00101000
00000000
00010010
,  // measure 37
00001000
00101000
00000000
00010010
,  // measure 38
00000000
01001000
00000000
00010100
,  // measure 39
00011000
00001000
00100000
01000000
,  // measure 40
10000000
00100000
00010000
00000000
00100000
00010000
00001000
00000000
,  // measure 41
00010000
00000100
00001000
00000010
00000001
00000010
00000100
00000000
,  // measure 42
00001000
00010000
01000000
00100000
00010000
10000000
01000000
00100000
,  // measure 43
10000000
00100000
00001000
00000000
00010000
00000100
00000001
00000000
,  // measure 44
00000011
00000000
00000000
00000000
,  // measure 45
00001100
00000100
00011000
00000000
00000000
00000000
00000000
00000000
;
