#VERSION:0.83;
#TITLE:Wars of the Roses, 1455;
#SUBTITLE:;
#ARTIST:Lotze;
#TITLETRANSLIT:;
#SUBTITLETRANSLIT:;
#ARTISTTRANSLIT:;
#GENRE:VARIETY;
#ORIGIN:;
#CREDIT:MUINELIM;
#BANNER:Wars of the Roses, 1455.png;
#BACKGROUND:Wars of the Roses, 1455-bg.png;
#PREVIEWVID:;
#JACKET:Wars of the Roses, 1455-jacket.png;
#CDIMAGE:;
#DISCIMAGE:;
#LYRICSPATH:;
#CDTITLE:;
#MUSIC:Wars of the Roses, 1455.ogg;
#OFFSET:-0.161000;
#SAMPLESTART:28.877335;
#SAMPLELENGTH:14.238163;
#SELECTABLE:YES;
#DISPLAYBPM:140.000000;
#BPMS:0.000=139.990,
132.000=69.995,
137.000=279.980,
141.000=139.990;
#STOPS:;
#DELAYS:;
#WARPS:;
#TIMESIGNATURES:0.000=4=4;
#TICKCOUNTS:0.000=4;
#COMBOS:0.000=1;
#SPEEDS:0.000=1.000=0.000=0;
#SCROLLS:0.000=1.000;
#FAKES:;
#LABELS:0.000=Song Start;
#BGCHANGES:0.000=Wars of the Roses.avi=1.000=1=0=1=StretchNormal==CrossFade==,
1455.000=1.000=1.000=0=0=1==CrossFade===,
99999=-nosongbg-=1.000=0=0=0 // don't automatically add -songbackground-
;
#KEYSOUNDS:;
#ATTACKS:
;

//---------------dance-single - ----------------
#NOTEDATA:;
#CHARTNAME:;
#STEPSTYPE:dance-single;
#DESCRIPTION:;
#CHARTSTYLE:;
#DIFFICULTY:Beginner;
#METER:3;
#RADARVALUES:0.115163,0.199733,0.016971,0.033943,0.000000,95.000000,93.000000,2.000000,4.000000,0.000000,0.000000,0.000000,0.000000,0.000000,0.115163,0.199733,0.016971,0.033943,0.000000,95.000000,93.000000,2.000000,4.000000,0.000000,0.000000,0.000000,0.000000,0.000000;
#CREDIT:MILEN;
#DISPLAYBPM:140.000000;
#NOTES:
// measure 0
0000
0000
0000
0000
,  // measure 1
0000
0000
0000
0000
,  // measure 2
0000
0000
0000
0000
,  // measure 3
0000
0000
0000
0000
,  // measure 4
0000
0000
0000
0000
,  // measure 5
0000
0000
0000
0000
,  // measure 6
0000
0000
0000
0000
,  // measure 7
0000
0000
0000
0000
,  // measure 8
1000
0000
1000
0000
,  // measure 9
1000
0000
0000
0000
,  // measure 10
0100
0000
0100
0000
,  // measure 11
0100
0000
0000
0000
,  // measure 12
0010
0000
0010
0000
,  // measure 13
0010
0000
0000
0000
,  // measure 14
0001
0000
0001
0000
,  // measure 15
0001
0000
0100
0000
,  // measure 16
0100
0100
0100
0100
,  // measure 17
0100
0000
0010
0000
,  // measure 18
1000
0000
0001
0000
,  // measure 19
0100
0000
0010
0000
,  // measure 20
1000
0000
0000
0000
,  // measure 21
0001
0000
0010
0000
,  // measure 22
0100
0000
1000
0000
,  // measure 23
0001
0000
0010
0000
,  // measure 24
0100
0000
0100
0100
,  // measure 25
0100
0000
0000
0000
,  // measure 26
1000
0000
0000
0000
,  // measure 27
0010
0000
0000
0000
,  // measure 28
0100
0000
0000
0000
,  // measure 29
0001
0000
0000
0000
,  // measure 30
0010
0000
0000
0000
,  // measure 31
0100
0000
0000
0000
,  // measure 32
1000
0000
0000
0000
,  // measure 33
1001
0000
0000
0000
,  // measure 34
0000
0000
0000
0000
,  // measure 35
0000
0010
0000
0010
,  // measure 36
0000
0010
0000
0000
,  // measure 37
0000
0100
0000
0100
,  // measure 38
0000
0100
0000
0000
,  // measure 39
0000
0001
0000
0001
,  // measure 40
0000
0001
0000
0000
,  // measure 41
0000
1000
0000
1000
,  // measure 42
0000
1000
0000
0000
,  // measure 43
0000
0010
0000
0100
,  // measure 44
0000
0001
0000
1000
,  // measure 45
0000
0010
0000
0100
,  // measure 46
0000
0001
0000
1000
,  // measure 47
0000
0100
0000
0010
,  // measure 48
0000
0001
0000
1000
,  // measure 49
0000
0100
0000
0010
,  // measure 50
0000
0001
0000
0100
,  // measure 51
0100
0100
0000
0000
,  // measure 52
0000
0010
0000
0000
,  // measure 53
0000
1000
0000
0000
,  // measure 54
0000
0001
0000
0000
,  // measure 55
0000
0010
0000
0100
,  // measure 56
0000
1000
0000
0010
,  // measure 57
0000
0100
0000
0001
,  // measure 58
0000
1000
0000
0100
,  // measure 59
0000
0020
0000
0000
,  // measure 60
0000
0030
0000
0000
,  // measure 61
0000
0020
0000
0030
,  // measure 62
0000
0010
0000
0000
,  // measure 63
0010
0010
0000
0000
,  // measure 64
0000
0001
0000
0100
,  // measure 65
0000
2000
0000
3000
,  // measure 66
0000
0020
0000
0030
,  // measure 67
0000
0110
0000
0000
;

//---------------dance-single - ----------------
#NOTEDATA:;
#CHARTNAME:;
#STEPSTYPE:dance-single;
#DESCRIPTION:;
#CHARTSTYLE:;
#DIFFICULTY:Easy;
#METER:5;
#RADARVALUES:0.246086,0.342399,0.127286,0.144257,0.000000,203.000000,188.000000,15.000000,17.000000,0.000000,0.000000,0.000000,0.000000,0.000000,0.246086,0.342399,0.127286,0.144257,0.000000,203.000000,188.000000,15.000000,17.000000,0.000000,0.000000,0.000000,0.000000,0.000000;
#CREDIT:MILEN;
#DISPLAYBPM:140.000000;
#NOTES:
0000
0000
0000
0000
,
0000
0000
0000
0000
,
0000
0000
0000
0000
,
0000
0000
0000
0000
,
0000
0000
0000
0000
,
0000
0000
0000
0000
,
0000
0000
0000
0000
,
0000
0000
0000
0000
,
1000
0000
0001
0000
,
1000
0100
1000
0000
,
0001
0000
1000
0000
,
0001
0100
0001
0000
,
1000
0000
0001
0000
,
1000
0010
1000
0000
,
0001
0000
1000
0000
,
0001
0010
0002
0003
,
0100
0001
1000
0010
,
0110
0100
0001
1000
,
0100
0010
0001
1000
,
0010
0100
0001
0010
,
0100
1000
0001
0000
,
1001
1000
0010
0100
,
0001
0010
0100
1000
,
0001
0100
0010
1000
,
0001
0010
0100
1000
,
0010
0100
0001
0100
,
0010
0100
0001
0100
,
0010
1000
0010
0100
,
0010
1000
0010
0100
,
0001
0100
1000
0100
,
0001
0100
1000
0100
,
0001
0010
1000
0010
,
0001
0100
1000
0010
,
2002
0000
0000
0000
,
0000
3003
0000
0000
,
0000
0010
1000
0100
,
0010
0001
0000
0001
,
0000
1000
0100
0010
,
0001
0100
0000
0100
,
0000
1000
0100
0010
,
0001
1000
0010
1000
,
0100
0001
0010
0100
,
1000
0001
0010
0001
,
0100
1000
0001
1000
,
0001
0100
0010
0100
,
0110
0001
1000
0001
,
1000
0010
0100
0010
,
0110
1000
0010
0100
,
0001
1000
0100
0010
,
0110
0001
0100
0010
,
1000
0001
0010
0100
,
0110
2000
3000
0010
,
1000
0002
0003
0010
,
0001
2000
3000
0100
,
1000
0002
0003
0010
,
0001
0101
0100
0010
,
1000
1100
0100
0010
,
0001
0011
0010
0001
,
0100
0101
0001
1000
,
0010
0220
0000
0000
,
0000
0030
0000
0000
,
0300
0002
0003
2000
,
3000
0002
0000
0000
,
0000
2000
0000
0000
,
3003
0001
0100
1000
,
0010
0220
0000
0000
,
0330
2002
0000
0000
,
3003
1001
0000
0000
;

//---------------dance-single - ----------------
#NOTEDATA:;
#CHARTNAME:;
#STEPSTYPE:dance-single;
#DESCRIPTION:;
#CHARTSTYLE:;
#DIFFICULTY:Medium;
#METER:10;
#RADARVALUES:0.357613,0.513598,0.110314,0.313972,0.021214,295.000000,282.000000,13.000000,37.000000,0.000000,0.000000,0.000000,0.000000,0.000000,0.357613,0.513598,0.110314,0.313972,0.021214,295.000000,282.000000,13.000000,37.000000,0.000000,0.000000,0.000000,0.000000,0.000000;
#CREDIT:MILEN;
#DISPLAYBPM:140.000000;
#NOTES:
0000
0000
0000
0000
,
0000
0000
0000
0000
,
0000
0000
0000
0000
,
0000
0000
0000
0000
,
0000
0000
0000
0000
,
0000
0000
0000
0000
,
0000
0000
0000
0000
,
0000
0000
0000
0000
,
1000
0001
1000
0100
,
1000
0001
1000
1100
,
0001
1000
0001
0010
,
0001
1000
0001
0011
,
1100
1000
0010
1000
,
0100
1000
0010
0001
,
0011
0001
0100
0001
,
0010
0001
0200
0300
,
1000
0001
1000
0001
0100
0010
0100
0000
,
0002
0013
2000
3010
,
0002
0103
2000
3100
,
0002
1003
0020
0130
,
2000
0000
3001
0000
0100
0010
0100
0000
,
0020
1030
0200
1300
,
0020
0031
0200
0301
,
2000
3010
0002
0103
,
2000
0000
3001
0000
0001
0010
0100
1000
,
0020
0000
0000
0130
0010
0000
0110
0000
,
0100
0000
0000
0100
0000
0000
0100
0000
0001
0000
0000
0000
0011
0000
0000
0000
,
0010
0000
0000
0010
0000
0000
0010
0000
0100
0000
1000
0000
0001
0000
0010
0000
,
0200
0000
2300
0000
3010
1000
0100
0000
,
0020
0000
0000
0031
0010
0000
0011
0000
,
0001
0000
0000
0001
0000
0000
0001
0000
0100
0000
0000
0000
0110
0000
0000
0000
,
0010
0000
0000
0010
0000
0000
0010
0000
1000
0000
0000
0000
0100
0000
0010
0000
,
0001
0000
0000
0100
0000
0000
0010
0000
1000
0000
0000
0000
0001
0000
0000
0000
,
2002
0000
0000
0000
,
0000
3003
0000
0000
,
0000
0010
1000
0100
,
0001
0000
0010
0001
0100
0000
0001
0010
,
0100
0010
0001
0100
,
1000
0000
0010
1000
0100
0000
0010
0100
,
1000
0010
0001
0100
,
1000
0000
0001
0010
1000
0000
0001
0100
,
1000
0100
0001
0010
,
1000
0000
0001
0100
1000
0000
0001
0010
,
1000
0100
0020
0000
0031
0100
0001
0010
,
0001
0100
0010
1000
0001
0000
0010
0001
,
1000
0000
0200
0000
1300
0010
1000
0100
,
1000
0010
1000
0001
0010
0000
0001
1000
,
0100
0000
0020
0000
0130
1000
0010
0100
,
0001
1000
0100
0010
0001
0000
1000
0100
,
0010
0000
0200
0000
1300
0010
0100
0010
,
1000
0010
0100
0001
0010
0100
1000
0010
,
0100
0001
1000
0100
0010
0002
0000
0100
,
0103
0000
0010
1000
0100
0000
0010
0001
,
0100
0000
0001
0010
0100
2000
0000
0010
,
3010
0000
0100
0001
0010
0000
0100
1000
,
0010
0000
0100
0001
0100
0001
1000
0100
,
1000
0100
0010
0001
0010
0001
1000
0010
,
1000
0010
0100
0001
0100
0010
0100
0001
,
0100
0010
0100
0001
0100
1000
0100
0001
,
0100
1000
0220
0000
0000
0000
0000
0000
,
0000
0300
0000
0000
,
0000
2030
0000
3002
,
0000
2000
0000
0000
,
0003
0020
0000
0000
,
3030
0000
0010
0100
0001
0100
0010
1000
,
0010
0100
0220
0000
0000
0000
0000
0000
,
0330
2002
0000
0000
,
3003
1001
0000
0000
;

//---------------dance-single - ----------------
#NOTEDATA:;
#CHARTNAME:;
#STEPSTYPE:dance-single;
#DESCRIPTION:;
#CHARTSTYLE:;
#DIFFICULTY:Hard;
#METER:14;
#RADARVALUES:0.575817,0.770398,0.280029,0.678858,0.437015,475.000000,442.000000,33.000000,80.000000,0.000000,0.000000,0.000000,0.000000,0.000000,0.575817,0.770398,0.280029,0.678858,0.437015,475.000000,442.000000,33.000000,80.000000,0.000000,0.000000,0.000000,0.000000,0.000000;
#CREDIT:MILEN;
#DISPLAYBPM:140.000000;
#NOTES:
0000
0000
0000
0000
,
0000
0000
0000
0000
,
0000
0000
0000
0000
,
0000
0000
0000
0000
,
0000
0000
0000
0000
,
0000
0000
0000
0000
,
0000
0000
0000
0000
,
0000
0000
0000
2000
,
3002
0000
0000
0000
0000
0000
1000
0000
1003
0000
0000
1100
0000
0000
1000
0000
,
0001
0000
0000
0101
0000
0000
0001
0000
0020
0000
0000
0000
0130
0000
0000
0000
,
1100
0000
0000
1000
0000
0000
0010
0000
0110
0000
0000
0100
0000
0000
0001
0000
,
0011
0000
0000
0010
0000
0000
0100
0000
1000
0010
1000
0010
1000
0000
0001
0000
,
0202
0000
0003
0000
0000
0000
0010
0000
0310
0000
0000
0110
0000
0000
0010
0000
,
1000
0000
0000
1010
0000
0000
0010
0000
0200
0000
0000
0000
0301
0000
0000
0000
,
0011
0000
0000
0010
0000
0000
0100
0000
1100
0000
0000
1000
0000
0000
0010
0000
,
0100
0001
0100
0001
0020
0000
0000
0000
0200
0000
0000
0000
0330
0000
0000
0000
,
0010
0000
0100
1000
0100
0000
1000
0010
1000
0000
0001
0100
0001
0000
0010
0000
,
0100
1000
1010
0010
0100
0001
0101
0100
,
0001
0010
0011
0001
2000
0000
3100
0000
,
1000
0010
0110
0100
0001
0010
0011
0001
,
1000
0000
0100
0000
1100
0000
1000
0000
0010
0100
0010
0100
0002
0000
1000
0000
,
1003
0100
1100
1000
0010
0100
0101
0001
,
0100
0000
0010
0000
1010
0000
1000
0000
0000
0001
0000
0000
0201
0000
0000
0000
,
0310
0010
0110
0100
0001
1000
1001
0001
,
0010
0001
0010
0000
0100
1000
0100
0000
0010
0100
0010
0100
0010
0100
0010
0100
,
0020
0000
0000
0000
0000
0000
0031
0100
0020
0000
0000
0000
2030
0000
0000
0000
,
3002
0000
0000
0023
0000
0000
0230
0000
2300
0000
0000
0000
3020
0000
0000
0000
,
0230
0000
0000
0302
0000
0000
2003
0000
3200
0000
0320
0000
0032
0000
2003
0000
,
3020
0000
0000
0230
0000
0000
0302
0000
0013
0100
0010
0100
1000
0000
0001
0000
,
0202
0000
0003
0000
0000
0000
0310
1000
0200
0000
0000
0000
0320
0000
0000
0000
,
0032
0000
0000
2003
0000
0000
3020
0000
0230
0000
0000
0000
2300
0000
0000
0000
,
3200
0000
0000
0302
0000
0000
0023
0000
2030
0000
0000
0000
3020
0000
0031
0100
,
0020
0000
0000
2030
0000
0000
3002
0000
0013
0000
0010
0000
0100
0000
1000
0000
,
2002
0000
0000
0000
,
0000
3003
0000
0000
,
0000
0020
2030
3200
,
0302
0000
0000
0000
0013
0100
0010
0000
0100
0001
0100
0000
0010
0100
0010
0000
,
1000
0010
1000
0000
0200
0000
0000
0000
0302
0000
0000
0000
0023
0000
0000
0000
,
2030
0000
0000
0000
3100
0010
0100
0000
0010
0001
0010
0000
0100
0010
0100
0000
,
1000
0100
1000
0000
0002
0000
0000
0000
0023
0000
0000
0000
2030
0000
0000
0000
,
3200
0000
0000
0000
0310
1000
0010
0000
1000
0001
1000
0000
0010
0100
0010
0000
,
0100
0001
0100
0000
2000
0000
0000
0000
3020
0000
0000
0000
0032
0000
0000
0000
,
0203
0000
0000
0000
0310
0100
0010
0000
1000
0100
1000
0000
0001
0010
0001
0010
,
0001
0010
0001
0010
0200
0000
0000
0000
1300
0010
1000
0010
1000
0000
0100
0000
,
0010
0000
0001
0000
0100
0010
1000
0000
0010
0100
0001
0000
0010
0000
0100
0000
,
1000
0000
0010
0000
0210
0000
0000
0000
0301
0010
0001
0010
0001
0000
1000
0000
,
0100
0000
0010
0000
0001
0100
0010
0000
1000
0010
0100
0000
0001
0000
0010
0000
,
0100
0000
1000
0000
1020
0000
0000
0000
0130
0001
0100
0001
0100
0000
0010
0000
,
1000
0000
0001
0000
0010
0100
1000
0000
0001
0010
0100
0000
1000
0000
0010
0000
,
0100
0000
0001
0000
2001
0000
0000
0000
3100
0010
0100
0010
0001
0000
0100
0000
,
0010
0000
1000
0000
0001
0010
0100
0000
1000
0010
0100
0000
0001
0010
0001
0010
,
0100
1000
0100
1000
0010
0100
0001
0100
0010
0100
0002
0000
0000
0000
0013
0000
,
0100
0000
1000
0000
0010
0100
0001
0000
1000
0100
0010
0000
0001
0100
0010
0000
,
1000
0001
0010
0000
0100
1000
0100
0010
0100
1000
0200
0000
0000
0000
0310
0000
,
0001
0000
0100
0000
0010
1000
0100
0000
0010
0100
1000
0000
0010
0100
0001
0000
,
0100
0010
0001
0000
0010
0100
0010
0000
1000
0000
0100
0000
0001
0000
1000
0000
,
0010
0000
0001
0000
0100
0010
0100
0000
0001
0000
0010
0000
1000
0000
0001
0000
,
0100
0000
1000
0000
0010
0100
0001
0000
1000
0000
0100
0000
0001
0000
1000
0000
,
0010
0000
0001
0000
0100
0010
1000
0000
0001
0010
0100
0000
1000
0010
0100
0001
,
1000
0100
0010
0002
2000
0000
0000
0000
0000
0000
0000
0000
0000
0000
0000
0000
,
0003
0020
0000
0000
,
3000
0002
0030
0200
,
0003
2000
0000
0300
,
0000
0000
3010
0200
0002
0000
0000
0000
0000
0000
0000
0000
0000
0000
0000
0000
,
0303
0000
0011
1000
1010
0001
0101
1000
,
1100
0010
0210
0000
0001
0000
1000
0000
,
0001
0000
0000
0000
0020
0000
0300
0000
0130
0001
0100
0001
1000
0100
1000
0100
,
0010
0001
1000
0000
0110
0000
0000
0000
0000
0000
0000
0000
0000
0000
0000
0000
;

//---------------dance-double - ----------------
#NOTEDATA:;
#CHARTNAME:;
#STEPSTYPE:dance-double;
#DESCRIPTION:;
#CHARTSTYLE:;
#DIFFICULTY:Easy;
#METER:6;
#RADARVALUES:0.256996,0.342399,0.161229,0.144257,0.000000,212.000000,193.000000,19.000000,17.000000,0.000000,0.000000,0.000000,0.000000,0.000000,0.256996,0.342399,0.161229,0.144257,0.000000,212.000000,193.000000,19.000000,17.000000,0.000000,0.000000,0.000000,0.000000,0.000000;
#CREDIT:MILEN;
#DISPLAYBPM:140.000000;
#NOTES:
00000000
00000000
00000000
00000000
,
00000000
00000000
00000000
00000000
,
00000000
00000000
00000000
00000000
,
00000000
00000000
00000000
00000000
,
00000000
00000000
00000000
00000000
,
00000000
00000000
00000000
00000000
,
00000000
00000000
00000000
00000000
,
00000000
00000000
00000000
00000000
,
00001000
00000000
00010000
00000000
,
00001000
00100000
01000000
00000000
,
00010000
00000000
00001000
00000000
,
00010000
00000100
00000010
00000000
,
00001000
00000000
00010000
00000000
,
00001000
01000000
00100000
00000000
,
00010000
00000000
00001000
00000000
,
00010000
00000010
00000200
00000300
,
00000001
00000010
00000100
00010000
,
00011000
00100000
00010000
01000000
,
00100000
10000000
00010000
00100000
,
01000000
10000000
00100000
00010000
,
00001000
00000010
00000001
00000100
,
00000110
00000010
00010000
00001000
,
00000100
00000001
00000010
00000100
,
00010000
00001000
00100000
01000000
,
10000000
00100000
01000000
00010000
,
00100000
01000000
00010000
00001000
,
00000010
00000100
00001000
00000001
,
00000100
00001000
00010000
00100000
,
10000000
01000000
00100000
01000000
,
00010000
00001000
00000010
00001000
,
00010000
00001000
00000100
00001000
,
00010000
01000000
00010000
00001000
,
00010000
00100000
00010000
00001000
,
00022000
00000000
00000000
00000000
,
00000000
00033000
00000000
00000000
,
00000000
00001000
00010000
00100000
,
10000000
11000000
00000000
11000000
,
00000000
10000000
01000000
00010000
,
00001000
00001100
00000000
00001100
,
00000000
00000100
00000001
00000010
,
00000100
00001000
00010000
00100000
,
01000000
10000000
00100000
01000000
,
00010000
00001000
00000010
00000100
,
00000001
00001000
00000100
00000010
,
00000001
00001000
00000100
00000010
,
00000011
00000001
00000100
00001000
,
00010000
00100000
10000000
01000000
,
01100000
00010000
00100000
01000000
,
10000000
00010000
00100000
01000000
,
11000000
10000000
00100000
00010000
,
00001000
00000100
00000001
00000010
,
00000110
00000002
00000103
00001000
,
00010000
00200000
10300000
01000000
,
00010000
00002000
00003100
00000001
,
00000010
00002000
00013000
00100000
,
10000000
11000000
01000000
00010000
,
00001000
00011000
00010000
00001000
,
00000100
00000101
00000001
00000010
,
00001000
00011000
00010000
00100000
,
10000000
22000000
00000000
00000000
,
00000000
30000000
00000000
00000000
,
03000000
00200000
00300000
00002000
,
00003000
00020000
00000000
00000000
,
00000000
00000020
00000000
00000000
,
00030030
00000010
00010000
00001000
,
00100000
00202000
00000000
00000000
,
00303000
00022000
00000000
00000000
,
00033000
00011000
00000000
00000000
;

//---------------dance-double - ----------------
#NOTEDATA:;
#CHARTNAME:;
#STEPSTYPE:dance-double;
#DESCRIPTION:;
#CHARTSTYLE:;
#DIFFICULTY:Medium;
#METER:10;
#RADARVALUES:0.316396,0.399465,0.050914,0.288515,0.021214,261.000000,255.000000,6.000000,34.000000,0.000000,0.000000,0.000000,0.000000,0.000000,0.316396,0.399465,0.050914,0.288515,0.021214,261.000000,255.000000,6.000000,34.000000,0.000000,0.000000,0.000000,0.000000,0.000000;
#CREDIT:MILEN;
#DISPLAYBPM:140.000000;
#NOTES:
00000000
00000000
00000000
00000000
,
00000000
00000000
00000000
00000000
,
00000000
00000000
00000000
00000000
,
00000000
00000000
00000000
00000000
,
00000000
00000000
00000000
00000000
,
00000000
00000000
00000000
00000000
,
00000000
00000000
00000000
00000000
,
00000000
00000000
00000000
00000000
,
00100000
00001000
01000000
00010000
,
00100000
00001000
01000000
00010000
,
00100000
00001000
00010000
00000100
,
00001000
00000010
00010000
00011000
,
00000010
00010000
00000100
00001000
,
00000010
00010000
00000100
00001000
,
00000010
00010000
00001000
00100000
,
00010000
01000000
02200000
03300000
,
00100000
10000000
01000000
00010000
,
00002000
00103000
00020000
00030010
,
00002000
01003000
00020000
00030100
,
00002000
00013000
00200000
01300000
,
00020000
00000000
00031000
00000000
00001000
00010000
00001000
00000000
,
00020000
00030100
00002000
01003000
,
00020000
00030010
00002000
00103000
,
00020000
00031000
00000200
00000310
,
00002000
00000000
00013000
00000000
00010000
00001000
00010000
00001000
,
00020000
00000000
00000000
00030100
00001000
00000000
00001100
00000000
,
00001000
00000000
00000000
00000001
00000000
00000000
00001000
00000000
00000100
00000000
00000000
00000000
00010000
00000000
00000000
00000000
,
00001000
00000000
00000000
00100000
00000000
00000000
00001000
00000000
00010000
00000000
00100000
00000000
01000000
00000000
00000000
00000000
,
00200000
00000000
20300000
00000000
31000000
00100000
01000000
00000000
,
00020000
00000000
00000000
00031000
00010000
00000000
00010100
00000000
,
00000100
00000000
00000000
00001000
00000000
00000000
00000100
00000000
00000010
00000000
00000000
00000000
00000001
00000000
00000000
00000000
,
00000100
00000000
00000000
00000010
00000000
00000000
00000100
00000000
00001000
00000000
00000000
00000000
00010000
00000000
00001000
00000000
,
00100000
00000000
00000000
01000000
00000000
00000000
10000000
00000000
00100000
00000000
00000000
00000000
00010000
00000000
00000000
00000000
,
00022000
00000000
00000000
00000000
,
00000000
00033000
00000000
00000000
,
00000000
00001000
00010000
00100000
,
10000000
00000000
01000000
00100000
00010000
00000000
01000000
00100000
,
00010000
01000000
00001000
00010000
,
00000100
00000000
00000010
00000001
00000100
00000000
00000010
00000001
,
00000100
00000010
00010000
00001000
,
00100000
00000000
01000000
10000000
00100000
00000000
01000000
10000000
,
00100000
01000000
00010000
00100000
,
00001000
00000000
00010000
00001000
00000100
00000000
00010000
00001000
,
00000100
00000000
00000020
00000000
00000130
00000001
00000100
00000001
,
00000010
00001000
00010000
00100000
,
10000000
00000000
02000000
00000000
03100000
00010000
00100000
00010000
,
01000000
00001000
00010000
00000100
,
00000010
00000000
00000002
00000000
00001003
00000010
00001000
00000010
,
00010000
00001000
00100000
01000000
,
10000000
00000000
00200000
00000000
01300000
00010000
01000000
00010000
,
00100000
01000000
00010000
00001000
,
00000010
00000000
00000001
00000010
00000100
00001000
00000000
00000010
,
00010000
00000000
00001000
00010000
00100000
00000000
01000000
00100000
,
10000000
00000000
10000000
01000000
00100000
00010000
00000000
01000000
,
00001000
00000000
00010000
00001000
00000100
00000000
00000010
00000100
,
00000001
00000000
00000010
00000001
00000100
00000000
00000010
00010000
,
00001000
00000000
00100000
00010000
10000000
00000000
00100000
01000000
,
10000000
00000000
01000000
00100000
00010000
00000000
00100000
00010000
,
00001000
00000000
00010000
00001000
00000100
00000000
00001000
00000100
,
00000010
00000202
00000000
00000000
,
00000000
00000300
00000000
00000000
,
00000000
00000023
00000000
00002030
,
00000000
00023000
00000000
00000000
,
00000000
00002000
00000000
00000000
,
00033000
00000000
00001000
00010000
00100000
01000000
00010000
00100000
,
01000000
10000000
00200000
00000000
00000000
00000000
00000000
00000000
,
00000000
00320000
00000000
00000000
,
00000000
00031000
00000000
00000000
;

//---------------dance-double - ----------------
#NOTEDATA:;
#CHARTNAME:;
#STEPSTYPE:dance-double;
#DESCRIPTION:;
#CHARTSTYLE:;
#DIFFICULTY:Hard;
#METER:15;
#RADARVALUES:0.545511,0.713331,0.280029,0.534601,0.339429,450.000000,417.000000,33.000000,63.000000,0.000000,0.000000,0.000000,0.000000,0.000000,0.545511,0.713331,0.280029,0.534601,0.339429,450.000000,417.000000,33.000000,63.000000,0.000000,0.000000,0.000000,0.000000,0.000000;
#CREDIT:MILEN;
#DISPLAYBPM:140.000000;
#NOTES:
00000000
00000000
00000000
00000000
,
00000000
00000000
00000000
00000000
,
00000000
00000000
00000000
00000000
,
00000000
00000000
00000000
00000000
,
00000000
00000000
00000000
00000000
,
00000000
00000000
00000000
00000000
,
00000000
00000000
00000000
00000000
,
00000000
00000000
00000000
00002000
,
00023000
00000000
00000000
00000000
00000000
00000000
00001000
00000000
00031000
00000000
00000000
00011000
00000000
00000000
00010000
00000000
,
01000000
00000000
00000000
11000000
00000000
00000000
10000000
00000000
00200000
00000000
00000000
00000000
01300000
00000000
00000000
00000000
,
01010000
00000000
00000000
00010000
00000000
00000000
00100000
00000000
00101000
00000000
00000000
00001000
00000000
00000000
00010000
00000000
,
00010100
00000000
00000000
00000100
00000000
00000000
00001000
00000000
00000010
00000100
00000010
00000100
00000010
00000000
00001000
00000000
,
00002002
00000000
00003000
00000000
00000000
00000000
00000100
00000000
00000103
00000000
00000000
00000110
00000000
00000000
00000010
00000000
,
00010000
00000000
00000000
00011000
00000000
00000000
00001000
00000000
02000000
00000000
00000000
00000000
03100000
00000000
00000000
00000000
,
10100000
00000000
00000000
10000000
00000000
00000000
01000000
00000000
01100000
00000000
00000000
00100000
00000000
00000000
00001000
00000000
,
00010000
00000100
00010000
00000100
00000020
00000000
00000000
00000000
00000002
00000000
00000000
00000000
00000033
00000000
00000000
00000000
,
00000001
00001000
00000100
00010000
00001000
00100000
00010000
10000000
,
00100000
01000000
01100000
00100000
01000000
00010000
00110000
00100000
,
00001000
00010000
00011000
00001000
00000020
00000000
00000031
00000000
,
00000001
00000100
00000110
00000010
00010000
00001000
00011000
00010000
,
00100000
00000000
01000000
00000000
01100000
00000000
00100000
00000000
10000000
01000000
10000000
01000000
00200000
00000000
00010000
00000000
,
00310000
01000000
01001000
00001000
00010000
00000100
00000110
00000010
,
00000001
00000000
00000100
00000000
00000110
00000000
00000010
00000000
00000000
00010000
00000000
00000000
00012000
00000000
00000000
00000000
,
00103000
01000000
01100000
00100000
01000000
10000000
10100000
00100000
,
01000000
00010000
01000000
00000000
00001000
00010000
00001000
00000000
00000100
00000010
00000100
00000000
00000001
00001000
00000001
00001000
,
00000002
00000000
00000000
00000000
00000000
00000000
00000103
00000010
00002000
00000000
00000000
00000000
00003200
00000000
00000000
00000000
,
00020300
00000000
00000000
00032000
00000000
00000000
00203000
00000000
02300000
00000000
00000000
00000000
23000000
00000000
00000000
00000000
,
30200000
00000000
00000000
02300000
00000000
00000000
03020000
00000000
00230000
00000000
00302000
00000000
00023000
00000000
00030200
00000000
,
00000320
00000000
00000000
00000032
00000000
00000000
00002003
00000000
00003010
00000100
00000010
00000100
00000010
00000000
00010000
00000000
,
00012000
00000000
00000000
00000000
00000000
00000000
00103000
01000000
20000000
00000000
00000000
00000000
30200000
00000000
00000000
00000000
,
00320000
00000000
00000000
00230000
00000000
00000000
02300000
00000000
03020000
00000000
00000000
00000000
00230000
00000000
00000000
00000000
,
00302000
00000000
00000000
00003020
00000000
00000000
00000032
00000000
00000203
00000000
00000000
00000000
00002300
00000000
00013000
00001000
,
00000200
00000000
00000000
00000302
00000000
00000000
00000023
00000000
00001030
00000000
00001000
00000000
00010000
00000000
00001000
00000000
,
00022000
00000000
00000000
00000000
,
00000000
00033000
00000000
00000000
,
00000000
00001000
00010000
00100000
,
10000000
00000000
00000000
00000000
01000000
00010000
01000000
00000000
00010000
00000000
00001000
00000000
00000010
00001000
00000010
00000000
,
00000001
00000100
00001000
00000000
00010000
00000000
01000000
00000000
,
10000000
00000000
00000000
00000000
00100000
00010000
00100000
00000000
00010000
00000000
00001000
00000000
00000100
00001000
00000100
00000000
,
00000001
00000010
00000100
00000000
00001000
00000000
00010000
00000000
,
00100000
00000000
00000000
00000000
01000000
10000000
01000000
00000000
00100000
00000000
00010000
00000000
00001000
00000100
00001000
00000000
,
00000100
00000010
00000001
00000000
00000100
00000000
00000010
00000000
,
00001000
00000000
00000000
00000000
00010000
01000000
00010000
00000000
01000000
00000000
00100000
00000000
10000000
00100000
10000000
00100000
,
10000000
00100000
10000000
00100000
02000000
00000000
00000000
00000000
03010000
00100000
00010000
00100000
01000000
00000000
10000000
00000000
,
00100000
00010000
00001000
00100000
00010000
00001000
00000100
00010000
,
00001000
00000000
00000010
00000000
00000012
00000000
00000000
00000000
00001003
00000010
00001000
00000010
00000100
00000000
00000001
00000000
,
00000010
00001000
00010000
00000100
00001000
00010000
00100000
00001000
,
00010000
00000000
00100000
00000000
20100000
00000000
00000000
00000000
31000000
00100000
01000000
00100000
00010000
00000000
01000000
00000000
,
00100000
10000000
01000000
00100000
00010000
00001000
00000100
00000010
,
00000001
00000000
00000100
00000000
00000120
00000000
00000000
00000000
00001030
00000100
00001000
00000100
00000001
00000000
00000100
00000000
,
00000010
00000001
00000100
00000010
00001000
00010000
01000000
00100000
,
10000000
00000000
00010000
00000000
00100000
01000000
10000000
01000000
00100000
01000000
20000000
00000000
00000000
00000000
30100000
00000000
,
00010000
00000000
00001000
00000000
00000010
00000001
00000010
00000100
00000010
00000001
00000020
00000000
00000000
00000000
00000130
00000000
,
00010000
00000000
00001000
00000000
01000000
00100000
10000000
00100000
01000000
00100000
20000000
00000000
00000000
00000000
31000000
00000000
,
00010000
00000000
00001000
00000000
00000010
00000001
00000100
00000001
00000010
00000001
00000200
00000000
00000000
00000000
00001300
00000000
,
00010000
00000000
00100000
00000000
10000000
01000000
00100000
00000000
01000000
00000000
00010000
00000000
00001000
00010000
00000100
00000000
,
00001000
00000000
00000010
00000000
00000100
00000001
00000010
00000000
00001000
00000000
00010000
00000000
00001000
00100000
00010000
00000000
,
01000000
00000000
10000000
00000000
01000000
00100000
10000000
00000000
01000000
00000000
00010000
00000000
00001000
00010000
00000100
00000000
,
00000010
00000000
00000001
00000000
00000100
00001000
00010000
00000000
00001000
00010000
00100000
00000000
10000000
01000000
10000000
01000000
,
00100000
00010000
00100000
00010000
02000000
00000000
00000000
00000000
00000000
00000000
00000000
00000000
00000000
00000000
00000000
00000000
,
00000000
00002000
00000000
00000000
,
03000000
00020000
00003000
00000200
,
00030000
00000000
00000020
00000000
00000000
00000000
00000000
00000300
,
00000000
00000000
00000031
00000100
00002000
00000000
00000000
00000000
00000000
00000000
00000000
00000000
00000000
00000000
00000000
00000000
,
00003000
00000000
00011000
01000000
00011000
00000100
00011000
00100000
,
00011000
00000010
00012000
00000000
00100000
00000000
00000010
00000000
,
00100000
00000000
00000000
00000000
02003000
00000000
00000000
00000000
03100000
10000000
01000000
00000000
00100000
00010000
01000000
00000000
,
00100000
00010000
00001000
00000100
00000110
00000000
00000000
00000000
00000000
00000000
00000000
00000000
00000000
00000000
00000000
00000000
;
