#VERSION:0.83;
#TITLE:Wake Up!;
#SUBTITLE:;
#ARTIST:Mr. Weq;
#TITLETRANSLIT:;
#SUBTITLETRANSLIT:;
#ARTISTTRANSLIT:;
#GENRE:XROSS;
#ORIGIN:;
#CREDIT:MUINELIM;
#BANNER:Wake Up!.png;
#BACKGROUND:Wake Up!-bg.png;
#PREVIEWVID:;
#JACKET:Wake Up!-jacket.png;
#CDIMAGE:;
#DISCIMAGE:;
#LYRICSPATH:;
#CDTITLE:;
#MUSIC:Wake Up!.mp3;
#OFFSET:-0.043000;
#SAMPLESTART:83.786148;
#SAMPLELENGTH:11.939999;
#SELECTABLE:YES;
#BPMS:0.000=175.000;
#STOPS:;
#DELAYS:;
#WARPS:;
#TIMESIGNATURES:0.000=4=4;
#TICKCOUNTS:0.000=4;
#COMBOS:0.000=1;
#SPEEDS:0.000=1.000=0.000=0;
#SCROLLS:0.000=1.000;
#FAKES:;
#LABELS:0.000=Song Start;
#BGCHANGES:0.000=Wake Up!.avi=1.000=1=0=1=StretchNormal==CrossFade==,
99999=-nosongbg-=1.000=0=0=0 // don't automatically add -songbackground-
;
#KEYSOUNDS:;
#ATTACKS:
;

//---------------dance-single - ----------------
#NOTEDATA:;
#CHARTNAME:;
#STEPSTYPE:dance-single;
#DESCRIPTION:;
#CHARTSTYLE:;
#DIFFICULTY:Beginner;
#METER:4;
#RADARVALUES:0.164656,0.312725,0.008475,0.000000,0.000000,136.000000,135.000000,1.000000,0.000000,0.000000,0.000000,0.000000,0.000000,0.000000,0.164656,0.312725,0.008475,0.000000,0.000000,136.000000,135.000000,1.000000,0.000000,0.000000,0.000000,0.000000,0.000000,0.000000;
#CREDIT:MILEN;
#NOTES:
// measure 0
0000
0000
0000
0000
,  // measure 1
0000
0000
0000
0000
,  // measure 2
0000
0000
0000
0000
,  // measure 3
0000
0000
0000
0000
,  // measure 4
0000
0000
0000
0000
,  // measure 5
0100
0000
0000
0000
,  // measure 6
0010
0000
0000
0000
,  // measure 7
1000
0000
0000
0000
,  // measure 8
0001
0000
0000
0000
,  // measure 9
0100
0000
0010
0000
,  // measure 10
1000
0000
0001
0000
,  // measure 11
0100
0000
0010
0000
,  // measure 12
0110
0000
0000
0000
,  // measure 13
0100
0000
0001
0000
,  // measure 14
0010
0000
0000
0000
,  // measure 15
0100
0000
1000
0000
,  // measure 16
0010
0000
0000
0000
,  // measure 17
0100
0000
0001
0000
,  // measure 18
1000
0000
0000
0000
,  // measure 19
0010
0000
1000
0000
,  // measure 20
0001
0000
0000
0000
,  // measure 21
0100
0000
0010
0000
,  // measure 22
1000
0000
0010
0000
,  // measure 23
0100
0000
0001
0000
,  // measure 24
0100
0000
0010
0000
,  // measure 25
1000
0000
0001
0000
,  // measure 26
1000
0000
0010
0000
,  // measure 27
0100
0000
0010
0000
,  // measure 28
0100
0100
0100
0100
,  // measure 29
0100
0000
0000
0000
,  // measure 30
0001
0000
0000
0000
,  // measure 31
1000
0000
0000
0000
,  // measure 32
0010
0000
0000
0000
,  // measure 33
0100
0000
0000
0000
,  // measure 34
0001
0000
0000
0000
,  // measure 35
1000
0000
0000
0000
,  // measure 36
0010
0000
0100
0000
,  // measure 37
0010
0000
0010
0000
,  // measure 38
1000
0000
1000
0000
,  // measure 39
0100
0000
0100
0000
,  // measure 40
0010
0000
0010
0000
,  // measure 41
0001
0000
0001
0000
,  // measure 42
0100
0000
0100
0000
,  // measure 43
0010
0000
0100
0000
,  // measure 44
0010
0010
0010
0010
,  // measure 45
0010
0000
0000
0000
,  // measure 46
0000
0000
0000
0000
,  // measure 47
1000
0000
0000
0000
,  // measure 48
0000
0000
0000
0000
,  // measure 49
0001
0000
0000
0000
,  // measure 50
0000
0000
0000
0000
,  // measure 51
0100
0000
0000
0000
,  // measure 52
0000
0000
0000
0000
,  // measure 53
0010
0000
1000
0000
,  // measure 54
0001
0000
0100
0000
,  // measure 55
0010
0000
1000
0000
,  // measure 56
0001
0000
0100
0000
,  // measure 57
0010
0000
0010
0000
,  // measure 58
0010
0000
0010
0000
,  // measure 59
0010
0010
0010
0010
,  // measure 60
0010
0010
0010
0010
,  // measure 61
0010
0000
0000
0000
,  // measure 62
1000
0000
0100
0000
,  // measure 63
0010
0000
0000
0000
,  // measure 64
0001
0000
0010
0000
,  // measure 65
0100
0000
0000
0000
,  // measure 66
1000
0000
0010
0000
,  // measure 67
0100
0000
0000
0000
,  // measure 68
0001
0000
0100
0000
,  // measure 69
0010
0000
0000
0010
,  // measure 70
0010
0000
1000
0000
,  // measure 71
0001
0000
0100
0000
,  // measure 72
0010
0000
1000
0000
,  // measure 73
0100
0000
0010
0000
,  // measure 74
0001
0000
0100
0000
,  // measure 75
0010
0000
1000
0000
,  // measure 76
0001
0000
0010
0000
,  // measure 77
0100
0000
1000
0000
,  // measure 78
0010
0000
0010
0000
,  // measure 79
0010
0000
0010
0000
,  // measure 80
0010
0010
0010
0010
,  // measure 81
0100
0100
0100
0100
,  // measure 82
0100
0000
0000
0000
;

//---------------dance-single - ----------------
#NOTEDATA:;
#CHARTNAME:;
#STEPSTYPE:dance-single;
#DESCRIPTION:;
#CHARTSTYLE:;
#DIFFICULTY:Easy;
#METER:6;
#RADARVALUES:0.317205,0.382220,0.110174,0.000000,0.000000,262.000000,249.000000,13.000000,0.000000,0.000000,0.000000,0.000000,0.000000,0.000000,0.317205,0.382220,0.110174,0.000000,0.000000,262.000000,249.000000,13.000000,0.000000,0.000000,0.000000,0.000000,0.000000,0.000000;
#CREDIT:MILEN;
#NOTES:
0000
0000
0000
0000
,
0000
0000
0000
0000
,
0000
0000
0000
0000
,
0000
0000
0000
0000
,
0000
0000
0000
0000
,
1000
0000
0001
0000
,
0100
0000
0010
0000
,
1000
0000
0001
0000
,
0100
0000
0010
0000
,
1000
0001
0100
0010
,
1000
0001
0100
0010
,
1000
1000
0001
0001
,
1001
0000
0000
0000
,
1000
0100
1000
0000
,
0001
0100
0001
0000
,
1000
0010
1000
0000
,
0001
0010
0001
0000
,
0100
0010
0100
0000
,
0001
1000
0001
0000
,
0100
0010
1000
0001
,
0100
0000
0000
0100
0000
0000
0100
0100
,
0010
1000
0100
0000
,
1000
0010
0100
0000
,
0001
0100
0010
0000
,
0100
0001
0010
0000
,
0001
1000
0010
0000
,
1000
0001
0100
0000
,
0001
1000
0010
0100
,
0001
1000
0001
1000
,
1001
0001
0100
0001
,
0010
0001
0100
0001
,
0010
0100
1000
0001
,
0010
0100
1000
0001
,
1001
1000
0010
1000
,
0100
1000
0010
1000
,
0100
0010
0001
1000
,
0100
0000
0000
0100
0000
0000
0100
0100
,
0010
0001
0100
0010
,
0100
0001
0010
0001
,
0100
0010
1000
0001
,
0010
0100
1000
1001
,
0001
0100
0010
1000
,
0100
1000
0010
0100
,
0010
1000
0100
0010
,
0001
1000
0001
1000
,
1001
0000
0000
0000
,
0100
0000
0000
0000
,
0010
0000
0000
0000
,
0100
0000
0000
0000
,
0010
0000
0000
0000
,
0100
0000
0000
0000
,
0010
0000
0000
0000
,
0100
0000
0000
0000
,
0010
0000
0100
0000
,
0010
0000
0100
0000
,
0001
0000
1000
0000
,
0001
0000
1000
0000
,
0010
0100
0001
1000
,
0010
0100
0001
1000
,
0010
0010
0010
0010
,
0001
0100
1000
0010
,
0110
0000
0000
0000
,
0001
1000
0001
0100
,
0001
1000
0001
0101
,
1000
0001
1000
0100
,
1000
0001
1000
1100
,
0001
1000
0001
0010
,
0001
1000
0001
0011
,
1000
0010
0100
0001
,
1000
0000
0000
0001
0000
0000
0100
0100
,
0010
1000
0100
0010
,
0001
0100
0010
1010
,
0001
0010
0100
1000
,
0010
0100
0001
0011
,
1000
0100
0010
0001
,
0100
0010
1000
1001
,
0010
0100
0001
0100
,
1000
0100
0001
0010
,
0100
0000
0100
0000
,
0100
0100
0100
0100
,
1000
1000
0010
0010
,
0001
0001
0100
1000
,
1001
0000
0000
0000
;

//---------------dance-single - ----------------
#NOTEDATA:;
#CHARTNAME:;
#STEPSTYPE:dance-single;
#DESCRIPTION:;
#CHARTSTYLE:;
#DIFFICULTY:Medium;
#METER:8;
#RADARVALUES:0.366844,0.521209,0.161024,0.000000,0.000000,303.000000,284.000000,19.000000,0.000000,0.000000,0.000000,0.000000,0.000000,0.000000,0.366844,0.521209,0.161024,0.000000,0.000000,303.000000,284.000000,19.000000,0.000000,0.000000,0.000000,0.000000,0.000000,0.000000;
#CREDIT:MILEN;
#NOTES:
0000
0000
0000
0000
,
0000
0000
0000
0000
,
0000
0000
0000
0000
,
0000
0000
0000
0000
,
0000
0000
0000
0000
,
1000
0000
0001
0000
,
0100
0000
0010
0000
,
1000
0000
0001
0000
,
0100
0000
0010
0000
,
1000
0001
0100
0010
,
1000
0001
0100
0010
,
1000
0001
1000
0001
,
1001
0000
0000
0000
,
0001
0100
0001
0010
,
0001
0100
0001
0011
,
1000
0010
1000
0100
,
1000
0010
1000
1100
,
0001
0010
0001
0100
,
0001
0010
0001
0101
,
1000
0100
0010
0001
,
0100
0000
0000
0100
0000
0000
0010
0100
,
0010
1000
0100
1000
,
0010
1000
0100
0101
,
0010
0001
0100
0001
,
0010
0001
0100
1100
,
0010
1000
0100
1000
,
0010
1000
0100
0110
,
0010
0001
1000
0100
,
0010
0100
0010
0000
0100
0010
0100
0000
,
1000
0100
0010
0001
,
1000
0100
0010
0001
,
1000
0010
0100
0001
,
1000
0010
0100
0001
,
0001
0010
0100
1000
,
0001
0010
0100
1000
,
0001
0100
0010
1000
,
0001
0000
0000
0001
0000
0000
0001
0100
,
0001
0010
0100
1100
,
1000
0010
0100
0101
,
0001
0100
0010
1010
,
1000
0100
0010
0011
,
0001
0100
0010
0110
,
0100
0001
1000
1001
,
0001
0100
0010
1000
,
0001
0100
0010
0000
1000
0010
0100
0000
,
0110
0000
0000
0000
,
0001
0000
0000
0000
,
1000
0000
0000
0000
,
0001
0000
0000
0000
,
1000
0000
0000
0000
,
0001
0000
0000
0000
,
1000
0000
0000
0000
,
0001
0000
0000
0000
,
1000
0000
0001
0000
,
1000
0000
0001
0000
,
0100
0000
0010
0000
,
0100
0000
0010
0000
,
1000
0001
0100
0010
,
1000
0001
0100
0010
,
1000
1000
0001
0001
,
0100
0010
0100
0000
0010
0100
0010
0000
,
1001
0000
0000
0000
,
0001
0100
0010
1000
,
0001
0010
0100
1100
,
1000
0010
0100
0001
,
1000
0100
0010
0011
,
0001
0100
0010
1000
,
0001
0010
0100
0110
,
0010
0001
0100
0010
,
1000
0000
0001
0100
0000
0001
0010
0001
,
0010
0001
0100
0010
,
0100
0000
0001
0000
0010
0001
0100
0000
,
0010
1000
0100
0010
,
0100
0000
1000
0000
0010
0100
0010
0000
,
1000
0001
0100
0001
,
1000
0000
0001
0000
0100
0001
1000
0000
,
0100
1000
0001
1000
,
0100
0000
1000
0000
0001
0100
0001
0000
,
1000
0000
0100
0010
0001
0000
1000
0100
,
0010
0000
0001
0010
0001
0000
0010
0100
,
1000
0000
0010
0100
0001
0000
0100
0010
,
1000
0010
0100
0010
1000
0010
0100
0000
,
0110
0000
0000
0000
;

//---------------dance-single - ----------------
#NOTEDATA:;
#CHARTNAME:;
#STEPSTYPE:dance-single;
#DESCRIPTION:;
#CHARTSTYLE:;
#DIFFICULTY:Hard;
#METER:14;
#RADARVALUES:0.687680,0.868681,0.389847,0.000000,0.228823,568.000000,522.000000,46.000000,0.000000,0.000000,0.000000,0.000000,0.000000,0.000000,0.687680,0.868681,0.389847,0.000000,0.228823,568.000000,522.000000,46.000000,0.000000,0.000000,0.000000,0.000000,0.000000,0.000000;
#CREDIT:MILEN;
#NOTES:
0000
0000
0000
0000
,
0000
0000
0000
0000
,
0000
0000
0000
0000
,
0000
0000
0000
0000
,
0000
0000
0000
0000
,
1000
0001
0100
0010
,
1000
0001
0100
0010
,
1000
0100
0010
0001
,
1000
0100
0010
0001
,
0101
1000
1100
0001
,
0011
1000
1010
0001
,
1000
0100
0010
0001
1000
0100
0010
0001
,
0110
0000
0000
0000
,
1000
0010
0100
0000
0010
1000
0100
0000
,
1000
0010
0100
0010
1000
0000
1010
0000
,
0001
0010
0100
0000
0010
0001
0100
0000
,
0001
0010
0100
0010
0001
0000
0011
0000
,
1000
0100
0010
0000
0100
1000
0010
0000
,
1000
0100
0010
0100
1000
0000
1100
0000
,
0001
0100
0010
0000
0100
0001
0010
0000
,
0011
0000
0000
0000
0000
0000
1100
0000
0000
0000
0000
0000
1000
0001
1000
0001
,
1000
0100
0010
0001
0100
0010
1000
0001
,
0010
0100
1000
0010
0100
0001
0101
0000
,
0001
0010
0100
1000
0010
0100
0001
1000
,
0100
0010
0001
0100
0010
1000
1001
0100
,
0010
0010
1000
0001
0010
0100
1000
0010
,
0100
0001
1000
0100
0010
0001
0011
0000
,
0101
1100
1010
0011
,
0001
0100
0001
0000
0100
0010
0100
0000
0010
1000
0010
0000
1000
0100
1000
0000
,
0001
0001
0010
0100
1000
0001
0010
0100
,
1000
1000
0100
0010
0001
1000
0100
0010
,
0001
0001
0100
0010
1000
0001
0010
0100
,
1000
0100
0001
0100
1000
0100
0001
0001
,
0100
1000
0010
0100
0001
0010
0100
0100
,
0010
0001
0100
0010
1000
0100
0010
0010
,
0100
1000
0010
0100
0001
0010
0100
1000
,
1010
0000
0000
0000
0000
0000
0101
0000
0000
0000
0000
0000
0001
0010
0001
0010
,
0001
0001
0100
1000
0100
0001
0010
0100
,
1000
1000
0010
0001
0010
1000
0100
0010
,
0001
0001
0100
1000
0100
0001
0010
0100
,
1000
1000
0010
0010
0100
0100
0001
1000
,
1001
0001
0100
1000
0100
0001
0010
0010
,
0100
1000
0010
0001
0010
1000
0100
0100
,
0010
0010
0001
0001
0100
0100
0010
0010
,
1000
0100
1000
0000
0001
0100
0001
0000
0100
0010
0100
0010
0100
0010
0100
0010
,
0100
0000
0001
0000
,
1000
0000
0010
0000
,
0100
0000
0001
0000
,
1000
0000
0010
0000
,
0100
0001
0010
0100
,
1000
0010
0001
1000
,
0100
0001
0010
0100
,
1000
0010
0100
0001
,
0011
0010
0110
0100
,
1100
1000
1010
0010
,
0110
0100
0101
0001
,
1001
0100
0110
1000
,
1010
0000
0011
0001
0100
0000
0110
0000
,
0011
0000
1010
1000
0100
0000
0110
0000
,
0001
0001
0010
0010
0100
0100
1000
1000
,
0010
0100
0010
0000
1000
0010
1000
0000
0001
0100
0001
0100
0001
0100
0001
0100
,
0001
0000
0000
0000
0000
0001
0010
0100
,
1100
1000
0001
1000
0100
0010
0001
0100
,
0101
0001
0010
0100
0010
0001
0100
0010
,
0110
0100
0001
0010
0100
1000
0010
1000
,
1010
0010
0100
0001
0100
1000
0100
0001
,
1001
1000
0100
0010
0001
0100
0001
0010
,
0011
0001
0100
1000
0100
0001
0010
0100
,
0110
0010
0100
1000
0010
0001
0010
1000
,
0001
0000
0000
0100
0000
0000
0010
0000
0000
1000
0000
0000
0001
0100
0001
0100
,
0010
1000
0010
0000
1000
0000
0100
0000
0010
0001
0010
0000
0001
0000
0100
0000
,
0010
1000
0000
0000
1000
0100
0000
0000
0100
0010
0000
0000
0010
0001
0000
0000
,
0001
0100
0001
0000
0100
0000
0010
0000
1000
0100
1000
0000
0100
0000
0010
0000
,
0001
0100
0000
0000
0100
0010
0000
0000
0010
1000
0000
0000
1000
0001
0000
0000
,
0010
0100
0010
0000
0001
0000
0100
0000
0010
1000
0010
0000
1000
0000
0100
0000
,
0010
0001
0000
0000
0001
0100
0000
0000
0100
1000
0000
0000
1000
0010
0000
0000
,
0110
0000
0001
1000
0110
0000
1000
0001
,
0110
0000
1001
0000
1000
0100
0010
0001
,
0100
1000
0100
0001
0100
1000
0100
0001
,
0010
0100
0010
0000
0100
1000
0100
0000
1000
0010
1000
0000
0001
0010
0001
0000
,
0100
0010
0100
0010
1000
0000
0001
0000
0100
0010
0100
0010
1000
0000
0100
0000
,
1000
0010
0000
0000
0010
0001
0000
0000
0001
0100
0000
0000
0100
1000
0000
0000
,
1001
0000
0000
0000
;

//---------------dance-double - ----------------
#NOTEDATA:;
#CHARTNAME:;
#STEPSTYPE:dance-double;
#DESCRIPTION:;
#CHARTSTYLE:;
#DIFFICULTY:Easy;
#METER:6;
#RADARVALUES:0.279673,0.347472,0.084749,0.000000,0.000000,231.000000,221.000000,10.000000,0.000000,0.000000,0.000000,0.000000,0.000000,0.000000,0.279673,0.347472,0.084749,0.000000,0.000000,231.000000,221.000000,10.000000,0.000000,0.000000,0.000000,0.000000,0.000000,0.000000;
#CREDIT:MILEN;
#NOTES:
00000000
00000000
00000000
00000000
,
00000000
00000000
00000000
00000000
,
00000000
00000000
00000000
00000000
,
00000000
00000000
00000000
00000000
,
00000000
00000000
00000000
00000000
,
00001000
00000000
00100000
00000000
,
00010000
00000000
01000000
00000000
,
00001000
00000000
00010000
00000000
,
00000010
00000000
00001000
00000000
,
00000100
00010000
00001000
00100000
,
00010000
01000000
00001000
00010000
,
00000010
00001000
00000100
00010000
,
00011000
00000000
00000000
00000000
,
00001000
00010000
01000000
00000000
,
01000000
00010000
00001000
00000000
,
00010000
00001000
00000010
00000000
,
00000010
00001000
00010000
00000000
,
00001000
00010000
00100000
00000000
,
00100000
00010000
00001000
00000000
,
00010000
00001000
00000100
00000001
,
00000010
00000100
00001000
00000010
,
00010000
00001000
01000000
00000000
,
01000000
00001000
00010000
00000000
,
00001000
00010000
00000100
00000000
,
00000100
00010000
00001000
00000000
,
00010000
00001000
00000010
00000000
,
00001000
00010000
01000000
00000000
,
00010000
00001000
00000100
00001000
,
00010000
01000000
00010000
00001000
,
00011000
00000000
00010000
00000000
,
01000000
00000000
10000000
00000000
,
00100000
00000000
00010000
00000000
,
00001000
00100000
01000000
00010000
,
00011000
00000000
00001000
00000000
,
00000100
00000000
00000001
00000000
,
00000010
00000000
00001000
00010000
,
00000100
00000010
00001000
00010000
,
01000000
00000000
10000000
00000000
,
00100000
00000000
01000000
00000000
,
00010000
00000000
00100000
00000000
,
01000000
00010000
00001000
00000010
,
00000011
00000000
00000100
00000000
,
00001000
00000000
00010000
00000000
,
00100000
10000000
00100000
10000000
,
01000000
00010000
01000000
00010000
,
00011000
00000000
00000000
00000000
,
00100000
00000000
00000000
00000000
,
00000010
00000000
00000000
00000000
,
01000000
00000000
00000000
00000000
,
00000100
00000000
00000000
00000000
,
00010000
00000000
00000000
00000000
,
00001000
00000000
00000000
00000000
,
00011000
00000000
00000000
00000000
,
00010000
00000000
01000000
00000000
,
10000000
00000000
00100000
00000000
,
00010000
00000000
00001000
00000000
,
00000100
00000000
00000001
00000000
,
00000010
00000100
00001000
00000010
,
00000100
00001000
00010000
00100000
,
01000000
00010000
00100000
01000000
,
10000000
00100000
00010000
00001000
,
00011000
00000000
00000000
00000000
,
00010000
00001000
00000100
00000000
,
00000100
00000001
00000010
00000000
,
00000010
00001000
00010000
00000000
,
00010000
01000000
10000000
00000000
,
10000000
00100000
01000000
00000000
,
01000000
00010000
00001000
00000000
,
00010000
00001000
00000010
00000000
,
00000010
00000100
00000001
00001000
,
00000110
00000010
00010000
00001000
,
00010000
00000010
00010000
00001000
,
00100000
00001000
00010000
00001000
,
00100000
00001000
00010000
00100000
,
10000000
01000000
00100000
01000000
,
10000000
01000000
00010000
00001000
,
00000010
00000001
00000010
00000100
,
00000010
00001000
00010000
00000100
,
00000110
00000000
00000001
00000000
,
00001000
00000100
00010000
01000000
,
10000000
00100000
01000000
00010000
,
00001000
00000010
00000100
00000001
,
00001001
00000000
00000000
00000000
;

//---------------dance-double - ----------------
#NOTEDATA:;
#CHARTNAME:;
#STEPSTYPE:dance-double;
#DESCRIPTION:;
#CHARTSTYLE:;
#DIFFICULTY:Hard;
#METER:15;
#RADARVALUES:0.719159,0.938175,0.355947,0.000000,0.258486,594.000000,552.000000,42.000000,0.000000,0.000000,0.000000,0.000000,0.000000,0.000000,0.719159,0.938175,0.355947,0.000000,0.258486,594.000000,552.000000,42.000000,0.000000,0.000000,0.000000,0.000000,0.000000,0.000000;
#CREDIT:MILEN;
#NOTES:
00000000
00000000
00000000
00000000
,
00000000
00000000
00000000
00000000
,
00000000
00000000
00000000
00000000
,
00000000
00000000
00000000
00000000
,
00000000
00000000
00000000
00000000
,
00001000
00010000
01000000
10000000
,
01000000
00010000
00001000
00000010
,
00000001
00000010
00001000
00010000
,
00100000
10000000
01000000
00100000
,
00110000
00001000
00011000
00000010
,
00001010
00010000
00011000
01000000
,
00100000
10000000
01000000
00010000
00001000
00000010
00000001
00000100
,
00000110
00000000
00000000
00000000
,
00000010
00010000
00001000
00010000
00000010
00001000
00000010
00010000
,
00001000
00010000
00100000
10000000
01000000
00000000
01100000
00000000
,
00100000
00001000
00010000
00001000
00100000
00010000
00100000
00001000
,
00010000
00001000
00000010
00000001
00000100
00000000
00000110
00000000
,
00000010
00010000
00001000
00000100
00001000
00010000
01000000
00010000
,
00001000
01000000
00100000
10000000
01000000
00000000
01100000
00000000
,
00100000
00010000
01000000
00001000
00010000
00000100
00000010
00000000
,
00000011
00000000
00000000
00000000
00000000
00000000
00001100
00000000
00000000
00000000
00000000
00000000
00000100
00010000
00000100
00010000
,
00001000
00100000
01000000
10000000
00100000
01000000
10000000
01000000
,
00010000
00100000
01000000
00010000
00001000
00000100
00000110
00000000
,
00000010
00001000
00000100
00000001
00000100
00000010
00000001
00000100
,
00001000
00010000
00001000
00100000
01000000
10000000
10100000
01000000
,
01010000
00010000
00100000
01000000
00010000
00001000
00010000
00000100
,
00000010
00000001
00000010
00001000
00010000
00100000
10100000
00000000
,
11000000
01100000
00110000
00011000
,
00001000
00100000
00010000
00000000
00100000
00001000
00010000
00000000
00000010
00010000
00001000
00000000
00010000
00000010
00001000
00000000
,
00001001
00000001
00000100
00001000
00010000
00001000
00000100
00000001
,
00000010
00001000
00010000
00001000
00000010
00000001
00000100
00001000
,
00010000
00100000
10000000
01000000
00010000
00001000
00000010
00000001
,
00000100
00001000
00010000
00001000
00000100
00001000
00010000
01000000
,
10010000
10000000
00100000
00010000
00001000
00010000
00100000
10000000
,
01000000
00010000
00001000
00010000
01000000
10000000
00100000
00010000
,
00001000
00000100
00000001
00000010
00001000
00010000
00001000
00000100
,
00000110
00000000
00000000
00000000
00000000
00000000
00001001
00000000
00000000
00000000
00000000
00000000
00000001
00000010
00000001
00000010
,
00000100
00010000
00001000
00000100
00010000
01000000
00100000
10000000
,
01000000
00100000
00001000
00010000
00100000
00001000
00000010
00010000
,
00001000
00000100
00000001
00000010
00000100
00010000
00001000
00000100
,
00000001
00000001
00000010
00000010
00000100
00000100
00001000
00010000
,
01010000
10000000
01000000
00100000
00010000
01000000
00001000
00000100
,
00000001
00000010
00000100
00001000
00000010
00010000
00100000
10000000
,
01000000
01000000
00100000
00100000
00010000
00010000
00001000
00001000
,
00000010
00000100
00000001
00000000
00000100
00000010
00001000
00000000
00000100
00010000
00000100
00010000
00001000
01000000
00001000
01000000
,
00100000
00000000
10000000
00000000
,
01000000
00000000
00100000
00000000
,
00010000
00000000
00001000
00000000
,
00000100
00000000
00000010
00000000
,
00000001
00000100
00001000
00100000
,
00001000
00000100
00010000
00001000
,
01000000
00010000
00000010
00010000
,
01000000
00100000
10000000
01000000
,
01100000
00100000
00101000
00001000
,
00011000
00010000
00010010
00000010
,
00000110
00000100
00000101
00000001
,
00000011
00001000
00011000
00100000
,
10100000
00000000
10000000
01000000
00010000
00000000
00010010
00000000
,
00101000
00000000
00001000
00000100
00000001
00000000
00000110
00000000
,
00001000
00001000
00010000
00010000
01000000
01000000
10000000
10000000
,
00100000
01000000
00010000
00000000
01000000
00100000
10000000
00000000
01000000
00010000
01000000
00010000
00001000
00010000
00001000
00010000
,
00000010
00000000
00000000
00000000
00000000
00000100
00000001
00000010
,
00000001
00000100
00000001
00000000
00001000
00000000
00000100
00000000
00000010
00000000
00000001
00000000
00000100
00000000
00001000
00000000
,
00010000
00001000
00010000
00000000
00100000
00000000
01000000
00000000
00100000
00000000
10000000
00000000
01000000
00000000
00100000
00000000
,
00010000
01000000
00010000
00000000
10000000
00000000
00100000
00000000
01000000
00000000
00010000
00000000
00100000
00000000
01000000
00000000
,
00010000
00001000
00010000
00000000
00000100
00000000
00000010
00000000
00000001
00000000
00000100
00000000
00001000
00000000
00010000
00000000
,
00001000
00100000
00001000
00000000
00010000
00000000
00100000
00000000
10000000
00000000
01000000
00000000
00100000
00000000
01000000
00000000
,
00010000
00001000
00010000
00000000
01000000
00000000
10000000
00000000
00100000
00000000
00010000
00000000
00001000
00000000
00000100
00000000
,
00000001
00000010
00000001
00000000
00000010
00000000
00000100
00000000
00001000
00000000
00010000
00000000
01000000
00000000
00100000
00000000
,
10100000
00000000
00000000
01010000
00000000
00000000
00101000
00000000
00000000
00011000
00000000
00000000
00000100
00001000
00000100
00001000
,
00000001
00000100
00000010
00000000
00001000
00000000
00000100
00000000
00000010
00000000
00000001
00000000
00000100
00000000
00001000
00000000
,
00010000
00001000
00010000
00000000
00100000
01000000
00100000
00000000
10000000
01000000
10000000
00000000
00010000
01000000
00010000
00000000
,
10000000
01000000
00100000
00000000
00010000
00000000
01000000
00000000
00001000
00000000
00010000
00000000
00001000
00000000
00000010
00000000
,
00000001
00000100
00000001
00000000
00000010
00000100
00000010
00000000
00001000
00010000
00001000
00000000
00100000
00010000
00100000
00000000
,
00010000
01000000
00100000
00000000
00010000
00000000
00100000
00000000
10000000
00000000
01000000
00000000
00100000
00000000
00010000
00000000
,
01000000
00001000
01000000
00000000
00001000
00010000
00001000
00000000
00010000
00000100
00010000
00000000
00000100
00000010
00000100
00000000
,
00000001
00001100
00010000
10100000
,
10000000
00000000
01000000
00000000
00100000
00000000
00010000
00000000
00100000
00001000
00010000
00000000
00001000
00010000
00000100
00000000
,
00000010
00001000
00010000
00001000
00000010
00001000
00010000
00001000
,
00000010
00000001
00000010
00000000
00000001
00000100
00000001
00000000
00000100
00001000
00000100
00000000
00001000
00010000
00001000
00000000
,
00010000
00100000
01000000
00100000
00010000
00000000
00001000
00000000
00010000
00100000
01000000
00100000
00010000
00000000
00000010
00000000
,
00001000
00000100
00000010
00000000
00000001
00000100
00000010
00000000
00001000
00000100
00010000
00000000
00001000
00010000
00100000
01000000
,
01100000
00000000
00000000
00000000
;

//---------------dance-double - ----------------
#NOTEDATA:;
#CHARTNAME:;
#STEPSTYPE:dance-double;
#DESCRIPTION:;
#CHARTSTYLE:;
#DIFFICULTY:Medium;
#METER:11;
#RADARVALUES:0.513339,0.625450,0.228823,0.000000,0.008475,424.000000,397.000000,27.000000,0.000000,0.000000,0.000000,0.000000,0.000000,0.000000,0.513339,0.625450,0.228823,0.000000,0.008475,424.000000,397.000000,27.000000,0.000000,0.000000,0.000000,0.000000,0.000000,0.000000;
#CREDIT:MILEN;
#NOTES:
00000000
00000000
00000000
00000000
,
00000000
00000000
00000000
00000000
,
00000000
00000000
00000000
00000000
,
00000000
00000000
00000000
00000000
,
00000000
00000000
00000000
00000000
,
00010000
00000100
00001000
00000010
,
00010000
00001000
00100000
00010000
,
01000000
00001000
00010000
00000100
,
00001000
00000010
00010000
00011000
,
00001000
00100000
00010000
00000000
00100000
00000000
00001000
00000000
,
00010000
00000100
00001000
00000000
00000100
00000000
00010000
00000000
,
00001000
00100000
00010000
01000000
00100000
10000000
01000000
00100000
,
10010000
00000000
00000000
00000000
,
00010000
01000000
00001000
00010000
,
00000100
00000010
00000001
00000000
00001000
00000100
00000010
00000000
,
00001000
00010000
00100000
10000000
,
01000000
00100000
00010000
00000000
10000000
01000000
00100000
00010000
,
01010000
10000000
00100000
01000000
,
00010000
00100000
00001000
00000000
00010000
00000100
00001000
00000000
,
00000010
00000100
00000001
00001000
,
00001100
00000000
00000000
00011000
00000000
00000000
01010000
01000000
,
00100000
10000000
00010000
01000000
,
00100000
01000000
10000000
00000000
00010000
00100000
01000000
00000000
,
00010000
00100000
00001000
00010000
,
00000100
00000010
00000001
00000000
00001000
00000100
00000010
00000001
,
00000101
00001000
00000010
00000001
,
00000010
00000100
00001000
00000000
00000100
00001000
00010000
00000000
,
00100000
00100000
10000000
10000000
,
01000000
00100000
00001000
00010000
00000100
00000010
00000001
00001000
,
00000100
00010000
00001000
00101000
,
00100000
00010000
01000000
01100000
,
00100000
10000000
01000000
11000000
,
10000000
00100000
00010000
00000000
00100000
00010000
00001000
00000000
,
00011000
00010000
00000100
00001000
,
00001010
00000010
00000100
00000001
,
00000011
00000010
00001000
00010000
,
00010100
00000000
00000000
01001000
00000000
00000000
00011000
00010000
,
00001000
00010000
00100000
00000000
00100000
10000000
00100000
00000000
,
10000000
01000000
10000000
00000000
01000000
00010000
01000000
00000000
,
00010000
00001000
00010000
00000000
00001000
00000010
00001000
00000000
,
00000010
00000001
00000000
00000100
00000001
00000010
00001001
00000000
,
00001000
00000010
00001000
00000000
00000100
00010000
00000100
00000000
,
00010000
00001000
00010000
00000000
00001000
01000000
00001000
00000000
,
00010000
00100000
10000000
01000000
,
00100000
01000000
10000000
00100000
01000000
00001000
00010000
00000100
,
00000110
00000001
00000000
00001000
00000000
00000100
00000000
00010000
,
00000000
00001000
00000000
00000100
00000000
00001000
00000000
00010000
,
00000000
01000000
00000000
00010000
00000000
00001000
00000000
01000000
,
00000000
00010000
00000000
10000000
00000000
01000000
00000000
00100000
,
00000000
00001000
00000000
00010000
00000000
00100000
00000000
00001000
,
00000000
00000010
00000000
00010000
00000000
00001000
00000000
00000100
,
00000000
00010000
00000000
01000000
00000000
00100000
00000000
00010000
,
00000000
00001000
00000000
00000010
00000000
00000001
00000000
00000100
,
00000010
00010000
00001000
00011000
,
00010000
00001000
01000000
01100000
,
00100000
10000000
01000000
01010000
,
00010000
00001000
00000010
00000011
,
00000001
00000100
00000010
00000000
00001000
00000100
00010000
00000000
,
00001000
00010000
00100000
00000000
01000000
00100000
10000000
00000000
,
01000000
00100000
00010000
01000000
00100000
01000000
00001000
00010000
,
00000010
00000100
00000010
00001000
00000100
00000010
00000001
00001000
,
00001100
00000000
00000000
00000000
,
00000100
00000010
00000001
00000000
00000100
00000000
00001000
00000000
,
00010000
00001000
00100000
00000000
00010000
00000000
00100000
00000000
,
01000000
10000000
00100000
00000000
01000000
00000000
00100000
00000000
,
00010000
00001000
00100000
00000000
00001000
00000000
00010000
00000000
,
00000100
00000010
00000001
00000000
00000100
00000000
00001000
00000000
,
00010000
00001000
00100000
00000000
01000000
00000000
10000000
00000000
,
00100000
01000000
01100000
00000000
00010000
00000000
00001000
00000000
,
00000010
00000000
00000000
00000100
00000000
00000000
00000010
00000000
00000000
00000100
00000000
00000000
00000001
00000000
00000001
00000000
,
00000010
00000100
00001000
00000000
00000100
00010000
00001000
00000000
,
00010000
00001000
00100000
00000000
00010000
00100000
01000000
00000000
,
10000000
00100000
00010000
00000000
00100000
01000000
00010000
00000000
,
00100000
00001000
00010000
00000000
00001000
00010000
00000100
00000000
,
00000010
00000100
00001000
00000000
00000010
00000100
00000001
00000000
,
00000010
00001000
00010000
00000000
00001000
00010000
00100000
00000000
,
10000000
01000000
00100000
01000000
00010000
00001000
00000100
00000000
,
00000001
00000010
00000100
00000010
00001000
00010000
00100000
00000000
,
10000000
00000000
01000000
00100000
00110000
00000000
00010000
01000000
,
00001000
00010000
00000100
00000010
00000001
00000000
00000101
00000000
,
00000100
00001000
00010000
00001000
00100000
01000000
10000000
00100000
,
00010000
00001000
00010000
00000100
00000010
00000001
00000100
00001000
,
00011000
00000000
00000000
00000000
;
