#VERSION:0.83;
#TITLE:Vector;
#SUBTITLE:;
#ARTIST:Zekk;
#TITLETRANSLIT:;
#SUBTITLETRANSLIT:;
#ARTISTTRANSLIT:;
#GENRE:VARIETY;
#ORIGIN:;
#CREDIT:MUINELIM;
#BANNER:Vector.png;
#BACKGROUND:Vector-bg.png;
#PREVIEWVID:;
#JACKET:Vector-jacket.png;
#CDIMAGE:;
#DISCIMAGE:;
#LYRICSPATH:;
#CDTITLE:;
#MUSIC:Vector.mp3;
#OFFSET:-0.398000;
#SAMPLESTART:66.487991;
#SAMPLELENGTH:11.859997;
#SELECTABLE:YES;
#DISPLAYBPM:178.000000;
#BPMS:0.000=178.000;
#STOPS:32.000=0.674;
#DELAYS:;
#WARPS:;
#TIMESIGNATURES:0.000=4=4;
#TICKCOUNTS:0.000=4;
#COMBOS:0.000=1;
#SPEEDS:0.000=1.000=0.000=0;
#SCROLLS:0.000=1.000;
#FAKES:;
#LABELS:0.000=Song Start;
#BGCHANGES:-4.272=Vector-bg.png=1.000=0=0=1=Centered====,
-0.400=Vector.avi=1.000=0=0=0=StretchNoLoop====,
99999=-nosongbg-=1.000=0=0=0 // don't automatically add -songbackground-
;
#KEYSOUNDS:;
#ATTACKS:
;

//---------------dance-single - ----------------
#NOTEDATA:;
#CHARTNAME:;
#STEPSTYPE:dance-single;
#DESCRIPTION:;
#CHARTSTYLE:;
#DIFFICULTY:Hard;
#METER:16;
#RADARVALUES:0.759824,0.966816,0.240951,0.196330,0.441743,596.000000,569.000000,27.000000,22.000000,0.000000,0.000000,0.000000,0.000000,0.000000,0.759824,0.966816,0.240951,0.196330,0.441743,596.000000,569.000000,27.000000,22.000000,0.000000,0.000000,0.000000,0.000000,0.000000;
#CREDIT:MILEN;
#DISPLAYBPM:178.000000;
#NOTES:
0000
0000
0000
0000
,
0000
0000
0000
0000
,
0000
0000
0000
0000
,
0000
0000
0000
0000
,
0000
0000
0000
0000
,
0100
0010
1001
0000
1000
0010
0100
0001
,
1000
0000
0001
0100
0010
1000
0001
0000
,
1000
0000
0100
0000
0010
0000
0001
0000
1000
0001
1000
0001
1000
0001
1000
0001
,
2000
0000
0000
0000
3001
0000
0000
0000
0001
0000
0200
0000
0000
0000
0310
1000
,
0010
0000
0100
0000
0001
0000
0010
0000
0000
0000
0200
0000
0000
0000
1300
0010
,
1000
0000
0100
0000
0010
0000
0001
0010
0001
0000
0200
0000
0000
0000
0301
1000
,
0001
0000
1000
0000
0010
0000
0100
0000
0000
0000
0002
0000
0000
0000
0013
0100
,
0010
0000
0100
0000
1000
0010
1000
0010
0100
0000
0001
0000
0100
0000
0001
0000
,
0100
0000
0001
0000
0100
0000
0010
0100
0010
0000
1000
0000
0010
0000
1000
0000
,
0010
0000
1000
0000
0010
0000
0100
0010
0100
0000
0001
1000
0001
0000
0010
0001
,
0010
0000
0100
1000
0100
0000
0010
0000
0110
0000
0100
0000
1000
0000
0001
0000
,
0010
0100
0010
0100
1000
0000
0010
0100
0002
0000
0000
0000
1003
0000
0100
0000
,
0010
0000
1000
0100
0001
0000
1000
0100
,
0010
0000
1000
0100
0001
0000
1000
0010
,
0001
0000
0000
0000
0100
0000
0010
0000
1000
0001
1000
0000
0010
0000
0100
0010
,
0000
1000
0100
0010
1001
0000
0001
0100
,
0010
0000
0001
0100
1000
0000
0001
0100
,
0010
0000
0000
0000
0001
0000
0100
0000
1000
0000
0000
0000
1100
0000
0000
0101
,
0000
0001
0010
0100
0220
0000
0000
0000
,
0330
0000
0000
0000
1000
0010
0100
0001
2000
0000
0000
0000
3001
0000
0010
0000
,
0100
0000
0001
0010
1000
0000
0001
0010
,
0100
0000
0001
0010
1000
0000
0001
0100
,
1000
0000
0000
0000
0010
0000
0100
0000
0001
1000
0001
0000
0100
0000
0010
1000
,
0000
0100
0010
0001
1001
0000
1010
0000
,
0101
0000
0000
0000
0001
0000
0010
0100
0010
0000
0100
0000
1000
0000
0001
0000
,
0010
0100
1000
0001
0100
0100
0010
0010
,
1000
0001
1000
0001
1000
0001
1000
0001
1000
0100
0010
0001
0000
0100
0010
0000
,
0100
0001
1000
0000
0120
0000
0000
0000
2030
0000
0000
0000
0000
0000
0000
0000
,
0000
3000
0200
0000
,
0000
0300
0002
0000
,
0000
0003
0020
0000
,
0000
0000
0030
0000
1010
0000
1000
0100
,
0000
1000
0010
0000
0011
0000
0001
0010
,
0000
0001
0100
0000
1100
0000
1000
0010
,
0000
0000
0001
0000
0100
0000
0000
0000
0110
0000
0000
0000
1000
0000
0010
0100
,
0000
0010
1000
0001
0101
0000
0100
0010
,
0000
0100
0001
0010
0000
0100
1000
0010
,
0000
0100
0001
1000
0000
0010
1000
0001
,
0000
0010
0100
1000
0000
0001
0010
0100
,
0000
1000
0010
0100
0110
0001
1000
0100
,
0000
0000
1000
0000
0001
0000
0010
0100
0010
0000
0001
0000
0100
0000
0010
0000
,
0000
0000
1000
0000
0010
0000
0100
0010
0100
0000
0001
0000
0010
0000
0100
0000
,
1000
0010
0100
0001
2000
0000
0000
0000
,
3010
0100
0010
0100
0001
0000
0010
0100
1000
0000
0010
0000
0001
0000
0010
0000
,
1000
0000
0100
0000
0001
0000
0100
0000
1000
0010
0100
0000
0001
0000
0010
0000
,
1000
0000
0010
0000
0001
0000
0100
0000
0010
1000
0100
0000
0001
0000
0100
0000
,
1000
0000
0010
0000
0001
0000
0010
0000
1000
0100
0010
0000
0001
0000
0100
0000
,
1000
0000
0100
0000
0001
0000
0010
0000
0100
0010
0001
0000
1000
0000
0010
0000
,
0001
0000
0010
0000
1000
0000
0100
0000
0010
0001
0100
0000
1000
0000
0100
0000
,
0001
0000
0010
0000
1000
0000
0010
0000
0001
0100
0010
0000
1000
0000
0100
0000
,
0001
0000
0100
0000
1000
0000
0010
0000
0100
0001
1000
0010
0100
0000
0010
0000
,
0200
0000
0000
0000
0301
0000
0001
0010
0100
1000
0100
0000
1000
0000
0010
0100
,
0000
0100
0001
0000
1000
0000
0100
0010
0000
0010
0001
0000
0100
0010
1000
0000
,
0010
0000
0100
0000
0001
0000
1000
0000
0100
1000
0010
0000
0100
0000
0001
0010
,
0000
0010
0100
0000
1000
0000
0001
0100
0000
0100
0010
0000
1000
0100
1000
0100
,
1000
0001
0000
0010
0001
0000
0100
0000
0010
1000
0100
0000
0010
0001
0100
0000
,
0010
0100
0010
0000
1000
0010
1000
0010
0100
0001
0100
0000
0001
0010
0100
0000
,
1000
0100
0010
0000
0001
0010
0001
0010
0100
1000
0200
0000
0000
0000
0001
0000
,
0000
1000
0000
0310
0110
0001
0100
0010
,
2000
0000
0000
0000
3001
0010
0100
0010
0001
0000
0000
0000
0101
0000
0000
0000
,
1100
0000
0000
0000
1000
0000
1000
0000
0010
0100
0000
0000
0001
0000
0001
0000
,
0100
0010
0000
0000
1000
0000
0001
0000
1000
0000
0000
0000
1100
0000
0000
0000
,
0101
0000
0000
0000
0001
0000
0001
0000
0010
0100
0000
0000
1000
0000
1000
0000
,
0100
0010
0000
0000
0001
0000
1000
0000
0001
0000
0000
0000
0011
0000
0000
0000
,
1010
0000
0000
0000
0100
0000
0100
0000
0001
0010
0000
0000
0100
0000
0100
0000
,
1000
0010
0000
0000
1000
0000
0001
0000
1000
0000
0000
0000
1100
0000
0000
0000
,
0101
0000
0000
0000
0010
0000
0010
0000
1000
0100
0000
0000
0010
0000
0001
0000
,
0200
0000
0000
0000
0310
0000
0010
1000
0001
0000
0100
0000
1000
0000
0100
0000
,
0001
0000
0010
0000
0100
0000
0010
0000
0001
0100
0000
0000
0010
0000
1000
0000
,
0100
0010
0000
0000
0001
0000
1000
0000
0010
0000
0001
0000
0010
0000
1000
0000
,
0100
0000
0010
0000
0001
0000
0100
0000
0010
1000
0000
0000
0100
0000
0010
0000
,
0001
0100
0000
0000
0010
1000
0010
0000
2010
0000
0000
0000
3200
0000
0000
0000
,
0320
0000
0000
0000
0031
0000
0001
0000
1000
0010
0000
0000
1000
0000
1000
0000
,
0001
0100
0000
0000
0001
0000
1000
0000
0010
0000
0010
0000
0100
0000
0100
0000
,
0001
0010
0001
0010
0100
1000
0100
1000
0010
0000
0100
0000
0110
0000
0001
0000
,
1000
0100
0010
0001
0100
0000
0000
0000
0000
0000
0000
0000
0000
0000
0000
0000
;

//---------------dance-double - ----------------
#NOTEDATA:;
#CHARTNAME:;
#STEPSTYPE:dance-double;
#DESCRIPTION:;
#CHARTSTYLE:;
#DIFFICULTY:Hard;
#METER:15;
#RADARVALUES:0.744526,0.931008,0.223103,0.214179,0.397123,584.000000,559.000000,25.000000,24.000000,0.000000,0.000000,0.000000,0.000000,0.000000,0.744526,0.931008,0.223103,0.214179,0.397123,584.000000,559.000000,25.000000,24.000000,0.000000,0.000000,0.000000,0.000000,0.000000;
#CREDIT:MILEN;
#DISPLAYBPM:178.000000;
#NOTES:
00000000
00000000
00000000
00000000
,
00000000
00000000
00000000
00000000
,
00000000
00000000
00000000
00000000
,
00000000
00000000
00000000
00000000
,
00000000
00000000
00000000
00000000
,
00001000
00010000
00011000
00000000
00100000
00010000
01000000
00001000
,
00010000
00000000
00000100
00001000
00000010
00010000
00001000
00000000
,
00100000
00000000
00010000
00000000
01000000
00000000
00001000
00000000
00010000
00001000
00010000
00001000
00010000
00001000
00010000
00001000
,
00020000
00000000
00030100
00000000
00000100
00002000
00000000
00003100
,
00000010
00000001
00000100
00001000
00000000
00020000
00000000
00031000
,
00100000
00000000
01000000
00000000
10000000
00000000
00100000
01000000
00100000
00000000
02000000
00000000
00000000
00000000
03010000
00000000
,
00100000
01000000
00010000
00001000
00000000
00020000
00000000
00030100
,
00001000
00000000
00000010
00000000
00000100
00000001
00000100
00000001
00001000
00000000
00000100
00000000
00001000
00000000
00000100
00000000
,
00001000
00000000
00000100
00000000
00010000
00000000
00001000
00010000
00001000
00000000
00100000
00000000
00010000
00000000
00100000
00000000
,
00010000
00000000
00100000
00000000
00010000
00000000
01000000
00100000
01000000
00000000
00100000
00000000
10000000
00000000
01000000
00000000
,
00010000
00001000
00000010
00000001
00001001
00001000
00000010
00010000
,
00001000
00010000
00001000
00010000
00001000
00000000
00100000
00010000
02000000
00000000
00000000
00000000
03100000
00000000
10000000
00000000
,
01000000
00000000
10000000
01000000
00010000
00000000
01000000
00010000
,
00001000
00000000
00010000
00001000
00000100
00000000
00001000
00000100
,
00000001
00000000
00000000
00000000
00000100
00000000
00000001
00000000
00000010
00000100
00000010
00000000
00001000
00000000
00010000
00001000
,
00000000
00000010
00000001
00001000
00001001
00000000
00000100
00000001
,
00000010
00000000
00000001
00000010
00001000
00000000
00000010
00001000
,
00010000
00000000
00000000
00000000
00001000
00000000
00010000
00000000
00100000
00000000
00000000
00000000
10100000
00000000
00000000
11000000
,
00000000
01000000
00100000
00010000
20020000
00000000
00000000
00000000
,
30030000
00000000
00000000
00000000
00010000
01000000
00010000
01000000
00002000
00000000
00000000
00000000
00013000
00000000
00000100
00000000
,
00001000
00000000
00000010
00010000
00001000
00000000
01000000
00001000
,
00010000
00000000
00000100
00001000
00000010
00000000
00000100
00000001
,
00000010
00000000
00000000
00000000
00001000
00000000
00010000
00000000
00100000
01000000
00100000
00000000
10000000
00000000
01000000
00100000
,
00000000
00010000
01000000
00001000
00011000
00000000
00100000
00000000
,
10010000
00000000
00000000
00000000
10000000
00000000
01000000
00100000
01000000
00000000
00010000
00000000
00001000
00000000
00000010
00000000
,
00000100
00000010
00000001
00000100
00001000
00001000
00010000
00010000
,
00001000
00010000
00001000
00010000
00001000
00010000
00001000
00010000
00100000
01000000
00100000
01000000
00000000
00100000
10000000
00000000
,
01000000
00010000
00001000
00000000
00020000
00000000
00000000
00000000
00230000
00000000
00000000
00000000
00000000
00000000
00000000
00000000
,
00000000
00300000
00020000
00000000
,
00000000
00030000
00002000
00000000
,
00000000
00003000
00000020
00000000
,
00000000
00000000
00000030
00000000
00000011
00000000
00000001
00000100
,
00000000
00000100
00001000
00000000
00011000
00000000
00010000
00100000
,
00000000
00100000
10000000
00000000
11000000
00000000
01000000
00010000
,
00000000
00000000
00010000
00000000
00001000
00000000
00000000
00000000
00011000
00000000
00000000
00000000
00010000
00000000
00000100
00001000
,
00000000
00000100
00000010
00000001
00001001
00000000
00000010
00000100
,
00000000
00000010
00010000
00001000
00000000
01000000
00001000
00010000
,
00000000
00000100
00010000
00001000
00000000
00100000
00001000
00010000
,
00000000
00000100
00000010
00000001
00000000
00000100
00001000
00010000
,
00000000
00100000
01000000
00100000
01100000
10000000
01000000
00010000
,
00000000
00000000
00001000
00000000
00000010
00000000
00000001
00000100
00000001
00000000
00001000
00000000
00000100
00000000
00000010
00000000
,
00000000
00000000
00000001
00000000
00000100
00000000
00001000
00010000
00001000
00000000
00100000
00000000
00010000
00000000
00100000
00000000
,
01000000
10000000
00100000
01000000
00020000
00000000
00000000
00000000
,
10030000
01000000
10000000
01000000
00100000
00000000
01000000
00100000
00010000
00000000
00100000
00000000
00001000
00000000
00010000
00000000
,
00000100
00000000
00001000
00000000
00000010
00000000
00000100
00000000
00000001
00000010
00000001
00000000
00000100
00000000
00000010
00000000
,
00001000
00000000
00000100
00000000
00010000
00000000
00001000
00000000
00100000
00010000
00100000
00000000
00010000
00000000
01000000
00000000
,
00100000
00000000
10000000
00000000
01000000
00000000
10000000
00000000
00100000
01000000
00100000
00000000
01000000
00000000
00010000
00000000
,
00100000
00000000
00001000
00000000
00010000
00000000
00000100
00000000
00001000
00000010
00001000
00000000
00000001
00000000
00000100
00000000
,
00000010
00000000
00010000
00000000
00001000
00000000
01000000
00000000
00100000
10000000
00100000
00000000
01000000
00000000
00001000
00000000
,
00010000
00000000
00000010
00000000
00001000
00000000
00000100
00000000
00000010
00000001
00000010
00000000
00000100
00000000
00001000
00000000
,
00000010
00000000
00010000
00000000
00001000
00000000
00100000
00000000
00010000
00100000
00010000
00100000
01000000
00000000
10000000
00000000
,
00200000
00000000
00000000
00000000
01300000
00000000
00010000
00100000
00010000
00100000
00001000
00000000
00010000
00000000
00000100
00001000
,
00000000
00001000
00000001
00000000
00001000
00000000
00000100
00001000
00000000
00001000
00000001
00000000
00000100
00000010
00000100
00000000
,
00000010
00000000
00010000
00000000
00001000
00000000
01000000
00000000
00100000
01000000
00100000
00000000
10000000
00000000
01000000
00100000
,
00000000
00100000
00010000
00000000
10000000
00000000
01000000
00100000
00000000
00100000
00010000
00000000
00100000
00001000
00100000
00000000
,
00001000
00010000
00000000
00010000
00001000
00000000
00000100
00000000
00000001
00000010
00000001
00000000
00001000
00000100
00001000
00000000
,
00000010
00000100
00000010
00000000
00010000
00001000
00010000
00001000
00010000
00000000
01000000
00000000
10000000
00100000
10000000
00000000
,
00010000
01000000
00010000
00000000
10000000
01000000
10000000
01000000
10000000
00000000
00200000
00000000
00000000
00000000
00320000
00000000
,
00000000
00032000
00000000
00003100
00000110
00000001
00000010
00000100
,
00002000
00000000
00000000
00000000
00003010
00010000
00001000
00010000
00001000
00000000
00000000
00000000
00011000
00000000
00000000
00000000
,
01001000
00000000
00000000
00000000
00001000
00000000
00010000
00000000
00100000
01000000
00000000
00000000
00100000
00000000
00010000
00000000
,
00001000
00010000
00000000
00000000
00001000
00000000
00001000
00000000
00010000
00000000
00000000
00000000
00011000
00000000
00000000
00000000
,
00010010
00000000
00000000
00000000
00010000
00000000
00001000
00000000
00000100
00000010
00000000
00000000
00000100
00000000
00001000
00000000
,
00010000
00001000
00000000
00000000
00010000
00000000
00010000
00000000
00001000
00000000
00000000
00000000
00101000
00000000
00000000
00000000
,
00010100
00000000
00000000
00000000
00010000
00000000
00001000
00000000
00000010
00000100
00000000
00000000
00000010
00000000
00001000
00000000
,
00010000
00001000
00000000
00000000
00010000
00000000
00001000
00000000
00010000
00000000
00000000
00000000
00010010
00000000
00000000
00000000
,
01001000
00000000
00000000
00000000
00001000
00000000
00010000
00000000
01000000
00100000
00000000
00000000
01000000
00000000
10000000
00000000
,
00200000
00000000
00000000
00000000
00310000
00000000
00001000
00010000
00001000
00000000
00000100
00000000
00000010
00000000
00001000
00000000
,
00000100
00000000
00000010
00000000
00000001
00000000
00000100
00000000
00001000
00010000
00000000
00000000
00001000
00000000
00000100
00000000
,
00000001
00000010
00000000
00000000
00001000
00000000
00010000
00000000
00100000
00000000
01000000
00000000
00010000
00000000
00100000
00000000
,
01000000
00000000
10000000
00000000
00100000
00000000
00010000
00000000
00100000
10000000
00000000
00000000
01000000
00000000
00010000
00000000
,
00001000
00010000
00000000
00000000
00001000
00010000
00000100
00000000
00002100
00000000
00000000
00000000
00003002
00000000
00000000
00000000
,
00000023
00000000
00000000
00000000
00001030
00000000
00010000
00000000
00100000
01000000
00000000
00000000
00100000
00000000
00010000
00000000
,
00001000
00000100
00000000
00000000
00000001
00000000
00000010
00000000
00001000
00000000
00001000
00000000
00010000
00000000
00010000
00000000
,
01000000
10000000
01000000
10000000
00010000
00100000
00010000
00100000
00001000
00000000
00010000
00000000
00011000
00000000
00001000
00000000
,
00010000
00000010
00001000
00000001
00000100
00000000
00000000
00000000
00000000
00000000
00000000
00000000
00000000
00000000
00000000
00000000
;

//---------------dance-single - ----------------
#NOTEDATA:;
#CHARTNAME:;
#STEPSTYPE:dance-single;
#DESCRIPTION:;
#CHARTSTYLE:;
#DIFFICULTY:Beginner;
#METER:4;
#RADARVALUES:0.167008,0.250656,0.017848,0.000000,0.000000,131.000000,129.000000,2.000000,0.000000,0.000000,0.000000,0.000000,0.000000,0.000000,0.167008,0.250656,0.017848,0.000000,0.000000,131.000000,129.000000,2.000000,0.000000,0.000000,0.000000,0.000000,0.000000,0.000000;
#CREDIT:MILEN;
#DISPLAYBPM:178.000000;
#NOTES:
0000
0000
0000
0000
,
0000
0000
0000
0000
,
0000
0000
0000
0000
,
0000
0000
0000
0000
,
0000
0000
0000
0000
,
0100
0000
0100
0000
,
0010
0000
0010
0000
,
1000
0000
0001
0000
,
1001
0000
1000
0000
,
0000
0000
0000
0000
,
0000
0000
0001
0000
,
0000
0000
0000
0000
,
0000
0000
1000
0000
,
1000
0000
0001
0000
,
0001
0000
1000
1000
,
1000
1000
1000
0000
,
0000
0000
0100
0000
,
0010
0000
0100
0000
,
0010
0000
0100
0000
,
0010
0000
0100
0000
,
0000
0000
1000
0000
,
0001
0000
1000
0000
,
0001
0000
1000
0000
,
1000
0000
0001
0000
,
0001
0000
0010
0000
,
0100
0000
0010
0000
,
0100
0000
0010
0000
,
0100
0000
0010
0000
,
0000
0000
0001
0000
,
0000
0000
1000
0000
,
0000
0000
0001
0001
,
0001
0001
0001
0000
,
0000
0000
1001
0000
,
0000
0000
0000
0000
,
0000
0000
0000
0000
,
0000
0000
0000
0000
,
0000
0000
0100
0000
,
0000
0000
0010
0000
,
0000
0000
1000
0000
,
0000
0000
0001
0000
,
0000
0000
0100
0000
,
0100
0000
0100
0000
,
0100
0000
0010
0000
,
0010
0000
0010
0000
,
0010
0000
1000
0000
,
0000
0000
0001
0000
,
0000
0000
1000
0000
,
0001
0000
1000
0000
,
0000
0010
0010
0000
,
1000
0000
0010
0000
,
1000
0000
0001
0000
,
0100
0000
0001
0000
,
0100
0000
0001
0000
,
0010
0000
0001
0000
,
0010
0000
0100
0000
,
1000
0000
0100
0000
,
0000
0100
0100
0000
,
1000
0000
0010
0000
,
1000
0000
0100
0000
,
0010
0000
0001
0000
,
0100
0000
0001
0000
,
0010
0000
0010
0000
,
0100
0000
0100
0000
,
0000
0000
0000
1000
,
1000
0000
0001
0000
,
1000
0000
0001
0000
,
1000
0000
0001
0000
,
0100
0000
1000
0000
,
0100
0000
0001
0000
,
1000
0000
0001
0000
,
1000
0000
0010
0000
,
0001
0000
0010
0000
,
1000
0000
0100
0000
,
0010
0000
0001
0000
,
1000
0000
0010
0000
,
0100
0000
0001
0000
,
0010
0000
0100
0000
,
0000
0000
0100
0000
,
0000
0000
0100
0000
,
0100
0000
0100
0100
,
0100
0100
0000
0000
;

//---------------dance-single - ----------------
#NOTEDATA:;
#CHARTNAME:;
#STEPSTYPE:dance-single;
#DESCRIPTION:;
#CHARTSTYLE:;
#DIFFICULTY:Easy;
#METER:7;
#RADARVALUES:0.293221,0.358080,0.142786,0.080317,0.000000,230.000000,214.000000,16.000000,9.000000,0.000000,0.000000,0.000000,0.000000,0.000000,0.293221,0.358080,0.142786,0.080317,0.000000,230.000000,214.000000,16.000000,9.000000,0.000000,0.000000,0.000000,0.000000,0.000000;
#CREDIT:MILEN;
#DISPLAYBPM:178.000000;
#NOTES:
0000
0000
0000
0000
,
0000
0000
0000
0000
,
0000
0000
0000
0000
,
0000
0000
0000
0000
,
0000
0000
0000
0000
,
1001
1001
0000
1000
,
0000
0001
0000
0100
,
0010
0010
0010
0010
,
1001
0000
1000
0000
,
0000
0000
0000
0000
,
0000
0000
0001
0000
,
0000
0000
0000
0000
,
0000
0000
0100
0000
,
0100
0000
0010
0000
,
0010
0000
0100
0010
,
0100
0010
0200
0000
,
0000
0300
0110
1000
,
0100
1000
0001
1000
,
0100
1000
0001
1000
,
0100
1000
0001
0000
,
1000
0000
1001
0001
,
0010
0001
1000
0001
,
0010
0001
1000
0000
,
0001
0000
0100
0010
,
0100
0010
0110
0001
,
0100
1000
0100
0001
,
0100
1000
0100
0001
,
0100
1000
0100
0000
,
0001
0000
1001
1000
,
0100
1000
0100
0010
,
0001
0010
0001
0001
,
0001
0001
0002
0000
,
0000
0003
1000
0000
,
0000
0000
0100
0000
,
0000
0000
0010
0000
,
0000
0000
0001
0000
,
0000
0000
1000
0000
,
1000
0000
0100
0000
,
0100
0000
0010
0000
,
0010
0000
0001
0000
,
0001
0000
1000
0001
,
0100
0000
0001
1000
,
0100
0000
1000
0001
,
0010
0000
0001
1000
,
0010
0000
1010
0000
,
1100
0000
0011
0000
,
0101
0000
2002
0000
,
0000
0000
3003
0000
,
0000
0110
1000
0100
,
0010
0100
1000
0100
,
0010
0010
0001
0010
,
0100
0010
0001
0010
,
0100
0100
1000
0010
,
0100
0010
1000
0010
,
0100
0100
0001
0100
,
0010
0100
0002
0003
,
1000
1001
0010
1000
,
0010
0001
0010
1000
,
0010
0001
0010
0100
,
0001
0100
1000
0100
,
0001
0100
1000
0100
,
0010
0002
0003
0010
,
0100
2000
3000
0100
,
0010
0001
2002
0000
,
0000
3003
1000
0000
,
0010
0000
0001
0000
,
0010
0000
1000
0000
,
0010
0000
0001
0000
,
0010
0100
0001
0000
,
0100
0000
1000
0000
,
0100
0000
0001
0000
,
0100
0000
1000
0100
,
0010
0110
1000
0100
,
0010
0001
1000
0100
,
0010
0010
0001
0010
,
0100
1000
0001
0010
,
0100
0100
1000
0010
,
0001
0000
0001
0100
,
1000
0000
1000
0010
,
0001
0100
1000
0001
,
0100
0010
0100
0000
0000
0000
0000
0000
;

//---------------dance-single - ----------------
#NOTEDATA:;
#CHARTNAME:;
#STEPSTYPE:dance-single;
#DESCRIPTION:;
#CHARTSTYLE:;
#DIFFICULTY:Medium;
#METER:12;
#RADARVALUES:0.562219,0.608736,0.187406,0.258799,0.013386,441.000000,420.000000,21.000000,29.000000,0.000000,0.000000,0.000000,0.000000,0.000000,0.562219,0.608736,0.187406,0.258799,0.013386,441.000000,420.000000,21.000000,29.000000,0.000000,0.000000,0.000000,0.000000,0.000000;
#CREDIT:MILEN;
#DISPLAYBPM:178.000000;
#NOTES:
0000
0000
0000
0000
,
0000
0000
0000
0000
,
0000
0000
0000
0000
,
0000
0000
0000
0000
,
0000
0000
0000
0000
,
1000
0001
1000
0000
0010
0000
0100
0010
,
0100
0000
0001
0000
1000
0000
0010
0100
,
0010
1000
0100
0010
0001
1000
0100
0010
,
1001
0000
0220
0330
0100
0001
0000
0001
,
1000
0000
1000
0010
0000
0200
0000
0301
,
0010
0100
1000
0000
0010
1000
0000
1000
,
0001
0000
0001
0100
0000
0020
0000
1030
,
0100
0010
0001
0000
1000
0010
0000
0010
,
0100
0010
0000
0100
0001
0100
0000
0001
,
1000
0001
0000
1000
0010
1000
0100
0010
,
0001
1000
0100
0010
0001
0000
1000
0000
,
0001
0000
1001
0000
0220
0330
1000
0100
,
0010
0000
0010
0001
0100
0000
0100
0010
,
1000
0000
1000
0001
0100
0000
0100
0001
,
0010
0000
0010
0100
1000
0010
0100
0010
,
0100
0001
0010
0000
0220
0330
0001
0010
,
0100
0000
0100
1000
0010
0000
0010
0100
,
0001
0000
0000
0000
0001
0000
1000
0000
0010
0000
0000
0000
0100
0000
0000
0100
,
0000
0100
0001
1000
2002
0000
0000
0000
,
3003
0000
0100
0010
2020
3030
0001
0010
,
0100
0000
0100
1000
0010
0000
0010
0100
,
0001
0000
0001
1000
0100
0000
0100
0010
,
0001
0000
0001
0100
0010
1000
0100
1000
,
0100
0010
0001
0100
0010
0000
0010
0000
,
1000
1000
0001
0001
,
0100
0000
0100
0000
0010
1000
0001
0100
,
0010
1000
0001
0200
0020
0000
0000
0000
,
0000
0330
1002
0000
,
0000
0003
0200
0000
,
0000
0300
0020
0000
,
0000
0030
2000
0000
,
0000
3000
0001
0010
,
0001
0010
0100
1000
,
0100
1000
0010
0100
,
0010
0000
0000
0000
0100
0000
0000
0000
1001
0000
0000
0000
1000
0000
0000
1000
,
0000
1000
0010
0100
0001
0000
0001
0000
,
0001
0001
0010
0010
,
0010
0010
1000
1000
,
1000
1000
0100
0100
,
0100
0000
0100
0010
0100
0001
0010
0100
,
0000
0100
1000
0010
0000
0010
0100
0001
,
0000
0001
1000
0100
0010
0001
1000
0010
,
0100
0001
0010
0100
2000
0000
0000
0000
,
0000
0000
3001
0000
0001
0100
0010
0000
,
0100
0001
0010
0000
0001
0100
1000
0000
,
0001
0010
1000
0000
0100
1000
0010
0000
,
0100
0010
1000
0000
0100
0010
0001
0100
,
1000
0100
0010
0000
1000
0100
0010
0000
,
0100
1000
0010
0000
0001
0010
1000
0000
,
0001
0100
1000
0000
0100
0001
0010
0000
,
0001
0100
0010
0000
1000
0100
0010
0001
,
2002
3003
0100
0100
0010
1000
0010
1000
,
0001
0100
0001
0100
1000
0100
0001
0010
,
0100
1000
0010
0100
0001
0010
0001
0010
,
0100
1000
0100
1000
0100
0001
0100
1000
,
0010
0000
0000
0010
0000
0000
0010
0000
0100
0000
0001
0000
0010
0000
0100
0000
,
1000
0001
0020
0000
0031
1000
0100
0010
,
0001
1000
0200
0000
1300
0010
0000
0011
,
0000
1100
0000
0100
0001
0000
0010
0100
,
2000
3002
0013
0011
,
0101
0000
0100
1000
0010
0000
0010
0001
,
0100
0000
0100
1000
0010
0000
1010
0000
,
1100
0000
0100
0001
0010
0000
0010
1000
,
0100
0000
0100
0001
0010
0000
0011
0000
,
1010
0000
1000
0010
0001
0000
0001
0100
,
1000
0000
1000
0010
0001
0000
0101
0000
,
1100
0000
1000
0010
0001
0000
0001
0100
,
1000
0000
1000
0010
0100
0001
0010
1000
,
0010
0100
1000
0010
0200
0000
0310
1000
,
0200
0000
1300
0010
0100
0001
1000
0100
,
0010
1000
0010
0001
0200
0000
0301
0010
,
0200
0000
0310
0001
0100
0010
0000
0010
,
0000
0010
0000
0010
1000
0100
0000
0100
,
0000
0100
0000
0100
0001
0010
0100
1000
,
0010
0001
1000
0100
0001
0010
0100
0010
,
0100
1000
1001
0000
0000
0000
0000
0000
;

//---------------dance-double - ----------------
#NOTEDATA:;
#CHARTNAME:;
#STEPSTYPE:dance-double;
#DESCRIPTION:;
#CHARTSTYLE:;
#DIFFICULTY:Easy;
#METER:7;
#RADARVALUES:0.281747,0.358080,0.160634,0.062469,0.000000,221.000000,203.000000,18.000000,7.000000,0.000000,0.000000,0.000000,0.000000,0.000000,0.281747,0.358080,0.160634,0.062469,0.000000,221.000000,203.000000,18.000000,7.000000,0.000000,0.000000,0.000000,0.000000,0.000000;
#CREDIT:MILEN;
#DISPLAYBPM:178.000000;
#NOTES:
00000000
00000000
00000000
00000000
,
00000000
00000000
00000000
00000000
,
00000000
00000000
00000000
00000000
,
00000000
00000000
00000000
00000000
,
00000000
00000000
00000000
00000000
,
00011000
00011000
00000000
01000000
,
00000000
00001000
00000000
00010000
,
00000100
00000100
00000100
00000100
,
00001001
00000000
00000001
00000000
,
00000000
00000000
00000000
00000000
,
00000000
00000000
00001000
00000000
,
00000000
00000000
00000000
00000000
,
00000000
00000000
00010000
00000000
,
00010000
00000000
10000000
00000000
,
10000000
00000000
00100000
01000000
,
00100000
01000000
00200000
00000000
,
00000000
00300000
01100000
10000000
,
01000000
10000000
01000000
00010000
,
01000000
00010000
00001000
00010000
,
00001000
00010000
00001000
00000000
,
00010000
00000000
00011000
00001000
,
00010000
00001000
00010000
00001000
,
00000100
00001000
00000100
00000000
,
00000001
00000000
00000010
00000100
,
00000010
00000100
00000110
00000001
,
00000100
00000001
00000100
00001000
,
00000100
00001000
00010000
00001000
,
00010000
00001000
00010000
00000000
,
00001000
00000000
00011000
00010000
,
00100000
00010000
00100000
10000000
,
01000000
10000000
01000000
01000000
,
01000000
01000000
02000000
00000000
,
00000000
03000000
00100000
00000000
,
00000000
00000000
00001000
00000000
,
00000000
00000000
00010000
00000000
,
00000000
00000000
00000100
00000000
,
00000000
00000000
00010000
00000000
,
00010000
00000000
00001000
00000000
,
00001000
00000000
00100000
00000000
,
00100000
00000000
01000000
00000000
,
01000000
00000000
10000000
00100000
,
00010000
00000000
00100000
00010000
,
00001000
00000000
00010000
00001000
,
00000100
00000000
00001000
00000100
,
00000001
00000000
00000011
00000000
,
00001100
00000000
01010000
00000000
,
10100000
00000000
20020000
00000000
,
00000000
00000000
30030000
00000000
,
00000000
01100000
00100000
10000000
,
00100000
01000000
00010000
00000000
,
00001000
00000000
00000100
00000001
,
00000100
00000010
00001000
00000000
,
00010000
00000000
10000000
01000000
,
00100000
01000000
00010000
00000000
,
00001000
00000000
00000001
00000010
,
00000100
00000010
00002000
00003000
,
00010000
00011000
00001000
00010000
,
00100000
10000000
00100000
00010000
,
00001000
00000000
00010000
00001000
,
00000010
00000001
00000010
00001000
,
00010000
00000000
00011000
00001000
,
00100000
01000000
00000000
00010000
,
00000100
00000010
00000000
00001000
,
00010000
00001000
00022000
00000000
,
00000000
00033000
00100000
00000000
,
01000000
00000000
00010000
00000000
,
00001000
00000000
00000010
00000000
,
00000100
00000000
00010000
00000000
,
00001000
00010000
00001000
00000000
,
00000010
00000000
00000100
00000000
,
00010000
00000000
00001000
00000000
,
00100000
00000000
01000000
00100000
,
01000000
01100000
10000000
00100000
,
00010000
10000000
01000000
00010000
,
00100000
00000000
00001000
00000100
,
00000001
00001000
00000010
00000001
,
00001000
00000000
00010000
00100000
,
10000000
00000000
10000000
01000000
,
00010000
00000000
00001000
00000010
,
00000001
00000100
00001000
00010000
,
00001000
00011000
00000000
00000000
;

//---------------dance-double - ----------------
#NOTEDATA:;
#CHARTNAME:;
#STEPSTYPE:dance-double;
#DESCRIPTION:;
#CHARTSTYLE:;
#DIFFICULTY:Medium;
#METER:12;
#RADARVALUES:0.549470,0.608736,0.160634,0.187406,0.013386,431.000000,413.000000,18.000000,21.000000,0.000000,0.000000,0.000000,0.000000,0.000000,0.549470,0.608736,0.160634,0.187406,0.013386,431.000000,413.000000,18.000000,21.000000,0.000000,0.000000,0.000000,0.000000,0.000000;
#CREDIT:MILEN;
#DISPLAYBPM:178.000000;
#NOTES:
// measure 0
00000000
00000000
00000000
00000000
,  // measure 1
00000000
00000000
00000000
00000000
,  // measure 2
00000000
00000000
00000000
00000000
,  // measure 3
00000000
00000000
00000000
00000000
,  // measure 4
00000000
00000000
00000000
00000000
,  // measure 5
00001000
00010000
00001000
00000000
00100000
00000000
00001000
00010000
,  // measure 6
00001000
00000000
00000010
00000000
00000100
00000000
00001000
00000001
,  // measure 7
00001000
00000001
00000100
00000010
00001000
00000100
00010000
00001000
,  // measure 8
00011000
00000000
00020000
00000000
01030000
10000000
00000000
00100000
,  // measure 9
10000000
00000000
01000000
10000000
00000000
00200000
00000000
00310000
,  // measure 10
00001000
00010000
00002000
00000000
00003100
00000001
00000000
00000010
,  // measure 11
00000001
00000000
00000100
00000001
00000000
00000020
00000000
00001030
,  // measure 12
00010000
00001000
00010000
00000000
01000000
10000000
00000000
10000000
,  // measure 13
00000000
00100000
00000000
00100000
00000000
00010000
00000000
00010000
,  // measure 14
00000000
00001000
00000000
00001000
00000100
00001000
00000100
00000001
,  // measure 15
00000010
00000100
00001000
00000001
00000010
00000000
00000100
00000000
,  // measure 16
00001000
00000000
00001001
00000000
00000020
00000000
00000130
00000001
,  // measure 17
00000100
00000000
00000010
00001000
00000010
00000000
00010000
00001000
,  // measure 18
00010000
00000000
00100000
01000000
00100000
00000000
10000000
00010000
,  // measure 19
10000000
00000000
00100000
01000000
00010000
10000000
01000000
00100000
,  // measure 20
01000000
00100000
00010000
00000000
02000000
00000000
03100000
10000000
,  // measure 21
00100000
00000000
01000000
00010000
01000000
00000000
00001000
00010000
,  // measure 22
00001000
00000000
00000000
00000000
00000100
00000000
00000010
00000000
00000100
00000000
00000000
00000000
00000001
00000000
00000000
00000001
,  // measure 23
00000000
00000001
00001000
00000010
00000220
00000000
00000000
00000000
,  // measure 24
00000330
00000000
00000100
00000001
00002000
00000000
00003010
00010000
,  // measure 25
00001000
00000000
00100000
00001000
00010000
00000000
00000100
00010000
,  // measure 26
00001000
00000000
01000000
00001000
00010000
00000000
00100000
01000000
,  // measure 27
00010000
00000000
10000000
00100000
01000000
00010000
00100000
01000000
,  // measure 28
10000000
00010000
01000000
00001000
00010000
00000000
00010000
00000000
,  // measure 29
00000100
00000100
00001000
00001000
,  // measure 30
00000001
00000000
00000001
00000000
00000100
00000010
00010000
00001000
,  // measure 31
01000000
00100000
00010000
00001000
00022000
00000000
00000000
00000000
,  // measure 32
00000000
00033000
00200000
00000000
,  // measure 33
00000000
00300000
02000000
00000000
,  // measure 34
00000000
03000000
00020000
00000000
,  // measure 35
00000000
00030000
00002000
00000000
,  // measure 36
00000000
00003000
00000010
00000100
,  // measure 37
00000010
00000100
00001000
00000001
,  // measure 38
00001000
00000001
00000100
00001000
,  // measure 39
00000100
00000000
00000000
00000000
00001000
00000000
00000000
00000000
00011000
00000000
00000000
00000000
00100000
00000000
00000000
00100000
,  // measure 40
00000000
00100000
01000000
10000000
00100000
00000000
00100000
00000000
,  // measure 41
00100000
00100000
00010000
00010000
,  // measure 42
00010000
00010000
00001000
00001000
,  // measure 43
00001000
00001000
00000100
00000100
,  // measure 44
00000100
00000000
00000100
00000001
00000100
00000010
00001000
00000100
,  // measure 45
00000000
00001000
00000100
00010000
00000000
00000100
00010000
00001000
,  // measure 46
00000000
00010000
00001000
00100000
00010000
01000000
00100000
10000000
,  // measure 47
01000000
00100000
00010000
01000000
00002000
00000000
00000000
00000000
,  // measure 48
00000000
00000000
00013000
00000000
00010000
00000100
00001000
00000000
,  // measure 49
00000100
00001000
00000010
00000000
00000100
00000010
00001000
00000000
,  // measure 50
00000010
00001000
00000001
00000000
00000010
00000001
00000100
00000000
,  // measure 51
00000001
00000100
00001000
00000000
00000100
00001000
00010000
00000000
,  // measure 52
00001000
00010000
00100000
00000000
00010000
00100000
10000000
00000000
,  // measure 53
00100000
10000000
01000000
00000000
10000000
01000000
00100000
00000000
,  // measure 54
01000000
00100000
00010000
00000000
00100000
00001000
00010000
00000000
,  // measure 55
00001000
00010000
00000100
00000000
00001000
00000100
00000010
00000001
,  // measure 56
00002000
00000000
00003010
00000010
00000100
00000001
00000100
00000001
,  // measure 57
00001000
00000010
00001000
00000010
00010000
00001000
00010000
00000010
,  // measure 58
00001000
00000100
00000010
00000001
00000100
00001000
00000100
00001000
,  // measure 59
00010000
00100000
00010000
00100000
10000000
01000000
00100000
00010000
,  // measure 60
01000000
00000000
00000000
01000000
00000000
00000000
01000000
00000000
00100000
00000000
10000000
00000000
01000000
00000000
00100000
00000000
,  // measure 61
00010000
01000000
00002000
00000000
00013000
00000100
00001000
00000100
,  // measure 62
00000010
00000001
00002000
00000000
00003010
00000100
00000000
00001000
,  // measure 63
00000000
00010000
00000000
00100000
01000000
00000000
00100000
10000000
,  // measure 64
02000000
03200000
00310000
01010000
,  // measure 65
10100000
00000000
10000000
01000000
00010000
00000000
01000000
00010000
,  // measure 66
00001000
00000000
00010000
00001000
00000010
00000000
00000011
00000000
,  // measure 67
00001100
00000000
00001000
00000010
00010000
00000000
00001000
00100000
,  // measure 68
00010000
00000000
00100000
01000000
10000000
00000000
10100000
00000000
,  // measure 69
00110000
00000000
00010000
00001000
00000010
00000000
00001000
00000010
,  // measure 70
00000001
00000000
00000010
00000001
00000100
00000000
00001100
00000000
,  // measure 71
00011000
00000000
00001000
00010000
00100000
00000000
00010000
00001000
,  // measure 72
00000010
00000000
00000100
00000010
00000001
00001000
00000100
00000010
,  // measure 73
00000001
00001000
00000010
00000100
00000101
00000000
00001000
00000000
,  // measure 74
00011000
00000000
00010000
00100000
01000000
00010000
10000000
01000000
,  // measure 75
00100000
00010000
01000000
00100000
10100000
00000000
00010000
00000000
,  // measure 76
00011000
00000000
00010000
00001000
00000100
00000001
00000000
00000001
,  // measure 77
00000000
00000010
00000000
00000010
00000000
00001000
00000000
00001000
,  // measure 78
00000000
00010000
00000000
00010000
01000000
10000000
01000000
10000000
,  // measure 79
00100000
00010000
00001000
00000010
00000100
00000010
00000001
00000100
,  // measure 80
00001000
00010000
00011000
00000000
00000000
00000000
00000000
00000000
;
