#VERSION:0.83;
#TITLE:VV;
#SUBTITLE:;
#ARTIST:ZiGZaG;
#TITLETRANSLIT:;
#SUBTITLETRANSLIT:;
#ARTISTTRANSLIT:;
#GENRE:VARIETY;
#ORIGIN:;
#CREDIT:MUINELIM;
#BANNER:VV.png;
#BACKGROUND:VV-bg.png;
#PREVIEWVID:;
#JACKET:VV-jacket.png;
#CDIMAGE:;
#DISCIMAGE:;
#LYRICSPATH:;
#CDTITLE:;
#MUSIC:VV.ogg;
#OFFSET:-0.005000;
#SAMPLESTART:50.560001;
#SAMPLELENGTH:12.000000;
#SELECTABLE:YES;
#DISPLAYBPM:*;
#BPMS:0.000=140.020,
78.000=280.040,
79.000=70.000,
87.000=140.000,
103.000=70.000,
103.500=140.000,
104.000=280.000,
110.000=560.000,
116.000=295.000,
124.000=296.000,
148.000=315.600,
156.000=317.000,
180.000=335.500,
212.000=350.080,
224.000=351.250,
244.000=81.000,
248.000=84.600,
252.000=107.800,
260.000=175.460,
268.000=87.730,
268.500=175.460,
269.000=350.920,
272.000=701.840,
276.000=350.920,
336.000=372.000,
337.000=370.000,
363.000=740.000,
365.000=370.000,
367.000=740.000,
368.000=370.000,
400.000=640.000;
#STOPS:78.000=0.643,
336.000=0.484,
363.000=0.081,
364.000=0.081,
367.000=0.243;
#DELAYS:;
#WARPS:;
#TIMESIGNATURES:0.000=4=4;
#TICKCOUNTS:0.000=4;
#COMBOS:0.000=1;
#SPEEDS:0.000=1.000=0.000=0;
#SCROLLS:0.000=1.000;
#FAKES:;
#LABELS:0.000=Song Start;
#BGCHANGES:0.000=VV.mpg=1.000=1=0=0=StretchNoLoop==CrossFade==,
99999=-nosongbg-=1.000=0=0=0 // don't automatically add -songbackground-
;
#FGCHANGES:-10000.000= =1.000=0=0=1=====,
0.000=lua=1.000=0=0=1=====,
;
#KEYSOUNDS:;
#ATTACKS:
;

//---------------dance-single - ----------------
#NOTEDATA:;
#CHARTNAME:;
#STEPSTYPE:dance-single;
#DESCRIPTION:;
#CHARTSTYLE:;
#DIFFICULTY:Hard;
#METER:18;
#RADARVALUES:0.801404,1.896574,0.234467,0.416829,0.521037,646.000000,619.000000,27.000000,48.000000,0.000000,0.000000,0.000000,0.000000,0.000000,0.801404,1.896574,0.234467,0.416829,0.521037,646.000000,619.000000,27.000000,48.000000,0.000000,0.000000,0.000000,0.000000,0.000000;
#CREDIT:MILEN;
#DISPLAYBPM:*;
#NOTES:
0000
0000
0000
0000
,
0000
0000
0000
0000
,
0000
0000
0000
0000
,
2002
0000
0000
0000
0000
0000
0000
3003
,
1001
0000
0001
0100
0000
0010
0100
0000
0010
0000
1000
0100
0010
0000
0100
0001
,
0000
0100
0010
0000
0001
0000
0100
0010
1000
0010
0100
0000
0202
0000
0303
0000
,
1001
0000
1000
0010
0000
0100
0010
0000
0100
0000
0001
0010
0100
0000
0010
1000
,
0000
0010
0100
0000
1000
0000
0010
0100
0000
0001
0100
0010
2000
0000
3000
0000
,
1001
0000
0001
0010
0000
0100
0010
0000
0100
0000
0010
0001
1000
0000
0100
1000
,
0000
0001
0100
0000
0010
0000
1000
0100
0010
0100
1000
0000
2020
0000
3030
0000
,
1001
0000
0001
0000
0100
0000
0010
0001
0000
0010
0100
0000
0001
1000
0001
1000
,
0010
0100
0001
0010
0200
0000
2300
0000
3010
0100
0001
1000
0200
0000
0320
0000
,
0031
0100
0010
1000
0002
0000
0023
0000
0130
1000
0010
0100
0001
1000
0001
1000
,
0100
0000
0010
0001
0000
0010
0200
0000
0000
1300
0000
1000
0010
0000
0100
0000
,
0101
0000
0001
1000
0000
0100
1000
0000
0100
0000
0010
0000
0210
0000
0000
0301
,
0000
0001
0100
0000
1000
0000
0010
0000
0110
0000
0100
0000
0001
1000
0000
1000
,
0000
0010
0000
0100
0001
0000
1000
0000
1100
0000
0000
0000
0011
0000
0010
0000
,
0001
0000
0010
0000
0100
1000
0000
0100
0002
0000
0000
0103
0000
0100
0010
0000
,
0001
0000
0100
1000
0000
0100
0000
0010
0000
0010
0200
0000
0000
0301
0000
0001
,
1000
0100
0020
0000
0001
0000
0001
0000
0031
0000
0000
0000
0001
0100
0010
1000
,
0001
0010
0001
0010
0100
0000
1100
0000
0000
0000
1000
0000
0010
0000
0100
0000
0001
1000
0010
0000
1000
0001
0100
0000
0010
0000
1000
0000
0100
0000
0010
0000
,
0001
0100
0001
0100
0010
0000
1010
0000
0000
0000
1000
0000
0001
0000
0010
0000
0100
1000
0010
0000
0100
0001
0010
0000
0110
0000
0000
0000
0100
0000
0010
0000
,
0001
0100
0001
0100
0010
1000
0010
1000
0001
0010
0100
2000
0000
0000
3010
0000
,
0010
0000
0001
0000
0001
0000
0100
0000
1000
0000
0010
0000
0110
0000
0100
0010
,
1000
0100
1000
0100
0010
0001
0010
0001
0100
0010
1000
0002
0000
0000
0013
0000
,
0010
0000
1000
0000
0001
0010
0100
1000
0001
0100
0010
2000
0002
0000
0000
0000
,
0000
0000
0000
0000
,
0000
0000
0000
0000
,
0000
0000
0000
3003
,
1000
0010
1000
0001
0000
0001
0100
0000
,
0010
1000
0001
0010
,
0100
1000
0100
0010
0100
0000
1000
0000
,
0010
0100
0202
0303
,
0001
0010
0001
1000
0000
1000
0100
0000
,
0010
0001
1000
0010
,
0100
0001
0010
0001
2000
0000
3000
0000
,
0010
1000
0100
1000
0002
0000
0003
0000
,
0100
0010
1000
0010
0000
0010
0100
0000
,
0001
0010
0100
1000
,
0010
0100
0010
0001
0010
0000
0100
0000
,
0001
1000
2200
3300
,
0100
0010
0001
0010
0000
0010
0100
0000
,
1000
0010
0100
0001
,
1000
0100
0010
0001
0200
0000
0300
0000
,
0001
0010
0100
0000
1000
0010
0100
0000
,
0001
1000
0100
0010
0000
0100
0001
0000
,
0100
0010
0001
0100
,
0010
1000
0001
0010
0100
0000
1000
0000
,
0010
0100
0110
0010
,
1000
0001
0010
0100
1000
0000
0010
0000
,
0100
0001
1000
0100
,
0010
0001
0010
0100
2000
0000
3010
0000
,
0010
1000
0010
0100
0002
0000
0013
0000
,
0010
0100
1000
0000
0010
0000
1000
0000
,
0100
0010
0001
0000
0100
0000
0001
0000
,
1000
0010
0100
0000
1000
0000
0100
0000
,
0001
0100
0010
0000
0001
0000
0010
0000
,
1000
0100
0010
0000
1000
0000
0010
0000
,
0001
0010
0100
0000
0001
0000
0100
0000
,
1000
0010
0100
0000
0001
0100
0010
0000
,
1000
0100
1000
0010
0100
0001
0010
0001
,
2000
0000
0000
0000
0000
0000
0000
0000
0010
0020
0000
0000
0000
0000
0030
0000
,
0002
0000
0000
0000
3000
0000
0000
0000
0100
0200
0000
0000
0000
0000
0300
0000
,
2000
0000
0000
0000
0000
0000
0000
0000
0003
0000
0000
0000
0010
0020
0000
0000
,
0000
0000
0000
0030
3002
0000
2000
3003
,
0001
0100
0001
0010
0100
1000
0001
0100
0001
0010
0100
1000
0010
0100
0001
1000
,
0100
1000
0010
0100
0001
1000
0100
1000
0010
0100
0001
1000
0100
0010
0001
0200
,
0020
0000
0000
0000
,
0000
0000
0000
0330
,
0010
1000
0001
0100
0000
1000
0100
0000
,
0010
1000
0001
0011
,
0010
0100
1000
0010
0000
0001
0010
0000
,
1000
0001
0101
0100
,
0010
1000
0001
0010
0000
0100
0001
0000
,
0100
1000
0010
0110
,
0100
0001
1000
0100
0020
0000
0031
0000
,
0001
0100
0010
1000
0002
0000
0103
0000
,
0100
0010
1000
0010
0000
0001
0010
0000
,
1000
0100
1100
1000
,
0001
0100
0010
1000
0000
0100
0001
0000
,
0100
1000
1010
0010
,
0100
0001
0010
0100
0000
0001
0100
0000
,
1000
0001
0100
0110
,
0010
1000
0100
0010
0002
0000
1003
0000
,
1001
0000
0001
0100
0010
0100
1000
0000
,
0100
0010
1000
0001
,
0100
0000
0010
0001
0010
0100
0001
0000
,
1000
0100
0001
0100
,
0010
0000
0001
0100
0010
1000
0001
0000
,
0010
0100
0001
0100
,
1000
0000
0010
0100
0001
0000
2000
3000
,
0002
0003
0100
0010
1000
0000
1001
0000
,
0001
0010
0100
0000
0001
0000
0100
0000
,
1000
0100
0010
0000
1000
0000
0010
0000
,
0001
0100
0010
0000
0001
0000
0010
0000
,
1000
0010
0100
0000
1000
0000
0100
0000
,
0001
0010
0100
0000
1000
0010
0100
0000
,
0001
0100
0010
0000
1000
0100
0010
0000
,
0001
0100
0001
0100
1000
0100
1000
0100
,
0001
0010
1000
0010
0001
0100
0010
2000
,
0002
0000
0000
0000
,
0000
0000
0000
0000
,
0000
0000
0000
0000
,
0000
0000
0000
0000
,
3003
0000
0000
0000
;

//---------------dance-double - ----------------
#NOTEDATA:;
#CHARTNAME:;
#STEPSTYPE:dance-double;
#DESCRIPTION:;
#CHARTSTYLE:;
#DIFFICULTY:Hard;
#METER:17;
#RADARVALUES:0.765428,1.670792,0.286570,0.408146,0.460249,617.000000,584.000000,33.000000,47.000000,0.000000,0.000000,0.000000,0.000000,0.000000,0.765428,1.670792,0.286570,0.408146,0.460249,617.000000,584.000000,33.000000,47.000000,0.000000,0.000000,0.000000,0.000000,0.000000;
#CREDIT:MILEN;
#DISPLAYBPM:*;
#NOTES:
00000000
00000000
00000000
00000000
,
00000000
00000000
00000000
00000000
,
00000000
00000000
00000000
00000000
,
00022000
00000000
00000000
00000000
00000000
00000000
00000000
00033000
,
00011000
00000000
00010000
00000100
00000000
00000100
00001000
00000000
00000001
00000000
00000100
00000010
00001000
00000000
00001000
00000100
,
00000000
00000100
00010000
00000000
00001000
00000000
00100000
01000000
00000000
01000000
10000000
00000000
20200000
00000000
30300000
00000000
,
10100000
00000000
00100000
01000000
00000000
01000000
00010000
00000000
00100000
00000000
01000000
00010000
00001000
00000000
00001000
00100000
,
00000000
00100000
00010000
00000000
01000000
00000000
00001000
00010000
00000000
00000100
00001000
00000100
00000020
00000000
00000030
00000000
,
00000011
00000000
00000001
00000100
00000000
00000100
00000010
00000000
00010000
00000000
00001000
00010000
00100000
00000000
10000000
01000000
,
00000000
01000000
00100000
00000000
00001000
00000000
00010000
00000100
00000000
00000100
00001000
00000000
00002020
00000000
00003030
00000000
,
00001010
00000000
00000010
00000000
00000100
00000000
00000001
00000010
00000000
00000010
00000100
00000000
00010000
00001000
00010000
00001000
,
00100000
01000000
10000000
00000000
00200000
00000000
00320000
00000000
00031000
00010000
00000100
00000000
00000020
00000000
00000032
00000000
,
00000103
00001000
00010000
00000000
00002000
00000000
00203000
00000000
01300000
10000000
00100000
00000000
01000000
00010000
01000000
00010000
,
00100000
00000000
01000000
10000000
00000000
01000000
00200000
00000000
00000000
00310000
00000000
00010000
01000000
00000000
00001000
00000000
,
00011000
00000000
00010000
00000100
00000000
00000100
00000010
00000000
00000001
00000000
00001000
00000000
00001020
00000000
00000000
00010030
,
00000000
00010000
00001000
00000000
00100000
00000000
01000000
00000000
11000000
00000000
10000000
00000000
00100000
01000000
00000000
01000000
,
00000000
00010000
00000000
00100000
01000000
00000000
00010000
00000000
00011000
00000000
00000000
00000000
00001010
00000000
00000010
00000000
,
00000001
00000000
00000010
00000000
00000100
00001000
00000000
00001000
00000020
00000000
00000000
00010030
00000000
00010000
00001000
00000000
,
00000100
00000000
00001000
00010000
00000000
01000000
00000000
10000000
00000000
10000000
00200000
00000000
00000000
00310000
00000000
00010000
,
00001000
00000100
00000020
00000000
00000100
00000000
00000130
00000000
00001001
00000000
00000000
00000000
00001000
00000100
00000010
00000001
,
00000100
00001000
00010000
00000000
00100000
00000000
10100000
00000000
00000000
00000000
10000000
00000000
01000000
00000000
00100000
00000000
00001000
00010000
00001000
00000000
00000100
00000000
00000010
00000000
00000001
00000000
00000010
00000000
00001000
00000000
00000100
00000000
,
00000010
00001000
00010000
00000000
01000000
00000000
11000000
00000000
00000000
00000000
10000000
00000000
00010000
00000000
00100000
00000000
01000000
00000000
00010000
00000000
00001000
00010000
00001000
00000000
00000020
00000000
00000000
00000000
00000031
00000000
00000100
00000000
,
00000001
00000100
00000010
00010000
00000010
00010000
00001000
00100000
00001000
00100000
01000000
20000000
00000000
00000000
30100000
00000000
,
00000000
00000000
01010000
00000000
00000000
00000000
00011000
00000000
00000000
00000000
00001100
00000000
00000200
00000000
00000310
00000001
,
00000010
00000001
00001000
00000100
00001000
00000100
00010000
00001000
00010000
00001000
00200000
00000000
00000000
00000000
01300000
00000000
,
00000000
00000000
11000000
00000000
10000000
01000000
00100000
00010000
01000000
00100000
00010000
00002000
00020000
00000000
00000000
00000000
,
00000000
00000000
00000000
00000000
,
00000000
00000000
00000000
00000000
,
00000000
00000000
00000000
00033000
,
00001000
00100000
00001000
00100000
00000000
00010000
01000000
00000000
,
00100000
10000000
01000000
00010000
,
00001000
00010000
00001000
00010000
00001000
00000000
00000010
00000000
,
00000001
00000100
00002020
00003030
,
00000010
00010000
00000010
00010000
00000000
00000100
00001000
00000000
,
00000010
00000100
00000001
00001000
,
00000100
00000010
00000100
00000000
00020000
00000000
00030000
00000000
,
00000100
00000010
00000100
00000000
00002000
00000000
00003000
00000000
,
00000001
00000100
00000001
00000100
00000000
00000010
00010000
00000000
,
00001000
00100000
01000000
10000000
,
00100000
01000000
00100000
01000000
00100000
00000000
00010000
00000000
,
00001000
00000010
00000202
00000303
,
00001000
00000100
00001000
00000100
00000000
00010000
00001000
00000000
,
00100000
01000000
10000000
00100000
,
00010000
00001000
00010000
00000000
02000000
00000000
03000000
00000000
,
00010000
00001000
00010000
00000000
00001000
00010000
00001000
00000000
,
00000010
00000001
00000100
00000001
00000000
00000100
00001000
00000000
,
00010000
00001000
00100000
01000000
,
10000000
00100000
01000000
00010000
10000000
00000000
01000000
00000000
,
00100000
00001000
00011000
00010000
,
00000100
00000010
00000100
00001000
00000000
00000100
00000001
00000000
,
00000100
00000010
00000001
00000100
,
00001000
00010000
00001000
00000000
02000000
00000000
03000000
00000000
,
00001000
00010000
00001000
00000000
00000200
00000000
00000300
00000000
,
00000001
00000010
00000001
00000000
00000010
00000000
00001000
00000000
,
00010000
00001000
00010000
00000000
00100000
00000000
10000000
00000000
,
01000000
00010000
01000000
00000000
00010000
00000000
00001000
00000000
,
00000010
00000001
00000010
00000000
00000001
00000000
00000100
00000000
,
00001000
00010000
00001000
00000000
00010000
00000000
00100000
00000000
,
10000000
01000000
10000000
00000000
01000000
00000000
00010000
00000000
,
00001000
00100000
00001000
00000000
00010000
00000010
00010000
00000000
,
00001000
01000000
00001000
00010000
00000100
00010000
00001000
00000000
,
00021000
00000000
00000000
00000000
00000000
00000000
00000000
00000000
01000000
01000000
00000000
00000000
00000000
00000000
00000000
00000000
,
00002000
00000000
00000000
00000000
00030000
00000000
00000000
00000000
00000100
00000100
00000000
00000000
00000000
00000000
00000000
00000000
,
00020000
00000000
00000000
00000000
00000000
00000000
00000000
00000000
00000000
00000000
00003000
00000000
00100000
00100000
00000000
00000000
,
00000000
00000000
00000000
00000000
00032000
00000000
00020000
00033000
,
00001000
00010000
00001000
00010000
00001000
00010000
00000100
00000000
00010000
00001000
00010000
00001000
00010000
00001000
01000000
00000000
,
00100000
10000000
01000000
00000000
00100000
00010000
01000000
00000000
00001000
00010000
00000100
00000000
00001000
00000100
00000010
00000002
,
00002000
00000000
00000000
00000000
,
00000000
00000000
00000000
00003003
,
00000001
00000010
00000100
00001000
00000000
00000010
00000100
00000000
,
00000001
00001000
00000100
00010100
,
00010000
00001000
00100000
01000000
00000000
10000000
00100000
00000000
,
01000000
00010000
00110000
00100000
,
00001000
00010000
00000100
00001000
00000000
00000100
00000010
00000000
,
00000001
00000100
00001000
00011000
,
00010000
00100000
00010000
00000000
00001000
00000000
00010000
00000000
,
00001000
00000010
00001000
00000000
00010000
00000000
00001000
00000000
,
00100000
01000000
10000000
00100000
00000000
01000000
00010000
00000000
,
00100000
00001000
00011000
00010000
,
00000100
00000010
00000001
00001000
00000000
00000010
00000100
00000000
,
00000001
00001000
00001010
00000010
,
00010000
00000100
00000010
00001000
00000000
00010000
00001000
00000000
,
01000000
00010000
00100000
00101000
,
00001000
00010000
00001000
00010000
00002000
00000000
00013000
00000000
,
00011000
00000000
00010000
00001000
00010000
00000000
00000010
00000000
,
00000001
00000010
00000100
00002000
,
00013000
00000000
00001000
00010000
00001000
00000000
01000000
00000000
,
10000000
01000000
00100000
00020000
,
00031000
00000000
00001000
00010000
00000100
00000000
00000010
00000000
,
00000001
00000100
00001000
00010000
,
00011000
00000000
00001000
00010000
00001000
00000000
00020000
00030000
,
00002000
00003000
00010000
00001000
00010000
00000000
00011000
00000000
,
00010000
00001000
00000010
00000000
00000001
00000000
00000100
00000000
,
00001000
00000100
00000010
00000000
00001000
00000000
00000100
00000000
,
00010000
00001000
00100000
00000000
01000000
00000000
10000000
00000000
,
00100000
01000000
00010000
00000000
00100000
00000000
01000000
00000000
,
00010000
00001000
00000010
00000000
00000001
00000000
00000100
00000000
,
00001000
00010000
00100000
00000000
10000000
00000000
01000000
00000000
,
00010000
00001000
00010000
00001000
00100000
00001000
00010000
00000010
,
00010000
00001000
01000000
00001000
00010000
00000100
00010000
00001000
,
00022000
00000000
00000000
00000000
,
00000000
00000000
00000000
00000000
,
00000000
00000000
00000000
00000000
,
00000000
00000000
00000000
00000000
,
00033000
00000000
00000000
00000000
;

//---------------dance-single - ----------------
#NOTEDATA:;
#CHARTNAME:;
#STEPSTYPE:dance-single;
#DESCRIPTION:;
#CHARTSTYLE:;
#DIFFICULTY:Challenge;
#METER:19;
#RADARVALUES:1.019744,1.941731,0.451565,0.651296,0.764187,822.000000,770.000000,52.000000,75.000000,0.000000,0.000000,0.000000,0.000000,0.000000,1.019744,1.941731,0.451565,0.651296,0.764187,822.000000,770.000000,52.000000,75.000000,0.000000,0.000000,0.000000,0.000000,0.000000;
#CREDIT:MILEN;
#DISPLAYBPM:*;
#NOTES:
0000
0000
0000
0000
,
0000
0000
0000
0000
,
0000
0000
0000
0000
,
2002
0000
0000
0000
0000
0000
0000
3003
,
1001
0000
0001
0100
0000
0100
1000
0000
0010
0000
0001
0010
0100
0000
0001
0010
,
0100
0000
1000
0010
0100
0001
0100
0001
1000
0100
0010
0000
0220
0000
0330
0000
,
1100
0000
1000
0010
0000
0010
0001
0000
0100
0000
1000
0100
0010
0000
1000
0100
,
0010
0000
0001
0100
0010
1000
0010
1000
0001
0010
0100
0000
0220
0000
0330
0000
,
0011
0000
0001
0100
0000
0100
1000
0000
0010
0000
0001
0010
0100
0000
1000
0100
,
0010
0000
0100
0001
0010
0001
0010
0100
1000
0010
0100
0000
0220
0000
0330
0000
,
1010
0000
1000
0100
0000
0100
0001
0000
0010
0000
1000
0010
0100
1000
0100
0010
,
0001
0000
0100
0000
0001
0000
0100
0000
0000
0010
0000
0000
1000
0000
0000
0100
0000
0000
0010
0000
0000
0001
0000
0000
1000
0000
0010
0000
1000
0000
0010
0000
0000
0100
0000
0000
0001
0000
0000
0010
0000
0000
0100
0000
0000
1000
0000
0000
,
0010
0000
0100
0000
0001
0000
0100
0000
0000
0010
0000
0000
1000
0000
0000
0100
0000
0000
0010
0000
0000
0001
0000
0000
0100
0000
0010
0000
1000
0000
0010
0000
0000
0100
0000
0000
0001
0000
0000
0010
0000
0000
0100
0000
0000
1000
0000
0000
,
0020
0000
0130
0001
0000
0010
1000
0000
0110
0000
0010
0100
1000
0000
0001
0010
,
0100
0000
0001
0100
1000
0100
0010
0001
0200
0000
0310
0000
0110
0000
0010
0000
,
0100
0010
0001
0000
1000
0100
0010
0000
0001
0010
1000
0010
0100
0001
1000
0000
,
0100
0001
0000
0010
1000
0000
0001
0000
2002
0000
3003
0000
1010
0000
0101
0000
,
0001
0010
1000
0000
0001
0100
1000
0000
0001
0010
1000
0010
0100
1000
0010
0000
,
1000
0100
0001
0000
1000
0010
0001
0000
1000
0100
0001
0100
0010
0001
0100
0010
,
1000
0001
0010
0100
1000
0010
0100
0002
2000
0000
3003
0000
1000
0100
0001
0010
,
1000
0000
0100
0000
0010
0000
0110
0000
0000
0000
0001
0100
0010
0000
0001
0010
0100
0000
0010
1000
0100
1000
0100
0010
0001
0000
0100
0000
1000
0000
0010
0000
,
0001
0000
0100
0000
0010
0000
0110
0000
0000
0000
1000
0100
0010
0000
0100
1000
0010
0000
0100
0001
0010
0001
0010
0100
1000
0000
1000
0000
0100
0000
0010
0000
,
0001
0001
0100
0010
1000
1000
0100
0010
0001
0001
0100
0010
0000
0000
2010
0000
,
3100
0000
0012
0000
0103
0000
2010
0000
3100
0000
0012
0000
0103
0100
0001
1000
,
0010
0010
1000
0001
0100
0100
0001
1000
0010
0010
1000
0001
0000
0000
0021
0000
,
0130
0000
1200
0000
0310
0100
1000
0010
0001
1000
0100
0002
2000
0000
0000
0000
,
0000
0000
0000
0000
,
0000
0000
0000
0000
,
0000
0000
0000
3003
,
1000
0010
0100
0001
1000
0010
0100
0001
,
1000
0000
0010
0001
0000
0100
2000
0000
,
3010
0100
0001
1000
0100
0010
0001
0000
,
0101
1010
0201
0310
,
0010
1000
0001
0100
0010
1000
0001
0100
,
0000
1000
0010
0000
0001
0010
0200
0000
,
1300
0010
0100
0001
0101
0000
0011
0000
,
0001
0010
0100
1000
1100
0000
1010
0000
,
0001
0010
0100
1000
0001
0010
0100
1000
,
0001
0000
0010
1000
0000
0100
0002
0000
,
0013
0100
1000
0001
0100
0010
1000
0000
,
1100
0011
1200
0310
,
0010
0001
1000
0100
0010
0001
1000
0100
,
0000
0001
0010
0000
1000
0010
0200
0000
,
0301
0010
0100
1000
1100
0000
1010
0000
,
1000
0010
0002
0000
1003
0100
0002
0000
,
0013
0100
1000
0100
0001
0100
0010
0001
,
0100
0000
1000
0010
0000
0001
2000
0000
,
3001
0010
1000
0010
0100
1000
0001
0000
,
0011
1100
1020
0130
,
0100
0001
0010
1000
0010
0100
1000
0010
,
0000
0001
0100
0000
1000
0010
0200
0000
,
1300
0100
0010
1000
1100
0000
1010
0000
,
0001
0010
0100
0001
0011
0000
0101
0000
,
1000
0100
0010
0001
0200
0000
0010
0000
,
0301
0010
0100
1000
0020
0000
0100
0000
,
1030
0001
0010
0100
2000
0000
0010
0000
,
3001
1000
0100
0010
0002
0000
0100
0000
,
1003
0010
0001
0010
0200
0000
1000
0000
,
0301
0100
1000
0100
0020
0000
0001
0000
,
1030
1000
0100
0010
0001
0100
1000
0100
,
0001
0001
0010
0100
1000
0010
0001
0010
,
2020
0000
0000
0000
0000
0000
0000
0000
0000
0000
0000
0000
0000
0000
3030
0000
0001
0100
0001
0000
0000
0000
0000
0000
0000
0000
0000
0000
0000
0000
0000
0000
,
0022
0000
0000
0000
0000
0000
0000
0000
0000
0000
0000
0000
0000
0000
0033
0000
1000
0100
1000
0000
0000
0000
0000
0000
0000
0000
0000
0000
0000
0000
0000
0000
,
0220
0000
0000
0000
0000
0000
0000
0000
0000
0000
0000
0000
0000
0000
0000
0000
0000
0000
0000
0000
0000
0000
0330
0000
1000
0001
1000
0000
0000
0000
0000
0000
,
0000
0000
0000
0000
0020
0000
0200
0330
,
0100
0000
0000
0001
0000
0000
0010
0000
0100
0000
0010
0000
0100
0000
0000
1000
0000
0000
0100
0000
0010
0000
0100
0000
0010
0000
0000
0001
0000
0000
0100
0000
0000
0010
0000
0000
1000
0000
0000
0001
0000
0000
0010
0000
0001
0000
0010
0000
,
0100
0000
0000
1000
0000
0000
0100
0000
1000
0000
0100
0000
0010
0000
0000
0001
0000
0000
0100
0000
0010
0000
1000
0000
0010
0000
0000
1000
0000
0000
0010
0000
0100
0000
0001
0000
0100
0000
0000
0001
0000
0000
1000
0000
0000
0200
0000
0000
,
0020
0000
0000
0000
,
0000
0000
0000
0330
,
0010
0100
1000
0100
0001
0100
1000
0100
,
0020
0000
0031
0200
0000
1300
0020
0000
,
0031
0100
0010
0001
1000
0100
0010
1000
,
1200
0310
0021
0130
,
1000
0010
0001
0010
0100
1000
0100
0002
,
0000
0013
2000
0000
3100
0000
0110
0000
,
1000
1000
0100
0001
0100
0010
1000
0010
,
0001
0001
0100
1000
0100
0010
0001
0010
,
0010
0100
0001
0100
1000
0100
0001
0100
,
0020
0000
1030
0200
0000
0301
0020
0000
,
1030
0100
0010
1000
0001
0100
0010
0001
,
0201
0310
1020
0130
,
0001
0010
1000
0010
0100
0001
0100
2000
,
0000
3010
0002
0000
0103
0010
1000
0001
,
0010
0010
1000
0001
0100
1000
0010
0100
,
0110
0000
0010
1000
0100
0010
0100
0001
,
0100
1000
0010
0001
0010
0100
0010
1000
,
0100
0010
0001
0100
0001
1000
0010
1000
,
0001
0010
0001
1000
0100
1000
0010
0100
,
0001
0010
0100
0001
0100
1000
0010
0001
,
0010
0100
1000
0100
0001
0010
1000
0010
,
0100
1000
0001
0100
0010
1000
2200
3300
,
0022
0033
0001
0010
0100
1000
2002
3003
,
0001
0000
0100
0000
0001
0000
1000
0000
0000
0100
0000
0000
0010
0000
0000
0001
0000
0000
0200
0000
0000
0000
0000
0000
,
0310
0000
1000
0000
0010
0000
0100
0000
0000
0001
0000
0000
1000
0000
0000
0100
0000
0000
0020
0000
0000
0000
0000
0000
,
0031
0000
0100
0000
0010
0000
0100
0000
0000
0001
0000
0000
0010
0000
0000
0100
0000
0000
2000
0000
0000
0000
0000
0000
,
3010
0000
0100
0000
0001
0000
0100
0000
0000
0010
0000
0000
1000
0000
0000
0001
0000
0000
0020
0000
0000
0000
0000
0000
,
0130
0000
1000
0000
0100
0000
0010
0000
0000
0001
0000
0000
0100
0000
0000
0010
0000
0000
1000
0000
0000
0001
0000
0000
,
0010
0000
0100
0000
0010
0000
0001
0000
0000
0100
0000
0000
0010
0000
0000
1000
0000
0000
0100
0000
0000
0010
0000
0000
,
0001
0000
0100
0000
0001
0000
1000
0000
0000
0100
0000
0000
1000
0000
0010
0000
1000
0000
0001
0000
0000
0010
0000
0000
,
0001
0100
0001
0100
0010
1000
0100
0010
0001
0100
0010
2000
,
0002
0000
0000
0000
,
0000
0000
0000
0000
,
0000
0000
0000
0000
,
0000
0000
0000
0000
,
3003
0000
0000
0000
;

//---------------dance-double - ----------------
#NOTEDATA:;
#CHARTNAME:;
#STEPSTYPE:dance-double;
#DESCRIPTION:;
#CHARTSTYLE:;
#DIFFICULTY:Challenge;
#METER:19;
#RADARVALUES:1.006097,1.941731,0.416829,0.512353,0.633928,811.000000,763.000000,48.000000,59.000000,0.000000,0.000000,0.000000,0.000000,0.000000,1.006097,1.941731,0.416829,0.512353,0.633928,811.000000,763.000000,48.000000,59.000000,0.000000,0.000000,0.000000,0.000000,0.000000;
#CREDIT:MILEN;
#DISPLAYBPM:*;
#NOTES:
00000000
00000000
00000000
00000000
,
00000000
00000000
00000000
00000000
,
00000000
00000000
00000000
00000000
,
00022000
00000000
00000000
00000000
00000000
00000000
00000000
00033000
,
00011000
00000000
00010000
01000000
00000000
01000000
10000000
00000000
00100000
00000000
00010000
00100000
01000000
00000000
00010000
00100000
,
01000000
00000000
00010000
00001000
00000010
00000001
00000010
00000001
00000100
00001000
00010000
00000000
00022000
00000000
00033000
00000000
,
00011000
00000000
00001000
00000100
00000000
00000100
00000001
00000000
00000010
00000000
00001000
00000010
00000100
00000000
00001000
00000010
,
00000100
00000000
00001000
00010000
00100000
10000000
00100000
10000000
01000000
00010000
00001000
00000000
00022000
00000000
00033000
00000000
,
00011000
00000000
00010000
00100000
00000000
00100000
10000000
00000000
01000000
00000000
00010000
00001000
00000010
00000000
00001000
00010000
,
00100000
00000000
00010000
00001000
00000100
00001000
00000100
00000001
00000010
00001000
00010000
00000000
00022000
00000000
00033000
00000000
,
00011000
00000000
00001000
00000010
00000000
00000010
00000001
00000000
00000100
00000000
00001000
00000100
00000010
00001000
00000100
00000010
,
00000001
00000100
00000001
00000100
00001000
00010000
00100000
10000000
10000000
01000000
10000000
01000000
00010000
00001000
00000010
00000001
,
00000001
00000100
00000001
00000100
00000010
00001000
00010000
01000000
01000000
00100000
10000000
01000000
00100000
00010000
00001000
00000100
,
00000020
00000000
00000031
00000100
00000000
00000100
00001000
00000000
00011000
00000000
00010000
00100000
10000000
00000000
00010000
01000000
,
10000000
00000000
00010000
00100000
10000000
01000000
00100000
00010000
02000000
00000000
03001000
00000000
00011000
00000000
00010000
00000000
,
00001000
00000010
00000001
00000000
00001000
00000100
00000001
00000000
00001000
00000010
00000001
00000100
00000010
00001000
00000001
00000000
,
00000100
00001000
00000000
00010000
00100000
00000000
10000000
00000000
20020000
00000000
30030000
00000000
11000000
00000000
00110000
00000000
,
00010000
01000000
00100000
00000000
01000000
00010000
00100000
00000000
01000000
00010000
00001000
00010000
00001000
00000010
00000001
00000000
,
00001000
00000010
00000100
00000000
00000010
00001000
00000100
00000000
00000010
00001000
00010000
00001000
00010000
00100000
10000000
01000000
,
00100000
00010000
00001000
00000100
00000010
00000001
00000100
00002000
00020000
00000000
00033000
00000000
00001000
00010000
01000000
10000000
,
00010000
00000000
00100000
00000000
01000000
00000000
11000000
00000000
00000000
00000000
10000000
00100000
00010000
00000000
00010000
00100000
10000000
00000000
10000000
01000000
00100000
00010000
01000000
00001000
00010000
00000000
00001000
00000000
00000100
00000000
00000001
00000000
,
00001000
00000000
00000010
00000000
00000100
00000000
00000101
00000000
00000000
00000000
00000001
00000010
00001000
00000000
00001000
00000010
00000001
00000000
00000001
00000100
00000010
00001000
00000100
00010000
00001000
00000000
00010000
00000000
00100000
00000000
10000000
00000000
,
01000000
00010000
00001000
00010000
00100000
10000000
01000000
00010000
00001000
00010000
00100000
10000000
00000000
00000000
12000000
00000000
,
03100000
00000000
00120000
00000000
00031000
00000000
00012000
00000000
00003010
00000000
00000210
00000000
00000301
00000010
00001000
00010000
,
00001000
00000100
00000001
00000010
00001000
00010000
00001000
00000100
00000001
00000010
00001000
00010000
00000000
00000000
00020100
00000000
,
00031000
00000000
01002000
00000000
00013000
00100000
01000000
00001000
00010000
00000010
00000100
00002000
00020000
00000000
00000000
00000000
,
00000000
00000000
00000000
00000000
,
00000000
00000000
00000000
00000000
,
00000000
00000000
00000000
00033000
,
00001000
00010000
00100000
01000000
00001000
00010000
00100000
01000000
,
00001000
00000000
00100000
01000000
00000000
00010000
00002000
00000000
,
00013000
00001000
00000100
00000010
00010000
00001000
00000100
00000000
,
00000101
00001010
00021000
01030000
,
10000000
01000000
00100000
00010000
10000000
01000000
00100000
00010000
,
00000000
00100000
00001000
00000000
00010000
00000010
00000200
00000000
,
00000301
00000010
00000100
00001000
00010000
00000000
01010000
00000000
,
10000000
01000000
00100000
00010000
00001000
00000000
00001010
00000000
,
00010000
00001000
00000010
00000100
00010000
00001000
00000010
00000100
,
00010000
00000000
00000010
00000100
00000000
00001000
00020000
00000000
,
00031000
00010000
01000000
00100000
00001000
00010000
01000000
00000000
,
11000000
00110000
00012000
00003100
,
00000001
00000100
00000010
00001000
00000001
00000100
00000010
00001000
,
00000000
00000010
00010000
00000000
00001000
00100000
02000000
00000000
,
13000000
00100000
01000000
00010000
00001000
00000000
00001100
00000000
,
00000001
00000100
00000010
00000000
00001000
00010000
02000000
00000000
,
03100000
10000000
01000000
00010000
01000000
10000000
00100000
00010000
,
00001000
00000000
00010000
00000100
00000000
00000010
00000002
00000000
,
00000103
00001000
00010000
00001000
00000010
00000001
00000100
00000000
,
00001010
00011000
00210000
10300000
,
10000000
01000000
00010000
01000000
00100000
10000000
00100000
00010000
,
00000000
00010000
00001000
00000000
00001000
00000010
00000200
00000000
,
00001300
00000100
00000001
00000010
00001000
00000000
00011000
00000000
,
00010000
01000000
10000000
00100000
00010000
00000000
00011000
00000000
,
00001000
00010000
00100000
01000000
00010000
00100000
01000000
00000000
,
00010000
00001000
00000100
00000010
00001000
00000100
00000010
00000000
,
00000001
00000100
00001000
00010000
00100000
10000000
00010000
00000000
,
10000000
01000000
00010000
00001000
00000010
00000001
00001000
00000000
,
00000001
00000100
00001000
00010000
00001000
00010000
00100000
10000000
,
10000000
01000000
00010000
00001000
00010000
00001000
00000010
00000001
,
00000001
00000100
00000010
00001000
00000100
00010000
00001000
00100000
,
00010000
01000000
00100000
10000000
01000000
00100000
00010000
01000000
,
02002000
00000000
00000000
00000000
00000000
00000000
00000000
00000000
00000000
00000000
00000000
00000000
00000000
00000000
03000000
00000000
00013000
00000100
00010000
00000000
00000000
00000000
00000000
00000000
00000000
00000000
00000000
00000000
00000000
00000000
00000000
00000000
,
00020020
00000000
00000000
00000000
00000000
00000000
00000000
00000000
00000000
00000000
00000000
00000000
00000000
00000000
00000030
00000000
00031000
01000000
00001000
00000000
00000000
00000000
00000000
00000000
00000000
00000000
00000000
00000000
00000000
00000000
00000000
00000000
,
00022000
00000000
00000000
00000000
00000000
00000000
00000000
00000000
00000000
00000000
00000000
00000000
00000000
00000000
00000000
00000000
00000000
00000000
00000000
00000000
00000000
00000000
00003000
00000000
00031000
00010000
00001000
00000000
00000000
00000000
00000000
00000000
,
00000000
00000000
00000000
00000000
00002000
00000000
00020000
00033000
,
00001000
00001000
00010000
00100000
01000000
00010000
00100000
01000000
10000000
10000000
01000000
00100000
00010000
00010000
00001000
00000100
,
00000010
00001000
00000100
00000010
00000001
00000001
00000010
00000100
00001000
00010000
00100000
01000000
10000000
00100000
00010000
00001000
,
00022000
00000000
00000000
00000000
,
00000000
00000000
00000000
00033000
,
00010000
00001000
00000010
00000001
00000100
00001000
00010000
00100000
,
20000000
00000000
31000000
00020000
00000000
01030000
20000000
00000000
,
30100000
00010000
00001000
00010000
00100000
00010000
00001000
00000010
,
00000012
00000103
00002100
00013000
,
00001000
00010000
00100000
10000000
01000000
00010000
00001000
00000010
,
00000002
00000000
00000103
00002000
00000000
00003100
00000002
00000000
,
00000013
00001000
00010000
00001000
00000010
00001000
00010000
00100000
,
10000000
01000000
00010000
01000000
00010000
00001000
00010000
00001000
,
00000010
00000001
00001000
00000100
00000001
00001000
00000010
00000001
,
00000200
00000000
00001300
00020000
00000000
00031000
00000200
00000000
,
00000301
00000010
00001000
00010000
01000000
10000000
00100000
00010000
,
00012000
00103000
02100000
13000000
,
01000000
00010000
10000000
00100000
00010000
10000000
02000000
00000000
,
03001000
00020000
00000000
01030000
10000000
00100000
00010000
00001000
,
00100000
01000000
00010000
00001000
00000010
00000100
00010000
00001000
,
00011000
00000000
00010000
00100000
10000000
01000000
00100000
01000000
,
00010000
00001000
00000010
00000100
00000010
00000001
00000100
00001000
,
00010000
00100000
10000000
00010000
01000000
10000000
01000000
00100000
,
00010000
00001000
00000100
00000010
00000001
00000010
00001000
00000001
,
00000100
00000010
00001000
00000100
00000010
00001000
00010000
01000000
,
00100000
00010000
01000000
10000000
00010000
00100000
10000000
01000000
,
00100000
00001000
00010000
00000100
00000010
00000001
00000101
00000000
,
00001010
00000000
00001000
00010000
00100000
01000000
11000000
00000000
,
10000000
00100000
01000000
00010000
00001000
00000010
00000100
00000001
,
00001000
00000100
00000001
00000100
00000010
00000100
00001000
00000001
,
00000001
00000100
00000010
00001000
00010000
01000000
00100000
10000000
,
00010000
00100000
10000000
00100000
01000000
00100000
00010000
10000000
,
10000000
01000000
00010000
00001000
00010000
00100000
00010000
00001000
,
00001000
00000010
00001000
00010000
00001000
00000100
00000001
00000010
,
00001000
00000000
00010000
00000000
00001000
00000000
00010000
00000000
00000000
00100000
00000000
00000000
10000000
00000000
00000000
01000000
00000000
00000000
01000000
00000000
00000000
00010000
00000000
00000000
,
00010000
00000000
00001000
00000000
00010000
00000000
00001000
00000000
00000000
00000010
00000000
00000000
00000001
00000000
00000000
00000100
00000000
00000000
00000100
00000000
00000000
00001000
00000000
00000000
,
00022000
00000000
00000000
00000000
,
00000000
00000000
00000000
00000000
,
00000000
00000000
00000000
00000000
,
00000000
00000000
00000000
00000000
,
00033000
00000000
00000000
00000000
;

//---------------dance-single - ----------------
#NOTEDATA:;
#CHARTNAME:;
#STEPSTYPE:dance-single;
#DESCRIPTION:;
#CHARTSTYLE:;
#DIFFICULTY:Medium;
#METER:13;
#RADARVALUES:0.676107,1.490165,0.408146,0.329990,0.138943,545.000000,498.000000,47.000000,38.000000,0.000000,0.000000,0.000000,0.000000,0.000000,0.676107,1.490165,0.408146,0.329990,0.138943,545.000000,498.000000,47.000000,38.000000,0.000000,0.000000,0.000000,0.000000,0.000000;
#CREDIT:MILEN;
#DISPLAYBPM:*;
#NOTES:
0000
0000
0000
0000
,
0000
0000
0000
0000
,
0000
0000
0000
0000
,
2002
0000
0000
3003
,
1000
0000
0010
0000
0100
0000
0001
0000
1000
0000
0100
0000
0010
0000
0001
0100
,
0000
0100
0010
0000
1000
0000
0001
0100
0000
0100
0010
0000
2000
0000
0000
0000
,
3001
0000
0100
0000
0010
0000
1000
0000
0001
0000
0010
0000
0100
0000
1000
0010
,
0000
0010
0100
0000
0001
0000
1000
0010
0000
0010
0100
0000
0002
0000
0000
0000
,
1003
0000
0100
0000
0010
0000
0001
0000
1000
0000
0010
0000
0100
0000
0001
1000
,
0000
1000
0100
0000
0010
0000
0001
1000
0000
1000
0100
0000
0020
0000
0000
0000
,
0031
0010
0100
1000
0010
0100
0001
1000
,
0220
0330
1000
0001
0220
0330
0001
1000
,
0220
0000
0330
0000
1000
0000
0001
0000
0220
0000
0330
0000
0001
1000
0001
1000
,
0010
0100
0001
0010
1000
0010
0001
0100
,
1000
0100
0001
0010
0110
0000
0100
0010
,
0110
1000
0010
0001
0010
1000
0100
0001
,
0100
1000
0010
0100
0110
0000
0010
0100
,
0110
0001
0010
0100
2000
0000
3010
0100
,
0001
1000
0100
0001
1000
0010
0001
0100
,
0220
0000
0000
0000
0330
0000
0000
0000
1001
0000
0000
0000
1000
0010
0100
1000
,
0100
0010
1000
0100
0000
0101
0000
0011
0000
1010
0000
1001
0001
0100
0010
0001
,
0010
0100
0001
0010
0000
1010
0000
1100
0000
0101
0000
1001
1000
0000
0100
0000
,
0001
0000
1000
0000
0010
0000
0001
0000
0100
0010
0100
0000
0000
0000
0101
0000
,
0000
0011
0000
1100
0000
1001
0001
0010
,
1000
0000
0001
0000
0100
0000
1000
0000
0010
0100
0010
0000
0000
0000
1010
0000
,
0000
1100
0000
0011
0000
1001
2002
0000
,
0000
0000
0000
0000
,
0000
0000
0000
0000
,
0000
0000
0000
3003
,
1000
0000
0010
0100
0000
0001
0100
0000
,
1000
0100
0010
1000
,
0001
0000
0100
0010
0000
1000
0010
0000
,
0001
0010
2010
0000
,
3001
0000
0001
0100
0000
0001
0010
0000
,
1000
0010
0100
0010
,
0001
0100
0001
0000
1000
0000
0001
0000
,
1000
0010
1000
0000
0001
0000
1000
0000
,
0001
0000
0010
0100
0000
1000
0100
0000
,
0001
0100
0010
0001
,
1000
0000
0100
0010
0000
0001
0010
0000
,
1000
0010
0012
0000
,
1003
0000
1000
0100
0000
1000
0010
0000
,
0001
0010
0100
0010
,
1000
0100
1000
0000
0001
0000
1000
0000
,
0001
0010
0001
0000
1000
0001
2000
0000
,
3010
0000
0010
0100
0000
0001
0100
0000
,
1000
0001
0010
1000
,
0100
0000
0010
0100
0000
1000
0100
0000
,
0001
1000
0010
0001
,
0100
0000
0010
1000
0000
0001
0100
0000
,
1000
0001
0010
1000
,
0100
0010
0100
0000
1000
0000
0001
0000
,
0010
0100
0010
0000
0001
0000
0100
0000
,
0010
1000
0010
0000
1000
0000
0001
0000
,
0010
0001
0010
0000
0011
0000
0000
0000
,
0001
0100
0001
0000
1000
0000
0001
0000
,
1000
0100
1000
0000
1010
0000
0000
0000
,
0010
0100
0010
0000
1000
0000
0001
0000
,
0100
0010
0100
0000
0001
0000
1000
0000
,
0010
1000
0010
0000
0100
0001
0100
0000
,
0001
0010
0001
0000
1000
0100
1000
0000
,
2002
0000
0000
3003
1010
0000
0000
0000
,
2002
0000
0000
3003
0011
0000
0000
0000
,
2002
0000
0000
0000
0000
3003
0110
0000
,
0000
0000
0000
0000
2002
0000
0000
3003
,
1000
0100
0001
0010
1000
0001
0100
1000
,
0010
0001
1000
0100
0001
0010
1000
0001
,
2002
0000
0000
0000
,
0000
0000
0000
3003
,
1000
0100
0010
0000
0100
0000
1000
0000
,
0010
0000
0100
0001
0000
0100
1000
0000
,
0100
0010
0001
0000
0010
0000
1000
0000
,
0100
0010
0012
0000
,
1003
0010
0100
0000
1000
0000
0100
0001
,
0000
0100
1000
0000
0100
0000
0010
0000
,
0100
0001
0010
0000
0100
0000
0010
0000
,
0100
1000
0010
0000
0100
0000
1001
0000
,
0001
0100
0010
0000
0100
0000
0001
0000
,
0010
0000
0100
1000
0000
0100
0001
0000
,
0100
0010
1000
0000
0010
0000
0001
0000
,
0100
0010
2010
0000
,
3001
0010
0100
0000
0001
0000
0100
1000
,
0000
0100
0001
0000
0100
0000
0010
0000
,
0100
0010
0001
0000
1000
0100
0010
0000
,
0110
0000
0100
1000
0100
1000
0100
0000
,
0010
0001
0100
0020
,
0000
0000
1030
0001
1000
0001
1000
0000
,
0010
0100
0001
2000
,
0000
0000
3001
0100
0001
0100
0001
0000
,
0010
0100
1000
0200
,
0000
0000
0310
0001
0100
0000
0110
0000
,
0000
0000
0010
1000
0100
0000
0110
0000
,
0010
0100
0001
0000
0100
0000
1000
0000
,
0100
0010
1000
0000
0010
0000
0001
0000
,
1000
0010
0100
0000
1000
0000
0100
0000
,
0001
0100
0010
0000
0001
0000
0010
0000
,
1000
0100
0010
0000
1000
0000
0010
0000
,
0001
0010
0100
0000
0001
0000
0100
0000
,
1000
0010
0100
0000
0001
0100
0010
0000
,
1000
0100
0010
0001
0010
0100
1000
0000
,
2002
0000
0000
0000
,
0000
0000
0000
0000
,
0000
0000
0000
0000
,
0000
0000
0000
0000
,
3003
0000
0000
0000
;

//---------------dance-single - ----------------
#NOTEDATA:;
#CHARTNAME:;
#STEPSTYPE:dance-single;
#DESCRIPTION:;
#CHARTSTYLE:;
#DIFFICULTY:Easy;
#METER:11;
#RADARVALUES:0.392018,0.677348,0.277886,0.225783,0.000000,316.000000,284.000000,32.000000,26.000000,0.000000,0.000000,0.000000,0.000000,0.000000,0.392018,0.677348,0.277886,0.225783,0.000000,316.000000,284.000000,32.000000,26.000000,0.000000,0.000000,0.000000,0.000000,0.000000;
#CREDIT:MILEN;
#DISPLAYBPM:*;
#NOTES:
0000
0000
0000
0000
,
0000
0000
0000
0000
,
0000
0000
0000
0000
,
2002
0000
0000
3003
,
1000
0100
0010
0001
,
1000
0000
0100
0000
0010
0010
0010
0000
,
0001
0010
0100
1000
,
0001
0000
0010
0000
0100
0100
0100
0000
,
1000
0010
0100
0001
,
1000
0000
0010
0000
0001
0001
0001
0000
,
0001
0100
1000
0010
,
0220
0330
2002
3003
,
0220
0330
2002
3003
,
0001
0100
0010
1000
,
0001
0000
0010
0000
0100
0100
0100
0000
,
1000
0010
0100
0001
,
1000
0000
0100
0000
0010
0010
0010
0000
,
0011
0001
1100
1000
,
0101
0001
1010
1000
,
0220
0000
0330
0000
1001
0000
1000
0010
,
0001
0000
0001
0100
1000
0000
0001
0010
,
1000
0000
1000
0100
0001
0000
2001
0000
,
3010
0000
1002
0000
0103
0100
0000
0010
,
0000
1000
0000
0001
0000
0100
0120
0000
,
1030
0000
0210
0000
0301
0001
0000
1000
,
0000
0100
0000
0010
0000
0001
1001
0000
,
0000
0000
0000
0000
,
0000
0000
0000
0000
,
0000
0000
0000
0000
,
1000
0000
0100
0000
,
0010
0000
0001
0000
,
1000
0000
0010
0000
,
0100
0010
0110
0000
,
0001
0000
0010
0000
,
0100
0000
1000
0000
,
0010
0100
0001
0000
,
0100
0010
1000
0000
,
0001
0000
0010
0000
,
0100
0000
1000
0000
,
0001
0000
0100
0000
,
0010
0100
0110
0000
,
1000
0000
0100
0000
,
0010
0000
0001
0000
,
0100
0010
1000
0000
,
0010
0100
0001
0000
,
1000
0100
0010
0000
,
0010
0000
0001
0000
,
1000
0010
0100
0000
,
0100
0000
0001
0000
,
1000
0100
0010
0000
,
0010
0000
0001
0000
,
1000
0010
0110
0000
,
0001
0100
0110
0000
,
1000
0000
0010
0000
,
0001
0000
0100
0000
,
1000
0000
0010
0000
,
0001
0000
0100
0000
,
1000
0000
0010
0000
,
0001
0000
0100
0000
,
1000
0001
1000
0001
,
0010
0100
0010
0000
,
0220
0030
1300
0000
,
0220
0300
0031
0000
,
0220
0000
0330
1001
,
0000
0000
0220
0330
,
0010
1000
0010
0000
0100
0001
0100
0000
,
0010
1000
0010
0100
0001
0100
0010
0000
,
1001
0000
0000
0000
,
0000
0000
0000
0000
,
1000
0100
0010
0001
,
0010
0000
0010
0000
,
1000
0100
0010
0001
,
0010
0000
0010
0000
,
0001
0100
0010
1000
,
0010
0000
0010
0000
,
0001
0100
0010
0000
,
1000
0010
0100
0000
,
0001
0010
0100
1000
,
0100
0000
0100
0000
,
0001
0010
0100
1000
,
0100
0000
0100
0000
,
0001
0100
0010
1000
,
0010
0000
0010
0000
,
0001
0100
0010
1000
,
1001
0001
0100
1000
,
0010
0000
0000
0000
,
0000
1000
0100
0001
,
0010
0000
0000
0000
,
0000
0001
0100
1000
,
0010
0000
0000
0000
,
0000
0110
0110
0000
,
0000
1001
1001
0000
,
1000
0100
0010
0000
,
0010
0001
0100
0000
,
1000
0100
0010
0000
,
0010
0001
0100
0000
,
1000
0100
0010
0000
,
0010
0001
0100
0000
,
1000
0100
0010
0001
,
1000
0100
0010
0001
,
2002
0000
0000
0000
,
0000
0000
0000
0000
,
0000
0000
0000
0000
,
0000
0000
0000
0000
,
3003
0000
0000
0000
;

//---------------dance-single - ----------------
#NOTEDATA:;
#CHARTNAME:;
#STEPSTYPE:dance-single;
#DESCRIPTION:;
#CHARTSTYLE:;
#DIFFICULTY:Beginner;
#METER:9;
#RADARVALUES:0.282849,0.587035,0.104207,0.138943,0.000000,228.000000,216.000000,12.000000,16.000000,0.000000,0.000000,0.000000,0.000000,0.000000,0.282849,0.587035,0.104207,0.138943,0.000000,228.000000,216.000000,12.000000,16.000000,0.000000,0.000000,0.000000,0.000000,0.000000;
#CREDIT:MILEN;
#DISPLAYBPM:*;
#NOTES:
0000
0000
0000
0000
,
0000
0000
0000
0000
,
0000
0000
0000
0000
,
2002
0000
0000
3003
,
1000
1000
1000
0000
,
0010
0010
0010
0000
,
0001
0001
0001
0000
,
0100
0100
0100
0000
,
1000
1000
0001
0000
,
0100
0100
0010
0000
,
1000
1000
0001
0001
,
0200
0300
0020
0030
,
0200
0300
0010
0010
,
1000
0100
0010
0000
,
0001
0010
0100
0000
,
1000
0010
0100
0000
,
0001
0100
0010
0000
,
1000
0001
1000
0001
,
0010
0100
0020
0000
,
0000
0030
0110
0001
,
0001
0000
0001
0100
0010
0010
1000
0000
,
1000
0000
1000
0100
0010
0010
0001
0000
,
0100
0000
1000
0000
0010
0010
0000
0001
,
0000
1000
0000
1001
0000
0000
1000
0000
,
0010
0000
0001
0000
0100
0100
0000
1000
,
0000
0001
0000
1001
0000
0000
0110
0000
,
0000
0000
0000
0000
,
0000
0000
0000
0000
,
0000
0000
0000
0000
,
0010
0000
1000
0000
,
0001
0000
0000
0000
,
0100
0000
0001
0000
,
1000
1000
1000
0000
,
0010
0000
1000
0000
,
0100
0000
0000
0000
,
0010
0000
0001
0000
,
0010
0000
0001
0000
,
0010
0000
0001
0000
,
1000
0000
0000
0000
,
0010
0000
1000
0000
,
0001
0001
0001
0000
,
0010
0000
0001
0000
,
0100
0000
0000
0000
,
0010
0000
1000
0000
,
0010
0000
1000
0000
,
0001
0000
0010
0000
,
0100
0000
0000
0000
,
1000
0000
0100
0000
,
0010
0010
0010
0000
,
0001
0000
0100
0000
,
0010
0000
0000
0000
,
1000
0000
0010
0000
,
0100
0000
0001
0000
,
1000
0000
0000
0000
,
0010
0000
0000
0000
,
0001
0000
0000
0000
,
0100
0000
0000
0000
,
1000
0000
0010
0000
,
0001
0000
0100
0000
,
1000
0000
0001
0000
,
1000
0000
0001
0000
,
2002
0000
3003
0000
,
2002
0000
3003
0000
,
2002
0000
0000
3003
,
0000
0000
2002
3003
,
1000
1000
1000
0000
0001
0000
1000
0000
,
0001
0001
0001
0000
1000
0000
0001
0000
,
1001
0000
0000
0000
,
0000
0000
0000
0000
,
1000
0000
0010
0000
,
0001
0000
0000
0000
,
0001
0000
0100
0000
,
1000
1000
1000
0000
,
0010
0000
0001
0000
,
0100
0000
0000
0000
,
1000
0000
0010
0000
,
1000
0000
0010
0000
,
0001
0000
0010
0000
,
1000
0000
0000
0000
,
1000
0000
0100
0000
,
0001
0001
0001
0000
,
0010
0000
1000
0000
,
0100
0000
0000
0000
,
0001
0000
1000
0000
,
1001
0001
0001
0001
,
0000
1000
0000
0001
,
0000
1000
1000
1000
,
0000
0001
0000
1000
,
0000
0010
0010
0010
,
0000
0100
0000
0010
,
0000
0100
0100
0000
,
0000
0010
0010
0000
,
1000
0000
0100
0000
,
1000
0000
0100
0000
,
0001
0000
0010
0000
,
0001
0000
0010
0000
,
1000
0000
0100
0000
,
0001
0000
0010
0000
,
1000
0000
0001
0000
,
0100
0010
0100
0010
,
2002
0000
0000
0000
,
0000
0000
0000
0000
,
0000
0000
0000
0000
,
0000
0000
0000
0000
,
3003
0000
0000
0000
;

//---------------dance-double - ----------------
#NOTEDATA:;
#CHARTNAME:;
#STEPSTYPE:dance-double;
#DESCRIPTION:;
#CHARTSTYLE:;
#DIFFICULTY:Easy;
#METER:11;
#RADARVALUES:0.374650,0.632191,0.269202,0.208415,0.000000,302.000000,271.000000,31.000000,24.000000,0.000000,0.000000,0.000000,0.000000,0.000000,0.374650,0.632191,0.269202,0.208415,0.000000,302.000000,271.000000,31.000000,24.000000,0.000000,0.000000,0.000000,0.000000,0.000000;
#CREDIT:MILEN;
#DISPLAYBPM:*;
#NOTES:
00000000
00000000
00000000
00000000
,
00000000
00000000
00000000
00000000
,
00000000
00000000
00000000
00000000
,
00022000
00000000
00000000
00033000
,
00001000
00010000
00100000
10000000
,
01000000
00010000
00001000
00011000
,
00010000
00001000
00000100
00000001
,
00000010
00001000
00010000
00011000
,
00001000
00010000
01000000
10000000
,
00100000
00010000
00001000
00011000
,
00010000
00001000
00000100
00000001
,
00002002
00003003
00022000
00033000
,
20020000
30030000
00022000
00033000
,
00001000
00100000
01000000
10000000
,
00100000
00010000
00001000
00011000
,
00010000
00000100
00000010
00000001
,
00000100
00001000
00010000
00011000
,
01000000
00011000
00000100
00011000
,
00100000
00011000
00000010
00020000
,
00002000
00000000
00033000
00000000
00011000
00000000
00010000
00100000
,
10000000
00000000
10000000
01000000
00010000
00000000
00001000
00000010
,
00000001
00000000
00000001
00000100
00001000
00000000
00021000
00000000
,
00030010
00000000
00012000
00000000
00103000
00100000
00000000
01000000
,
00000000
10000000
00000000
00100000
00000000
00010000
00012000
00000000
,
01003000
00000000
00021000
00000000
00030100
00000100
00000000
00000010
,
00000000
00000001
00000000
00000100
00000000
00001000
00011000
00000000
,
00000000
00000000
00000000
00000000
,
00000000
00000000
00000000
00000000
,
00000000
00000000
00000000
00000000
,
00001000
00000000
00010000
00000000
,
00100000
00000000
10000000
00000000
,
01000000
00000000
00010000
00000000
,
00001000
00010000
00011000
00000000
,
00010000
00000000
00001000
00000000
,
00000010
00000000
00000001
00000000
,
00000100
00001000
00010000
00000000
,
01000000
00010000
00001000
00000000
,
00010000
00000000
00001000
00000000
,
00000010
00000000
00000001
00000000
,
00000100
00000000
00001000
00000000
,
00010000
00001000
00011000
00000000
,
00001000
00000000
00010000
00000000
,
00100000
00000000
10000000
00000000
,
01000000
00010000
00001000
00000000
,
00000100
00001000
00010000
00000000
,
00001000
00100000
01000000
00000000
,
10000000
00000000
00100000
00000000
,
00010000
00000100
00000010
00000000
,
00000001
00000000
00000100
00000000
,
00001000
00010000
01000000
00000000
,
10000000
00000000
00100000
00000000
,
00010000
00001000
00000010
00000000
,
00001000
00000010
00000001
00000000
,
00000100
00000000
00001000
00000000
,
00010000
00000000
00001000
00000000
,
00000100
00000000
00001000
00000000
,
00010000
00000000
01000000
00000000
,
00010000
00000000
00001000
00000000
,
00010000
00000000
01000000
00000000
,
10000000
00100000
10000000
00100000
,
00010000
00001000
00010000
00001000
,
00021000
00000000
00030010
00000000
,
00012000
00000000
01003000
00000000
,
00022000
00000000
00033000
00011000
,
00000000
00000000
00022000
00033000
,
00010000
01000000
00010000
00000000
00001000
00000100
00001000
00000000
,
00010000
00100000
00010000
00000000
00001000
00000010
00001000
00000000
,
00011000
00000000
00000000
00000000
,
00000000
00000000
00000000
00000000
,
00010000
00001000
00000100
00000010
,
00010000
00000000
00000000
00000000
,
00001000
00010000
00100000
01000000
,
00001000
00000000
00000000
00000000
,
00010000
00001000
00000100
00000010
,
00010000
00000000
00000000
00000000
,
00001000
00010000
00100000
00000000
,
10000000
01000000
00100000
00000000
,
00001000
00010000
01000000
10000000
,
00100000
00000000
00000000
00000000
,
00010000
00001000
00000100
00000001
,
00000010
00000000
00000000
00000000
,
00001000
00010000
00100000
10000000
,
01000000
00000000
00000000
00000000
,
00010000
00001000
00000010
00000001
,
00001001
00001000
00000100
00000010
,
00001000
00000000
00000000
00000000
,
00000000
00010000
01000000
00100000
,
00010000
00000000
00000000
00000000
,
00000000
00001000
00010000
00100000
,
01000000
00000000
00000000
00000000
,
00000000
01100000
00000000
00000000
,
00000000
10010000
00000000
00000000
,
10000000
01000000
00100000
00000000
,
01000000
00100000
00010000
00000000
,
00100000
00010000
00001000
00000000
,
00010000
00001000
00000100
00000000
,
00001000
00000100
00000010
00000000
,
00000100
00000010
00000001
00000000
,
00000100
00001000
00010000
01000000
,
00010000
00001000
00000100
00001000
,
00022000
00000000
00000000
00000000
,
00000000
00000000
00000000
00000000
,
00000000
00000000
00000000
00000000
,
00000000
00000000
00000000
00000000
,
00033000
00000000
00000000
00000000
;

//---------------dance-double - ----------------
#NOTEDATA:;
#CHARTNAME:;
#STEPSTYPE:dance-double;
#DESCRIPTION:;
#CHARTSTYLE:;
#DIFFICULTY:Medium;
#METER:14;
#RADARVALUES:0.674867,1.490165,0.434197,0.303938,0.134601,544.000000,494.000000,50.000000,35.000000,0.000000,0.000000,0.000000,0.000000,0.000000,0.674867,1.490165,0.434197,0.303938,0.134601,544.000000,494.000000,50.000000,35.000000,0.000000,0.000000,0.000000,0.000000,0.000000;
#CREDIT:MILEN;
#DISPLAYBPM:*;
#NOTES:
// measure 0
00000000
00000000
00000000
00000000
,  // measure 1
00000000
00000000
00000000
00000000
,  // measure 2
00000000
00000000
00000000
00000000
,  // measure 3
00022000
00000000
00000000
00033000
,  // measure 4
00001000
00000000
00010000
00000000
01000000
00000000
10000000
00000000
01000000
00000000
00010000
00000000
00001000
00000000
00100000
01000000
,  // measure 5
00000000
01000000
00010000
00000000
00001000
00000000
00100000
01000000
00000000
01000000
00010000
00000000
00002000
00000000
00000000
00000000
,  // measure 6
00013000
00000000
00001000
00000000
00000100
00000000
00000001
00000000
00000100
00000000
00001000
00000000
00010000
00000000
00000010
00000100
,  // measure 7
00000000
00000100
00001000
00000000
00010000
00000000
00000010
00000100
00000000
00000100
00001000
00000000
00020000
00000000
00000000
00000000
,  // measure 8
00031000
00000000
00010000
00000000
01000000
00000000
10000000
00000000
00100000
00000000
00010000
00000000
00001000
00000000
00000010
00000100
,  // measure 9
00000000
00000100
00010000
00000000
00001000
00000000
00000010
00000100
00000000
00000100
00010000
00000000
00002000
00000000
00000000
00000000
,  // measure 10
00013000
00001000
00000010
00000001
00000100
00001000
00010000
00100000
,  // measure 11
20200000
30300000
10000000
01000000
02020000
03030000
00010000
00001000
,  // measure 12
00002200
00000000
00003300
00000000
00000100
00000000
00000001
00000000
00000022
00000000
00000033
00000000
00000010
00001000
00000010
00000000
,  // measure 13
00001000
00010000
00100000
00001000
00100000
10000000
00100000
00001000
,  // measure 14
00100000
10000000
01000000
00010000
00011000
00000000
00001000
00001000
,  // measure 15
00011000
00010000
00001000
00000100
00010000
00000100
00000001
00000100
,  // measure 16
00010000
00000100
00000001
00000010
00001010
00000000
00001000
00001000
,  // measure 17
00011000
00010000
01000000
10000000
00200000
00000000
00310000
00100000
,  // measure 18
01000000
00010000
00100000
01000000
00010000
00001000
00000010
00000001
,  // measure 19
00002002
00000000
00000000
00000000
00003003
00000000
00000000
00000000
00000110
00000000
00000000
00000000
00000010
00010000
00001000
00100000
,  // measure 20
01000000
10000000
00100000
01000000
00000000
01010000
00000000
00011000
00000000
00110000
00000000
01100000
01000000
00001000
00010000
00000100
,  // measure 21
00000010
00000001
00000100
00000010
00000000
00001010
00000000
00011000
00000000
00001100
00000000
00000110
00000100
00000000
00000001
00000000
,  // measure 22
00000010
00000000
00001000
00000000
00010000
00000000
01000000
00000000
10000000
00100000
01000000
00000000
00000000
00000000
01010000
00000000
,  // measure 23
00000000
00011000
00000000
00110000
00000000
01100000
00100000
10000000
,  // measure 24
01000000
00000000
00010000
00000000
00001000
00000000
00000010
00000000
00000001
00000100
00000010
00000000
00000000
00000000
00001010
00000000
,  // measure 25
00000000
00011000
00000000
00001100
00000000
00000110
00002002
00000000
,  // measure 26
00000000
00000000
00000000
00000000
,  // measure 27
00000000
00000000
00000000
00000000
,  // measure 28
00000000
00000000
00000000
00003003
,  // measure 29
00000001
00000000
00000100
00001000
00000000
00000100
00000010
00000000
,  // measure 30
00010000
00001000
00100000
01000000
,  // measure 31
10000000
00000000
00100000
00010000
00000000
00100000
01000000
00000000
,  // measure 32
00010000
00100000
00102000
00000000
,  // measure 33
00013000
00000000
00010000
00000100
00000000
00000010
00000100
00000000
,  // measure 34
00001000
00000010
00000001
00001000
,  // measure 35
00000100
00000010
00000100
00000000
00001000
00000000
00010000
00000000
,  // measure 36
00100000
01000000
00100000
00000000
10000000
00000000
00010000
00000000
,  // measure 37
10000000
00000000
01000000
00010000
00000000
01000000
00100000
00000000
,  // measure 38
00001000
00010000
00000010
00000100
,  // measure 39
00000001
00000000
00000010
00001000
00000000
00000010
00000100
00000000
,  // measure 40
00001000
00000010
00020010
00000000
,  // measure 41
00031000
00000000
00001000
01000000
00000000
00100000
01000000
00000000
,  // measure 42
00010000
00100000
10000000
00010000
,  // measure 43
01000000
00100000
01000000
00000000
00010000
00000000
00001000
00000000
,  // measure 44
00000010
00000100
00000010
00000000
00000001
00001000
00000002
00000000
,  // measure 45
00000103
00000000
00000100
00001000
00000000
00000100
00000010
00000000
,  // measure 46
00010000
00001000
00100000
01000000
,  // measure 47
10000000
00000000
00100000
00010000
00000000
00100000
01000000
00000000
,  // measure 48
00010000
00100000
01000000
00010000
,  // measure 49
00001000
00000000
00000010
00000001
00000000
00000010
00000100
00000000
,  // measure 50
00000001
00000100
00001000
00000010
,  // measure 51
00010000
00001000
00010000
00000000
01000000
00000000
10000000
00000000
,  // measure 52
00100000
01000000
00100000
00000000
00010000
00000000
00001000
00000000
,  // measure 53
00000100
00000010
00000100
00000000
00000001
00000000
00000010
00000000
,  // measure 54
00001000
00010000
00110000
00000000
,  // measure 55
00100000
10000000
00100000
00000000
01000000
00000000
00010000
00000000
,  // measure 56
00100000
00001000
00011000
00000000
,  // measure 57
00010000
00000100
00010000
00000000
00001000
00000000
00000010
00000000
,  // measure 58
00000001
00000100
00001000
00010000
,  // measure 59
00100000
10000000
00100000
00000000
10000000
01000000
10000000
00000000
,  // measure 60
01000000
00010000
01000000
00000000
00010000
00001000
00010000
00000000
,  // measure 61
00022000
00000000
00000000
00033000
01001000
00000000
00000000
00000000
,  // measure 62
00022000
00000000
00000000
00033000
00010100
00000000
00000000
00000000
,  // measure 63
00022000
00000000
00000000
00000000
00000000
00033000
00101000
00000000
,  // measure 64
00000000
00000000
00000000
00000000
00020020
00000000
00000000
00030030
,  // measure 65
00010000
00001000
00000100
00000001
00000010
00001000
00010000
01000000
,  // measure 66
10000000
00100000
00010000
00001000
00000100
00000001
00000010
00001000
,  // measure 67
00022000
00000000
00000000
00000000
,  // measure 68
00000000
00000000
00000000
00033000
,  // measure 69
00001000
00010000
00100000
00000000
10000000
00000000
01000000
00000000
,  // measure 70
00100000
00000000
01000000
00010000
00000000
00001000
00010000
00000000
,  // measure 71
00001000
00000100
00000010
00000000
00001000
00000000
00000001
00000000
,  // measure 72
00000010
00000100
00020100
00000000
,  // measure 73
00031000
00010000
00100000
00000000
10000000
00000000
01000000
00010000
,  // measure 74
00000000
00001000
00010000
00000000
00100000
00000000
00010000
00000000
,  // measure 75
00001000
00000010
00000001
00000000
00000100
00000000
00001000
00000000
,  // measure 76
00010000
00001000
00100000
00000000
01000000
00000000
11000000
00000000
,  // measure 77
10000000
00100000
00010000
00000000
00100000
00000000
01000000
00000000
,  // measure 78
00010000
00000000
00100000
01000000
00000000
00010000
00001000
00000000
,  // measure 79
00010000
00000100
00001000
00000000
00000100
00000000
00000010
00000000
,  // measure 80
00000001
00000100
00000120
00000000
,  // measure 81
00010030
00001000
00000100
00000000
00000001
00000000
00000010
00001000
,  // measure 82
00000000
00010000
00001000
00000000
00100000
00000000
01000000
00000000
,  // measure 83
10000000
00100000
00010000
00000000
00001000
00000100
00000001
00000000
,  // measure 84
00001001
00000000
00001000
00000100
00001000
00000100
00000010
00000000
,  // measure 85
00000001
00000100
00001000
00011000
,  // measure 86
00000000
00000000
00010000
00001000
00010000
00001000
00100000
00000000
,  // measure 87
01000000
10000000
00100000
01100000
,  // measure 88
00000000
00000000
01000000
00001000
01000000
00001000
00010000
00000000
,  // measure 89
00001000
00000100
00000001
00000011
,  // measure 90
00000000
00000000
00000010
00000100
00010000
00000000
00011000
00000000
,  // measure 91
00000000
00000000
01000000
00100000
00001000
00000000
00011000
00000000
,  // measure 92
00010000
00001000
00000010
00000000
00000001
00000000
00000010
00000000
,  // measure 93
00000001
00000100
00001000
00000000
00010000
00000000
00001000
00000000
,  // measure 94
00010000
00100000
10000000
00000000
00100000
00000000
10000000
00000000
,  // measure 95
01000000
00010000
00001000
00000000
00010000
00000000
00001000
00000000
,  // measure 96
00000010
00000001
00000100
00000000
00000001
00000000
00000100
00000000
,  // measure 97
00001000
00010000
00100000
00000000
00010000
00000000
00100000
00000000
,  // measure 98
10000000
01000000
00010000
00000000
00001000
00000010
00000001
00000000
,  // measure 99
00000100
00001000
00010000
00001000
00010000
00100000
00010000
00000000
,  // measure 100
00022000
00000000
00000000
00000000
,  // measure 101
00000000
00000000
00000000
00000000
,  // measure 102
00000000
00000000
00000000
00000000
,  // measure 103
00000000
00000000
00000000
00000000
,  // measure 104
00033000
00000000
00000000
00000000
;
