#TITLE:U;
#SUBTITLE:;
#ARTIST:Super Junior M;
#TITLETRANSLIT:;
#SUBTITLETRANSLIT:;
#ARTISTTRANSLIT:;
#GENRE:POP CHARTS;
#CREDIT:MUINELIM;
#BANNER:U.png;
#BACKGROUND:U-bg.png;
#LYRICSPATH:;
#CDTITLE:;
#MUSIC:U.mp3;
#OFFSET:0.016500;
#SAMPLESTART:42.684002;
#SAMPLELENGTH:11.939999;
#SELECTABLE:YES;
#BPMS:0.000000=115;
#STOPS:147.000000=0.521736;
#BGCHANGES:;
#KEYSOUNDS:;
#ATTACKS:;

//---------------dance-single - ----------------
#NOTES:
     dance-single:
     :
     Beginner:
     1:
     0.068946,0.114372,0.020109,0.000000,0.000000,48.000000,46.000000,2.000000,0.000000,0.000000,0.000000,0.068946,0.114372,0.020109,0.000000,0.000000,48.000000,46.000000,2.000000,0.000000,0.000000,0.000000:
0000
0000
0000
0000
,
0000
0000
0000
0000
,
0000
0000
0000
0000
,
0000
0000
0000
0000
,
0000
0000
0000
1000
,
0000
0000
0000
1000
,
0000
0000
0000
1000
,
0000
0000
0000
1000
,
0000
0000
0000
0001
,
0000
0000
0000
0001
,
0000
0000
0000
0001
,
0000
0000
0000
0001
,
0000
0000
0000
1000
,
0000
0000
0000
1000
,
0000
0000
0000
0001
,
0000
0000
0000
0001
,
0000
0000
0000
1000
,
0000
0000
0000
0000
,
0000
0000
0000
0001
,
0000
0000
0000
0000
,
0000
0000
0000
1000
,
0000
1000
0000
1000
,
0000
0000
0000
1000
,
0000
0000
0000
1000
,
0000
0000
0000
0001
,
0000
0001
0000
0001
,
0000
0000
0000
0001
,
0000
0000
0000
0001
,
0000
0000
0000
1000
,
0000
0000
0000
0001
,
0000
0000
0000
1000
,
0000
0000
0000
0001
,
0000
0000
0000
1000
,
0000
1000
0000
1000
,
0000
1000
0000
1000
,
0000
0000
0000
0001
,
0000
0000
0000
1001
,
0000
0000
1000
0000
,
0001
0000
1000
0000
,
0000
0000
0001
0000
,
0000
0000
1000
0000
,
0000
0000
0001
0000
,
1000
0000
0001
0000
,
0000
0000
1000
0000
,
0000
0000
0001
0000
,
0000
0000
1001
0000
;

//---------------dance-single - ----------------
#NOTES:
     dance-single:
     :
     Easy:
     4:
     0.155130,0.230001,0.090492,0.100547,0.000000,108.000000,99.000000,9.000000,10.000000,0.000000,0.000000,0.155130,0.230001,0.090492,0.100547,0.000000,108.000000,99.000000,9.000000,10.000000,0.000000,0.000000:
0000
0000
0000
0000
,
0000
0000
0000
0000
,
0000
0000
0000
0000
,
0000
0000
0000
0000
,
0000
0000
0000
1000
,
0000
1000
0000
0001
,
0000
0001
0000
1000
,
0000
0001
0000
1001
,
0000
1001
0000
0100
,
0000
0100
0000
0010
,
0000
0010
0000
0100
,
0000
0010
0000
0110
,
0000
0110
0000
1000
,
0000
0010
0000
0001
,
0000
0100
0000
1000
,
0000
0010
0000
0001
,
0000
0100
0000
2000
,
0000
3000
0001
0001
,
0001
0000
0000
0100
,
0010
1000
0001
0100
,
0100
0100
0100
1000
,
0010
1000
0000
0002
,
0000
0003
1000
1000
,
0000
0000
0001
0001
,
0100
1000
0010
0001
,
0100
0001
0000
2000
,
0000
3000
0001
0001
,
0000
1000
1000
0010
,
0000
0001
0000
0200
,
0000
0300
0000
0200
,
0000
0300
0000
0200
,
0000
0300
0000
1001
,
1001
1001
0000
1000
,
0000
0001
0000
1000
,
0000
0001
0000
1000
,
0001
1000
0001
1000
,
0100
0010
0001
1001
,
0000
0001
0010
0001
,
0000
2000
0000
3000
,
0001
0001
0000
0000
,
1000
1000
0100
0001
,
0010
1000
0100
1000
,
0000
0002
0000
0003
,
1000
1000
0000
0001
,
0001
0010
0000
1000
,
0000
0100
0220
0330
;

//---------------dance-single - ----------------
#NOTES:
     dance-single:
     :
     Medium:
     6:
     0.265731,0.346887,0.090492,0.130711,0.005027,185.000000,176.000000,9.000000,13.000000,0.000000,0.000000,0.265731,0.346887,0.090492,0.130711,0.005027,185.000000,176.000000,9.000000,13.000000,0.000000,0.000000:
0000
0000
0000
0000
,
0000
0000
0000
0000
,
0000
0000
0000
0000
,
0000
0000
0000
0000
,
0000
0000
0000
1000
,
0000
0001
0000
1000
,
1000
0001
0001
1000
,
0001
1000
0001
1001
,
0000
0100
0100
0010
,
0000
0100
0000
0010
,
0010
0100
0100
0010
,
0100
0010
0100
0110
,
0000
1000
0001
1000
,
0100
0010
0001
0100
,
0000
0000
0010
0000
0100
0010
0100
0000
,
0000
0000
0010
0000
0100
0010
2000
0000
,
3002
0000
0000
0000
0003
1000
1000
0000
,
0100
0000
0001
0000
0010
0000
1000
0001
,
2002
0000
3003
1000
,
0010
0001
0100
1000
,
1000
0000
0010
0100
0010
0100
0010
0000
,
1000
0000
0001
0000
0100
0010
0110
0000
,
0000
0000
0000
0010
1000
0000
0001
0000
,
0001
0000
1000
0000
0010
1000
0001
0000
,
0001
0000
1000
0000
0010
0100
0100
0000
,
0001
0000
1000
0000
0010
0100
0110
0000
,
0000
0000
0000
0100
0001
0000
1000
0000
,
1000
0000
0100
1000
0001
0000
1000
0000
,
1000
0000
0001
0000
0100
0000
0010
0010
,
0000
0000
1000
0000
0001
0000
0010
0010
,
0000
0000
1000
0000
0001
0000
0010
0010
,
0000
0000
0000
0000
0100
0000
0010
0000
0100
0000
0000
0000
0002
0000
0000
2003
,
0000
3020
0000
0030
0100
0100
0001
1000
,
0000
1000
0100
0000
0100
0010
0000
0010
,
0001
0000
0001
0100
0110
0000
2000
0000
,
3200
0000
0320
0000
0001
0030
0001
0100
,
0010
1000
0001
0100
0010
1000
1001
0000
,
0020
0000
0130
0100
0010
0000
1000
0000
,
0001
0000
0100
0010
1010
0000
0000
0000
,
0000
0001
0100
0000
1000
0000
0010
0000
,
0001
0000
0100
1000
0010
0000
0001
0000
,
0100
0000
1000
1000
0100
0000
0001
0000
,
1000
0000
0010
0100
0101
0000
0000
0000
,
0000
1000
0010
0000
0001
0000
0100
0000
,
1000
0000
0010
0001
0100
0000
1000
0000
,
0010
0000
0001
1000
0020
0000
0230
0000
,
0300
0000
0000
0000
;

//---------------dance-single - ----------------
#NOTES:
     dance-single:
     :
     Hard:
     10:
     0.384951,0.416264,0.160875,0.341860,0.105574,268.000000,252.000000,16.000000,34.000000,0.000000,0.000000,0.384951,0.416264,0.160875,0.341860,0.105574,268.000000,252.000000,16.000000,34.000000,0.000000,0.000000:
0000
0000
0000
0000
,
0000
0000
0000
0000
,
0000
0000
0000
0000
,
0000
0000
0000
0000
,
0000
0000
0000
1000
,
0001
0000
0100
0001
1000
0000
0001
0000
,
1000
0000
0010
1000
0001
0000
1000
0000
,
0001
0000
0100
0001
1000
0010
0100
0100
,
0100
0000
0010
0100
0110
0000
0001
0000
,
1000
0000
0100
1000
0001
0000
1000
0000
,
0001
0000
0010
0001
1000
0000
0001
0000
,
1000
0000
0100
1000
0001
0010
0100
0100
,
0100
0000
0010
0100
0110
0000
0002
0000
,
0203
0000
2300
0000
3020
0000
0031
0001
,
0000
0100
0000
0000
0010
0000
1000
0000
1100
0000
0000
0000
0020
0000
0000
0000
,
2030
0000
3200
0000
0302
0000
0013
0010
,
0000
0100
0010
0001
1000
0100
0120
0000
,
0001
0000
1000
0000
,
0001
0000
0000
0000
1000
0030
0001
0001
,
0100
0000
0100
0000
0020
0000
0000
2030
0000
0000
3002
0000
0000
0000
0103
0000
,
0100
0000
0010
0000
1000
0000
0100
0000
0010
0000
0001
0000
0100
0000
0000
0100
,
0010
0000
0000
0010
1000
0000
1000
0000
0100
0000
0010
0000
0001
0000
0100
0000
,
0010
0000
1000
0010
0100
0001
2000
0000
,
0000
3100
0002
0000
0000
0103
1000
0100
,
0010
0000
0001
0000
1000
0000
0100
0000
0110
0000
0000
0000
0001
0000
0000
0001
,
0100
0000
0000
0100
0010
0000
0010
0000
1000
0000
0001
0000
0010
0000
0100
0000
,
1000
0010
0100
0001
1000
0100
0020
0000
,
0000
0130
0002
0000
0000
0103
2000
0000
,
0000
0000
3010
0000
0100
0000
0100
0000
0001
0000
1000
0000
0010
0100
0010
0000
,
1000
0000
0000
0000
0000
0000
0001
0000
1000
0000
0000
0000
0010
0100
0010
0000
,
1000
0000
0000
0000
0000
0000
0001
0000
0001
0000
1000
0000
0010
0100
0010
0000
,
1000
0000
0000
0000
1000
0000
0100
0000
0012
0000
0000
0000
2003
0000
0000
3020
,
0000
0230
0000
0301
1001
0000
1000
1000
,
0000
0000
0010
0000
0010
0000
0000
0000
0001
0000
0001
0000
0000
0000
0100
1000
,
0100
0000
0000
0000
0010
0000
0100
0000
0110
0000
0000
0000
0002
0000
0000
0023
,
0000
0000
2030
0000
0000
3200
0000
0000
0302
0000
0000
0000
1003
0000
1000
0000
,
0010
0100
0001
0010
0100
1000
1001
0000
,
0220
0000
0330
0000
0010
0000
0010
0000
1000
0000
0000
1000
0100
0000
0000
0100
,
0010
0000
0000
0010
0001
0000
0000
0001
0100
0000
0010
0000
1000
0000
0010
0000
,
0100
0001
0010
0100
2100
0000
3010
0100
,
0120
0000
1030
0100
1100
1000
0010
0001
,
0010
0000
0100
0000
0001
0000
1000
0000
0100
0000
0000
0100
0010
0000
0000
0010
,
0001
0000
0000
0001
0100
0000
0000
0100
0010
0000
0010
0000
1000
0000
0001
0000
,
0010
0100
1000
0010
0210
0000
0301
0010
,
0012
0000
0103
0010
1010
1000
0001
0010
,
1000
0010
0100
1000
0002
0000
0203
0000
,
0300
0000
0000
0000
;

//---------------dance-double - ----------------
#NOTES:
     dance-double:
     :
     Easy:
     4:
     0.152257,0.208132,0.100547,0.140766,0.000000,106.000000,96.000000,10.000000,14.000000,0.000000,0.000000,0.152257,0.208132,0.100547,0.140766,0.000000,106.000000,96.000000,10.000000,14.000000,0.000000,0.000000:
00000000
00000000
00000000
00000000
,
00000000
00000000
00000000
00000000
,
00000000
00000000
00000000
00000000
,
00000000
00000000
00000000
00000000
,
00000000
00000000
00000000
00001000
,
00000000
00001000
00000000
01000000
,
00000000
01000000
00000000
00001000
,
00000000
01000000
00000000
00001000
,
00000000
00011000
00000000
00010000
,
00000000
00010000
00000000
00000100
,
00000000
00000100
00000000
00010000
,
00000000
00000100
00000000
00010000
,
00000000
00011000
00000000
00001000
,
00000000
00010000
00000000
00100000
,
00000000
00001000
00000000
00000010
,
00000000
00010000
00000000
01000000
,
00000000
00001000
00000000
00000200
,
00000000
00000300
00000010
00001000
,
00011000
00000000
00000000
00001000
,
00010000
00100000
01000000
01000000
,
00000000
10010000
00000000
10000000
,
00100000
00010000
00000000
00022000
,
00000000
00033000
00010000
00001000
,
00000000
00000000
00001000
00010000
,
00001000
00000010
00000000
00000001
,
00000100
00001000
00000000
00022000
,
00000000
00033000
00001000
00010000
,
00000000
00010000
00001000
00010000
,
01000000
00000000
10000000
00200000
,
00000000
00300000
00000000
00020000
,
00000000
00030000
00000000
00002000
,
00000000
00003000
00000000
00010000
,
00010000
00011000
00000000
00001000
,
00000000
00000010
00000000
00000001
,
00000000
00000100
00000000
00001000
,
00010000
00001000
00010000
00002000
,
00000000
00000000
00013000
00011000
,
00000000
00010000
00001000
00000010
,
00000001
00000000
00002002
00000000
,
00003003
00001000
00000001
00000000
,
00000000
00000100
00000100
00001000
,
00010000
00001000
00010000
01000000
,
10000000
00000000
20020000
00000000
,
30030000
00010000
10000000
00000000
,
00100000
00100000
00010000
00000000
,
00001000
00000000
00000020
00000001
,
00000030
00000000
00000000
00000000
;

//---------------dance-double - ----------------
#NOTES:
     dance-double:
     :
     Medium:
     7:
     0.272913,0.346887,0.130711,0.110602,0.000000,190.000000,177.000000,13.000000,11.000000,0.000000,0.000000,0.272913,0.346887,0.130711,0.110602,0.000000,190.000000,177.000000,13.000000,11.000000,0.000000,0.000000:
00000000
00000000
00000000
00000000
,
00000000
00000000
00000000
00000000
,
00000000
00000000
00000000
00000000
,
00000000
00000000
00000000
00000000
,
00000000
00000000
00000000
00001000
,
00000000
01000000
00000000
00001000
,
00001000
01000000
01000000
00001000
,
01000000
00001000
00010000
00011000
,
00000000
00010000
00001000
00010000
,
00000000
00000100
00000000
00010000
,
00010000
00000100
00000100
00010000
,
00000100
00010000
00001000
00011000
,
00000000
00001000
00010000
00001000
,
00000010
00000001
00000100
00001000
,
00000000
00000000
00010000
00000000
00001000
00010000
00001000
00000000
,
00000000
00000000
00010000
00000000
00001000
00010000
00002000
00000000
,
00203000
00000000
00000000
00000000
00300000
01000000
01000000
00000000
,
10000000
00000000
00100000
00000000
00010000
00000000
00001000
00010000
,
00022000
00000000
00033000
00001000
,
00010000
00001000
00000100
00000001
,
00000010
00000000
00001000
00010000
00001000
00010000
00100000
00000000
,
10000000
00000000
00100000
00010000
00001000
00000000
00011000
00000000
,
00000000
00000000
00010000
00100000
10000000
00000000
01000000
00000000
,
00010000
00000000
00011000
00000000
00001000
00000010
00000001
00000000
,
00000100
00000000
00001000
00000000
00010000
00001000
00000010
00000000
,
00000001
00000000
00000010
00001000
00010000
00000000
00011000
00000000
,
00000000
00000000
00001000
00000100
00000001
00000000
00000010
00000000
,
00001000
00000000
00010000
01000000
10000000
00000000
00100000
00000000
,
00010000
00000000
00001000
00000000
00011000
00000000
01000000
01000000
,
00000000
00000000
00001000
00000000
00010000
00000000
00000010
00000010
,
00000000
00000000
00010000
00000000
00001000
00000000
01000000
01000000
,
00000000
00000000
00001000
00010000
00001000
00000000
00000020
00000000
,
00000000
00000000
00000000
00000030
00000001
00000001
00000010
00000100
,
00000000
00000100
00001000
00000000
00001000
00010000
00000000
00010000
,
01000000
00000000
00100000
10000000
11000000
00000000
20000000
00000000
,
30200000
00000000
00320000
00000000
00032000
00000000
00013000
00000100
,
00000010
00000001
00000100
00000010
00010000
00001000
00011000
00000000
,
00002000
00000000
00013000
00001000
00000100
00000000
00000001
00000000
,
00000100
00001000
00010000
00000000
00011000
00000000
00000000
00000000
,
00001000
00000010
00000001
00000000
00000100
00000000
00001000
00000000
,
00011000
00000000
00010000
00100000
10000000
00000000
01000000
00000000
,
00010000
00000000
00001000
00010000
00100000
00000000
10000000
00000000
,
00100000
00010000
00001000
00000000
00011000
00000000
00000000
00000000
,
00010000
01000000
10000000
00000000
00100000
00000000
00010000
00000000
,
00001000
00000100
00000001
00000000
00000010
00000000
00001000
00000000
,
00010000
00011000
00200000
10000000
,
00300000
00000000
00000000
00000000
;

//---------------dance-double - ----------------
#NOTES:
     dance-double:
     :
     Hard:
     9:
     0.333241,0.393139,0.100547,0.231258,0.125684,232.000000,222.000000,10.000000,23.000000,0.000000,0.000000,0.333241,0.393139,0.100547,0.231258,0.125684,232.000000,222.000000,10.000000,23.000000,0.000000,0.000000:
// measure 0
00000000
00000000
00000000
00000000
,  // measure 1
00000000
00000000
00000000
00000000
,  // measure 2
00000000
00000000
00000000
00000000
,  // measure 3
00000000
00000000
00000000
00000000
,  // measure 4
00000000
00000000
00000000
00001000
,  // measure 5
00010000
00000000
00001000
01000000
00010000
00000000
01000000
00000000
,  // measure 6
00001000
00000000
00010000
00001000
01000000
00000000
00010000
00000000
,  // measure 7
01000000
00000000
00001000
00010000
00100000
10000000
01000000
00000000
,  // measure 8
00100000
00000000
00001000
00010000
00011000
00000000
00010000
00000000
,  // measure 9
00001000
00000000
00010000
00000100
00001000
00000000
00000100
00000000
,  // measure 10
00010000
00000000
00001000
00010000
00000100
00000000
00001000
00000000
,  // measure 11
00000100
00000000
00010000
00001000
00000010
00000001
00000100
00000000
,  // measure 12
00000010
00000000
00010000
00001000
00011000
00000000
00020000
00000000
,  // measure 13
00030010
00000000
00002000
00000000
00103000
00000000
00001000
00001000
,  // measure 14
00000000
00010000
00000000
00000000
00100000
00000000
10000000
00000000
11000000
00000000
00000000
00000000
02000000
00000000
00000000
00000000
,  // measure 15
03010000
00000000
00002000
00000000
00003100
00000000
00000001
00000001
,  // measure 16
00000000
00000010
00001000
00010000
00001000
01000000
01200000
00000000
,  // measure 17
20300000
00000000
32000000
00000000
,  // measure 18
03020000
00000000
00000000
00000000
00031000
00000000
00001000
00000010
,  // measure 19
00000001
00000000
00001000
00000000
00000100
00000000
00000000
00000100
00000000
00000000
00000100
00000000
00000110
00000000
00000000
00000000
,  // measure 20
00000001
00000000
00000100
00000000
00001000
00000000
00010000
00000000
00001000
00000000
00010000
00000000
01000000
00000000
00000000
10000000
,  // measure 21
00100000
00000000
00000000
00000000
01000000
00000000
00000000
00010000
00100000
00000000
00000000
00001000
00010000
00000000
00000000
00000100
,  // measure 22
00001000
00000000
00000000
00000010
00000100
00000000
00000001
00000000
00001000
00000000
00000100
00000000
00000020
00000000
00000000
00000000
,  // measure 23
00000030
00000000
00002000
00000000
00003000
00000000
00010000
00001000
,  // measure 24
01000000
00000000
00000000
00000000
00001000
00000000
00010000
00000000
00000100
00000000
00000000
00000000
00000010
00000000
00000000
00000001
,  // measure 25
00000100
00000000
00000000
00000000
00000010
00000000
00000000
00001000
00000100
00000000
00000000
00010000
00001000
00000000
00000000
00100000
,  // measure 26
00010000
00000000
00000000
01000000
00100000
00000000
10000000
00000000
00010000
00000000
00100000
00000000
02000000
00000000
00000000
00000000
,  // measure 27
03000000
00020000
00030000
00002000
,  // measure 28
00003000
00010000
00001000
00010000
00011000
00000000
00001000
00000010
,  // measure 29
00000001
00000000
00000000
00000000
00000000
00000000
00000001
00000100
,  // measure 30
00001000
00000000
00000000
00010000
00010000
00000000
00010000
00100000
,  // measure 31
10000000
00000000
00000000
00000000
10000000
00000000
01000000
00000000
00020000
00000000
00000000
00000000
00001000
00000000
00000000
00001000
,  // measure 32
00000000
00001000
00000000
00031000
00011000
00000000
01000000
01000000
,  // measure 33
00000000
00001000
00001000
00000000
00010000
00010000
00000000
00000100
,  // measure 34
00000100
00000000
00000000
00000000
00000010
00000000
00000001
00000000
00000200
00000000
00000000
00000000
00000310
00000000
00000000
00010000
,  // measure 35
00000000
00000000
00001000
00000000
00000000
00100000
00000000
00000000
01000000
00000000
00000000
00000000
10000000
00000000
10000000
00000000
,  // measure 36
00100000
01000000
00010000
00100000
01000000
00010000
00011000
00000000
,  // measure 37
00022000
00000000
00033000
00000000
00010000
00000000
00001000
00000000
00000100
00000000
00000000
00000001
00000010
00000000
00000000
00000000
,  // measure 38
00000100
00000000
00000000
00001000
00000010
00000000
00000000
00010000
00001000
00000000
00000000
01000000
00010000
00000000
00000000
00100000
,  // measure 39
01000000
10000000
00010000
01000000
00200000
00000000
00300000
00000000
,  // measure 40
00020000
00000000
00030000
00000000
00001000
00010000
00000100
00000000
,  // measure 41
00010000
00000000
00001000
00000000
01000000
00000000
00000000
00000000
00100000
00000000
00000000
10000000
01000000
00000000
00000000
00000000
,  // measure 42
00100000
00000000
00000000
00010000
01000000
00000000
00000000
00001000
00010000
00000000
00000000
00000010
00001000
00000000
00000000
00000100
,  // measure 43
00000010
00000001
00001000
00000010
00000200
00000000
00000300
00000000
,  // measure 44
00002000
00000000
00003000
00000000
00020000
00000000
00030000
00001000
,  // measure 45
00010000
00001000
00011000
00010000
00200000
00000000
10000000
00000000
,  // measure 46
00300000
00000000
00000000
00000000
;
