#VERSION:0.83;
#TITLE:U.A.D;
#SUBTITLE:;
#ARTIST:Hayako;
#TITLETRANSLIT:;
#SUBTITLETRANSLIT:;
#ARTISTTRANSLIT:;
#GENRE:VARIETY;
#ORIGIN:;
#CREDIT:MILEN;
#BANNER:U.A.D.png;
#BACKGROUND:U.A.D-bg.png;
#PREVIEWVID:;
#JACKET:U.A.D-jacket.png;
#CDIMAGE:;
#DISCIMAGE:;
#LYRICSPATH:;
#CDTITLE:;
#MUSIC:U.A.D.mp3;
#OFFSET:0.117000;
#SAMPLESTART:36.391800;
#SAMPLELENGTH:12.862244;
#SELECTABLE:YES;
#DISPLAYBPM:129.000000;
#BPMS:0.000=129.010;
#STOPS:;
#DELAYS:;
#WARPS:;
#TIMESIGNATURES:0.000=4=4;
#TICKCOUNTS:0.000=4;
#COMBOS:0.000=1;
#SPEEDS:0.000=1.000=0.000=0;
#SCROLLS:0.000=1.000;
#FAKES:;
#LABELS:0.000=Song Start;
#BGCHANGES:0.000=U.A.D.avi=1.000=1=0=0=StretchNoLoop==CrossFade==,
99999=-nosongbg-=1.000=0=0=0 // don't automatically add -songbackground-
;
#KEYSOUNDS:;
#ATTACKS:
;

//---------------dance-single - ----------------
#NOTEDATA:;
#CHARTNAME:;
#STEPSTYPE:dance-single;
#DESCRIPTION:;
#CHARTSTYLE:;
#DIFFICULTY:Beginner;
#METER:3;
#RADARVALUES:0.122732,0.184319,0.049565,0.041304,0.000000,104.000000,98.000000,6.000000,5.000000,0.000000,0.000000,0.000000,0.000000,0.000000,0.122732,0.184319,0.049565,0.041304,0.000000,104.000000,98.000000,6.000000,5.000000,0.000000,0.000000,0.000000,0.000000,0.000000;
#CREDIT:MILEN;
#DISPLAYBPM:129.000000;
#NOTES:
// measure 0
0000
0000
0000
0000
,  // measure 1
0000
0000
0000
0000
,  // measure 2
0000
0000
0000
0000
,  // measure 3
0000
0000
0000
0000
,  // measure 4
0000
1000
0000
0000
,  // measure 5
0000
1000
0000
0000
,  // measure 6
0000
0001
0000
0000
,  // measure 7
0000
0001
0000
0000
,  // measure 8
0000
0100
0000
0100
,  // measure 9
0000
0010
0000
0010
,  // measure 10
0000
0100
0000
0100
,  // measure 11
0000
0010
0000
0010
,  // measure 12
0000
1000
0000
0000
,  // measure 13
0000
0001
0000
0000
,  // measure 14
0000
0100
0000
0000
,  // measure 15
0000
0010
0000
0000
,  // measure 16
0000
1000
0000
0001
,  // measure 17
0000
0100
0000
0010
,  // measure 18
0000
1000
0000
0000
,  // measure 19
0000
0001
0000
0000
,  // measure 20
0000
1001
0000
1000
,  // measure 21
1000
1000
0000
1000
,  // measure 22
0000
1000
0000
0001
,  // measure 23
0001
0001
0000
0001
,  // measure 24
0000
0001
0000
0100
,  // measure 25
0100
0100
0000
0100
,  // measure 26
0000
0100
0000
0010
,  // measure 27
0010
0010
0000
0010
,  // measure 28
0000
0110
0000
0000
,  // measure 29
0000
0110
0000
0000
,  // measure 30
0000
0110
0000
0000
,  // measure 31
0000
0110
0000
0000
,  // measure 32
0000
0100
0000
0000
,  // measure 33
0000
0001
0000
0000
,  // measure 34
0000
1000
0000
0000
,  // measure 35
0000
0010
0000
0000
,  // measure 36
0000
0100
0000
0001
,  // measure 37
0000
0100
0000
0001
,  // measure 38
0000
1000
0000
0010
,  // measure 39
0000
1000
0000
0010
,  // measure 40
0000
1000
0000
0100
,  // measure 41
0000
1000
0000
0100
,  // measure 42
0000
0010
0000
0001
,  // measure 43
0000
0020
0000
0000
,  // measure 44
0030
0010
0000
0000
,  // measure 45
0000
0001
0000
0000
,  // measure 46
0000
0100
0000
0000
,  // measure 47
0000
1000
0000
0000
,  // measure 48
0000
0010
0000
0001
,  // measure 49
0000
0100
0000
1000
,  // measure 50
0000
0010
0000
0001
,  // measure 51
0000
0100
0000
1000
,  // measure 52
0000
0010
0000
0100
,  // measure 53
0000
0010
0000
0100
,  // measure 54
0000
0001
0000
1000
,  // measure 55
0000
0001
0000
1000
,  // measure 56
0000
0100
0000
0010
,  // measure 57
0000
0100
0000
0010
,  // measure 58
0000
0001
0000
1000
,  // measure 59
0000
0001
0000
1000
,  // measure 60
0000
0020
0030
0000
,  // measure 61
0200
0300
0000
0002
,  // measure 62
0003
0000
2000
0000
,  // measure 63
0000
3000
0000
1001
;

//---------------dance-single - ----------------
#NOTEDATA:;
#CHARTNAME:;
#STEPSTYPE:dance-single;
#DESCRIPTION:;
#CHARTSTYLE:;
#DIFFICULTY:Easy;
#METER:5;
#RADARVALUES:0.226581,0.369360,0.123912,0.256084,0.000000,192.000000,177.000000,15.000000,31.000000,0.000000,0.000000,0.000000,0.000000,0.000000,0.226581,0.369360,0.123912,0.256084,0.000000,192.000000,177.000000,15.000000,31.000000,0.000000,0.000000,0.000000,0.000000,0.000000;
#CREDIT:MILEN;
#DISPLAYBPM:129.000000;
#NOTES:
0000
0000
0000
0000
,
0000
0000
0000
0000
,
0000
0000
0000
0000
,
0000
0000
0000
0000
,
0000
1000
1000
1000
,
0000
0001
0001
0001
,
0000
1000
0001
1000
,
0000
0001
1000
0001
,
1000
0010
0100
0010
,
0000
0100
0010
0100
,
0000
0010
0010
0010
,
0000
0100
0100
0100
,
0000
0020
0030
2000
,
3000
0002
0003
0200
,
0300
0020
0030
2000
,
3000
0200
0300
0020
,
0030
0002
0003
2000
,
3000
0020
0030
0200
,
0300
0002
0000
0000
,
0003
2000
0000
3000
,
1001
0010
0010
0001
,
0001
0100
0100
1000
,
1000
0010
0010
0001
,
0001
0100
0100
1000
,
1001
0100
0100
1000
,
1000
0010
0010
0001
,
0001
0100
0100
1000
,
1000
0010
0010
0001
,
1001
0200
0000
0310
,
0000
2000
0000
3100
,
0000
0002
0000
0013
,
0000
2000
0000
3010
,
0000
0002
0000
0103
,
0000
2000
0000
3001
,
0000
0020
0000
0130
,
0000
2002
0000
0000
,
3003
0001
0100
1000
,
0000
0001
0010
0100
,
0000
1000
0010
0001
,
0000
1000
0100
0010
,
0000
0001
0100
1001
,
0100
1000
0010
1001
,
0010
0001
0100
1001
,
0010
1000
0100
0010
,
0001
2000
0000
0000
,
3000
0020
0000
0000
,
0030
0200
0000
0000
,
0300
0002
0000
0000
,
0003
1000
0010
0100
,
0001
1000
0100
0010
,
0001
1000
0010
0001
,
0100
1000
0001
1000
,
0001
1001
1001
0110
,
0110
0001
1000
0001
,
0001
1001
1001
0110
,
0110
1000
0001
1000
,
1000
0010
0100
0001
,
0100
0010
0100
0001
,
0100
0010
1000
0010
,
0100
0010
1000
0010
,
0100
0000
0002
0000
0000
1003
0000
0000
,
2000
0000
0000
3001
0000
0000
0020
0000
,
0000
0130
0000
0000
0200
0000
0000
0000
,
0000
0000
0000
0000
0310
0000
0010
0010
;

//---------------dance-single - ----------------
#NOTEDATA:;
#CHARTNAME:;
#STEPSTYPE:dance-single;
#DESCRIPTION:;
#CHARTSTYLE:;
#DIFFICULTY:Medium;
#METER:10;
#RADARVALUES:0.352853,0.474891,0.206519,0.396517,0.090869,299.000000,274.000000,25.000000,48.000000,0.000000,0.000000,0.000000,0.000000,0.000000,0.352853,0.474891,0.206519,0.396517,0.090869,299.000000,274.000000,25.000000,48.000000,0.000000,0.000000,0.000000,0.000000,0.000000;
#CREDIT:MILEN;
#DISPLAYBPM:129.000000;
#NOTES:
0000
0000
0000
0000
,
0000
0000
0000
0000
,
0000
0000
0000
0000
,
0000
0000
0000
0000
,
0000
0000
1000
0000
1000
0000
0001
1000
,
0001
0000
0001
0000
0001
0000
1000
0001
,
1000
0000
0001
0000
1000
0000
0001
1000
,
0001
0000
1000
0001
1000
0000
0010
0000
,
0110
0000
0100
0000
0100
0000
0010
0100
,
0010
0000
0010
0000
0010
0000
0100
0010
,
0100
0000
0010
0000
0100
0000
0010
0010
,
0010
0000
0100
0000
0010
0000
0100
0100
,
0100
0002
0103
2000
,
3100
0002
0103
2000
,
3100
0002
0013
2000
,
3010
0002
0013
2000
,
3010
0002
2003
3200
,
0320
0032
2003
3020
,
0230
0302
0000
0000
,
0000
2000
0000
3003
,
1001
0000
0010
0000
0100
0010
0100
0010
,
0001
1000
0001
0000
1000
0000
0001
0010
,
1001
0000
0100
0000
0010
0100
0010
0100
,
1000
0001
1000
0000
0001
0000
1000
0100
,
1001
0000
0010
0000
0001
0100
0001
0100
,
1000
0010
1000
0000
0010
0000
0001
0100
,
1001
0000
0100
0000
1000
0010
1000
0010
,
0001
0100
0001
0000
0100
0000
1000
0010
,
1001
0002
0100
1003
,
0000
2000
0100
3001
,
0000
0000
0000
0000
0002
0000
0000
0000
0010
0000
0000
0003
1000
0000
0000
0000
,
0000
2000
0010
3001
,
0000
1001
0200
0310
,
0000
1001
0020
0130
,
0000
0110
2000
3001
,
0000
0220
0330
2002
,
3003
0000
1000
0100
0010
0001
0200
0000
,
0300
0000
1000
0100
0010
0001
0200
0000
,
0300
0000
0001
0010
0100
1000
0020
0000
,
0030
0000
0001
0010
0100
1000
0020
0000
,
0030
0000
0100
0001
1000
0010
0200
0000
,
0300
0000
0010
1000
0001
0100
0020
0000
,
0030
0000
1000
0010
0100
0001
2002
0000
,
3003
0000
1000
0100
0010
0001
1000
0100
,
0010
0001
0200
0000
0310
0000
0200
0000
,
0301
0200
0310
0200
,
1300
0200
0310
0200
,
0301
0002
0023
0230
,
2300
3001
0001
0100
,
0100
1000
1000
0010
,
0010
0011
0101
1100
,
1010
0000
0010
0100
0001
1000
0010
0100
,
0001
0000
1000
0000
1001
0000
0000
0000
0001
0000
0000
0010
0000
0000
0100
0000
,
0000
0010
0000
0000
0000
0000
0100
0000
0000
0010
0000
0000
0100
0000
0000
1000
,
0000
0000
0010
0000
0110
0000
0000
0000
0100
0000
0000
0001
0000
0000
0100
0000
,
0000
0010
0000
0000
0000
0000
0100
0000
0000
0010
0000
0000
1000
0000
0000
0010
,
0000
0000
0100
0000
0110
0000
0000
0000
0001
0000
0000
1000
0000
0000
0001
0000
,
0000
0100
0000
0000
0000
0000
1000
0000
0000
0001
0000
0000
1000
0000
0000
0010
,
0000
0000
0001
0000
1001
0000
0000
0000
1000
0000
0000
0100
0000
0000
0001
0000
,
0000
0100
0000
0000
0000
0000
0010
0000
0000
1000
0000
0000
0010
0000
0000
0001
,
0000
0000
1000
0000
1001
0000
0000
0100
0000
0000
0100
0000
0000
0000
0000
0000
,
1001
0000
0000
0010
0000
0000
0010
0000
0000
0000
0000
0000
1001
0000
0000
0100
,
0000
0000
0010
0000
0000
0000
0000
0000
1001
0000
0000
0010
0000
0000
0100
0000
,
0000
1000
0000
0000
0001
0000
0000
0020
0000
0000
0000
0000
0130
0000
0110
0000
;

//---------------dance-single - ----------------
#NOTEDATA:;
#CHARTNAME:;
#STEPSTYPE:dance-single;
#DESCRIPTION:;
#CHARTSTYLE:;
#DIFFICULTY:Hard;
#METER:12;
#RADARVALUES:0.462603,0.606806,0.404778,0.272606,0.235432,392.000000,343.000000,49.000000,33.000000,0.000000,0.000000,0.000000,0.000000,0.000000,0.462603,0.606806,0.404778,0.272606,0.235432,392.000000,343.000000,49.000000,33.000000,0.000000,0.000000,0.000000,0.000000,0.000000;
#CREDIT:MILEN;
#DISPLAYBPM:129.000000;
#NOTES:
0000
0000
0000
0000
,
0000
0000
0000
0000
,
0000
0000
0000
0000
,
0000
0000
0000
0000
,
0000
0000
0000
0000
1000
0000
0000
0000
0001
0000
0000
0000
1000
0000
0000
0001
,
0000
0000
1000
0000
0001
0000
0000
0000
1000
0000
0000
0000
0001
0000
0000
1000
,
0000
0000
0001
0000
1000
0000
0000
0000
0001
0000
0000
0000
1000
0000
0000
0001
,
0000
0000
1000
0000
0001
1000
0001
0000
0100
0000
0010
0000
0100
0010
0000
0010
,
0000
0110
0000
0000
1001
0000
0000
0000
0100
0000
0000
0000
1001
0000
0000
0000
,
0010
0110
1000
0110
,
0001
1001
1000
0110
,
0001
0000
0000
0000
1001
0000
0000
0000
1000
0000
0000
0000
0010
0100
0000
0100
,
0020
0000
2030
0000
0100
3200
0000
0000
,
0010
0320
0000
0000
0000
0001
0031
0100
,
0010
2000
0000
0000
0001
3002
0000
0000
,
0203
0000
0000
0000
0310
0000
0000
1000
0000
0000
0001
0000
0100
0000
0000
0000
,
0110
0020
2030
3200
,
0320
0032
2003
3020
,
0230
0302
0000
0000
,
0000
0000
1003
1000
0001
0001
1000
0001
,
1001
1001
0110
0000
0010
1000
0100
0010
,
0001
0000
0100
0000
0000
0000
0100
0000
0010
1000
0010
0000
0100
0000
0001
0010
,
0000
0010
0000
0110
0000
0000
0000
0000
0100
0000
1000
0000
0010
0000
0100
0000
,
0001
1000
0200
0000
0001
0000
1000
0000
,
0310
0000
0110
0000
0010
0100
1000
0010
,
0100
0001
0100
0000
0000
0000
0010
0000
1000
0100
1000
0000
0001
0010
0001
0000
,
0100
0010
0100
0010
0100
0000
0000
0000
0001
0000
0010
0000
1000
0000
0010
0000
,
0100
1000
0020
0000
0001
0000
1000
0000
,
0230
0310
0110
0000
0001
0000
2000
0000
,
3000
0110
1000
0002
,
0003
1001
0100
0020
,
0030
1001
0010
0200
,
0300
0101
0001
0010
,
0100
1100
1000
0100
,
0010
0011
0001
0100
,
0010
2020
0030
0002
,
3003
0000
0000
0000
0001
0100
0001
0000
0010
0000
0100
0000
1000
0000
1000
0000
,
0010
0000
0000
0000
0100
0010
0100
0000
0001
0000
1000
0000
0100
0000
0100
0000
,
0010
0000
0000
0000
0001
0010
0001
0000
1000
0000
0010
0000
0100
0000
0100
0000
,
1000
0000
0000
0000
0100
0010
0100
0000
0010
0000
1000
0000
0100
0000
0100
0000
,
0001
0000
0000
0000
0100
0010
0100
0000
0010
0000
0001
0000
0100
0000
0010
0000
,
1000
0000
0001
0000
0010
0100
0010
0000
0100
0000
1000
0000
0010
0000
0001
0000
,
0010
0000
1000
0000
0100
0010
0100
0000
0001
0000
0100
0000
0010
0000
0001
0000
,
0100
1000
0100
0010
1000
0100
0010
0001
,
1000
0010
0210
0000
0000
0000
0000
0000
,
0300
0002
0000
0000
,
0003
0020
0000
0000
,
0030
2000
0000
0000
,
3000
1100
0001
1010
,
0001
0101
1000
0011
,
1000
1010
0011
0101
,
1100
0000
0000
0000
1000
0000
0010
0000
0100
0000
0001
0000
0010
0100
0010
0100
,
0010
0100
0010
0100
2000
0000
0000
0000
3002
0000
0000
0000
0103
0010
0000
0010
,
0000
0010
0000
1010
0000
0000
1000
0000
0100
0000
0010
0000
0001
0100
0000
0100
,
0000
0000
0110
0000
0010
1000
0010
0000
0100
0001
0100
0000
0001
1000
0001
0000
,
0100
0010
0100
0000
1000
0100
0000
0100
0000
0100
0000
0001
0100
0001
0000
0010
,
0000
0010
0000
0000
0100
0010
0100
0000
1000
0000
0010
0000
0001
0000
0010
0000
,
0100
0000
0001
0000
0010
0100
0010
0000
0100
0000
0001
0000
0100
0000
1000
0000
,
0100
0000
0010
0000
0001
0100
0001
0000
1000
0000
0010
0000
0001
0000
0010
0000
,
0100
0000
0001
0000
1000
0010
1000
0000
0100
0000
0001
0000
0100
0000
0010
0000
,
0001
0000
0100
0000
0101
0000
0000
0101
0000
0000
0101
0000
0000
0000
0000
0000
,
1100
0000
0000
1100
0000
0000
1100
0000
0000
0000
0000
0000
1010
0000
0000
1010
,
0000
0000
1010
0000
0000
0000
0000
0000
0011
0000
0000
0011
0000
0000
0011
0000
,
0000
0101
0000
0000
1100
0000
0000
1020
0000
0000
0000
0000
0130
0000
0101
0000
;

//---------------dance-double - ----------------
#NOTEDATA:;
#CHARTNAME:;
#STEPSTYPE:dance-double;
#DESCRIPTION:;
#CHARTSTYLE:;
#DIFFICULTY:Easy;
#METER:5;
#RADARVALUES:0.211240,0.316594,0.099129,0.156955,0.000000,179.000000,167.000000,12.000000,19.000000,0.000000,0.000000,0.000000,0.000000,0.000000,0.211240,0.316594,0.099129,0.156955,0.000000,179.000000,167.000000,12.000000,19.000000,0.000000,0.000000,0.000000,0.000000,0.000000;
#CREDIT:MILEN;
#DISPLAYBPM:129.000000;
#NOTES:
00000000
00000000
00000000
00000000
,
00000000
00000000
00000000
00000000
,
00000000
00000000
00000000
00000000
,
00000000
00000000
00000000
00000000
,
00000000
00001000
00001000
00001000
,
00000000
00010000
00010000
00010000
,
00000000
00001000
00010000
00001000
,
00000000
00010000
00001000
00010000
,
00001000
00100000
01000000
00100000
,
00000000
00001000
00010000
00001000
,
00000000
00000010
00000100
00000010
,
00000000
00001000
00010000
00001000
,
00000000
00010000
00000000
01000000
,
00000000
10000000
00000000
00100000
,
00000000
00010000
00000000
00001000
,
00000000
00000100
00000000
00000001
,
00000000
00000010
00000000
00001000
,
00000000
00010000
00000000
01000000
,
00000000
20000000
00000000
00000000
,
00000000
00020000
00000000
30030000
,
10010000
10000000
01000000
00100000
,
00010000
01000000
00100000
00010000
,
00001000
00100000
01000000
00010000
,
00001000
00000010
00000001
00001000
,
00001001
00000001
00000010
00000100
,
00001000
00000010
00000100
00001000
,
00010000
00000100
00000010
00001000
,
00010000
01000000
10000000
00010000
,
10010000
02000000
00000000
03100000
,
00000000
00020000
00000000
00031000
,
00000000
00000200
00000000
00000310
,
00000000
00000002
00000000
00001003
,
00000000
00000020
00000000
00000130
,
00000000
00002000
00000000
00013000
,
00000000
00200000
00000000
01300000
,
00000000
20020000
00000000
00000000
,
30030000
10000000
00000000
00100000
,
00000000
00010000
00000000
00001000
,
00000000
00000100
00000000
00000001
,
00000000
00000010
00000000
00001000
,
00000000
01000000
00001000
00011000
,
00000000
00000100
00010000
00011000
,
00000000
00100000
00001000
00011000
,
00000000
00000010
00010000
00011000
,
00001000
00200000
00000000
00000000
,
00300000
02000000
00000000
00000000
,
03000000
00020000
00000000
00000000
,
00030000
00002000
00000000
00000000
,
00003000
00000010
00000001
00000010
,
00000001
00001000
00000100
00001000
,
00000100
00010000
00001000
00100000
,
00010000
01000000
00100000
10000000
,
00010000
10010000
10000000
01100000
,
00100000
00010000
00001000
00000100
,
00000001
00001001
00001000
00000110
,
00000010
00010000
00001000
00100000
,
00010000
10000000
00100000
00010000
,
00001000
00010000
00100000
00010000
,
00001000
00000100
00001000
00010000
,
00001000
00000100
00000001
00000010
,
00000100
00002000
00000000
00003000
,
00000020
00000000
00000030
00020000
,
00000000
00030000
00002000
00000000
,
00000000
00000000
00000000
00000000
01003000
00000000
01000000
01000000
;

//---------------dance-double - ----------------
#NOTEDATA:;
#CHARTNAME:;
#STEPSTYPE:dance-double;
#DESCRIPTION:;
#CHARTSTYLE:;
#DIFFICULTY:Medium;
#METER:9;
#RADARVALUES:0.339872,0.474891,0.239563,0.256084,0.090869,288.000000,259.000000,29.000000,31.000000,0.000000,0.000000,0.000000,0.000000,0.000000,0.339872,0.474891,0.239563,0.256084,0.090869,288.000000,259.000000,29.000000,31.000000,0.000000,0.000000,0.000000,0.000000,0.000000;
#CREDIT:MILEN;
#DISPLAYBPM:129.000000;
#NOTES:
00000000
00000000
00000000
00000000
,
00000000
00000000
00000000
00000000
,
00000000
00000000
00000000
00000000
,
00000000
00000000
00000000
00000000
,
00000000
00001000
00001000
00010000
,
00011000
00010000
00010000
00001000
,
00011000
00000000
00010000
00000000
00001000
00000000
00010000
00001000
,
00010000
00000000
00001000
00010000
00001000
00000000
00010000
00000000
,
00011000
00010000
01000000
10000000
,
01000000
00010000
00001000
00000010
,
00000001
00000010
00001000
00010000
,
00100000
00010000
00001000
00000100
,
00001000
00021000
00030010
00012000
,
00103000
00021000
00030100
00012000
,
01003000
00021000
00130000
00021000
,
00030010
00012000
00003100
00012000
,
01003000
02000000
03020000
00230000
,
00302000
00023000
00030200
00002300
,
00003020
00020030
00000000
00000000
,
00000000
00002000
00000000
00033000
,
00011000
00000000
00010000
00000000
00100000
10000000
01000000
00000000
,
01000000
10000000
00100000
00000000
00010000
00000000
00001000
00000000
,
00011000
00000000
00001000
00000000
00000100
00000001
00000010
00000000
,
00000010
00000001
00000100
00000000
00001000
00000000
00010000
00000000
,
00011000
00000000
00010000
00000000
01000000
10000000
00010000
00000000
,
00010000
10000000
01000000
00000000
00010000
00000000
00001000
00000000
,
00011000
00000000
00001000
00000000
00000010
00000001
00001000
00000000
,
00001000
00000001
00000010
00000000
00001000
00000000
00010000
00000000
,
00011000
00010000
01000000
10000000
,
00000000
10000000
00100000
00010000
,
00000000
00001000
00000100
00000001
,
00000000
00000001
00000010
00001000
,
00000000
00011000
01000000
10000000
,
00000000
10010000
01000000
00010000
,
00000000
00011000
00000010
00000001
,
00000000
00002002
00003003
00000220
,
00000330
00000000
00000010
00000100
00001000
00000000
00010000
00000000
,
00001000
00000000
00000100
00001000
00010000
00000000
00100000
00000000
,
00010000
00000000
00001000
00010000
00100000
00000000
01000000
00000000
,
00100000
00000000
00010000
00100000
01000000
00000000
00100000
00000000
,
10000000
00000000
01000000
00010000
00001000
00000000
00010000
00000000
,
00001000
00000000
00010000
00001000
00000010
00000000
00001000
00000000
,
00000010
00000000
00000001
00000100
00001000
00000000
00000100
00000000
,
00001000
00000000
00000100
00001000
00010000
00000000
00001000
00010000
,
00100000
10000000
02000000
00000000
03100000
00000000
00200000
00000000
,
00310000
00020000
01030000
02000000
,
03001000
00002000
00013000
00020000
,
00030100
00000200
00000310
00000020
,
00000031
00000001
00000001
00000100
,
00001000
00010000
00100000
10000000
,
10000000
11000000
00110000
00001010
,
00000101
00000000
00000001
00000010
00000100
00010000
00001000
00100000
,
01000000
00000000
10000000
00000000
10010000
00000000
00000000
00000000
00010000
00000000
00000000
00010000
00000000
00000000
00010000
00000000
,
00000000
00010000
00000000
00000000
00000000
00000000
01000000
00000000
00000000
01000000
00000000
00000000
01000000
00000000
00000000
01000000
,
00000000
00000000
00001000
00000000
00010000
00000000
00000000
00000000
00001000
00000000
00000000
00001000
00000000
00000000
00001000
00000000
,
00000000
00001000
00000000
00000000
00000000
00000000
00010000
00000000
00000000
00010000
00000000
00000000
00010000
00000000
00000000
00010000
,
00000000
00000000
00010000
00000000
00000100
00000000
00000000
00000000
00000010
00000000
00000000
00000010
00000000
00000000
00000010
00000000
,
00000000
00000010
00000000
00000000
00000000
00000000
00000001
00000000
00000000
00000001
00000000
00000000
00000001
00000000
00000000
00000001
,
00000000
00000000
00000001
00000000
00000100
00000000
00000000
00000000
00001000
00000000
00000000
00001000
00000000
00000000
00001000
00000000
,
00000000
00001000
00000000
00000000
00000000
00000000
00010000
00000000
00000000
00010000
00000000
00000000
00010000
00000000
00000000
00010000
,
00000000
00000000
00100000
00000000
10000000
00000000
00000000
01000000
00000000
00000000
01100000
00000000
00000000
00000000
00000000
00000000
,
00100000
00000000
00000000
00001000
00000000
00000000
00011000
00000000
00000000
00000000
00000000
00000000
00010000
00000000
00000000
00000100
,
00000000
00000000
00000110
00000000
00000000
00000000
00000000
00000000
00000010
00000000
00000000
00000001
00000000
00000000
00000100
00000000
,
00000000
00001000
00000000
00000000
00010000
00000000
00000000
00200000
00000000
00000000
00000000
00000000
10000000
00000000
10300000
00000000
;

//---------------dance-double - ----------------
#NOTEDATA:;
#CHARTNAME:;
#STEPSTYPE:dance-double;
#DESCRIPTION:;
#CHARTSTYLE:;
#DIFFICULTY:Hard;
#METER:12;
#RADARVALUES:0.440181,0.606806,0.611297,0.363474,0.119781,373.000000,299.000000,74.000000,44.000000,0.000000,0.000000,0.000000,0.000000,0.000000,0.440181,0.606806,0.611297,0.363474,0.119781,373.000000,299.000000,74.000000,44.000000,0.000000,0.000000,0.000000,0.000000,0.000000;
#CREDIT:MILEN;
#DISPLAYBPM:129.000000;
#NOTES:
00000000
00000000
00000000
00000000
,
00000000
00000000
00000000
00000000
,
00000000
00000000
00000000
00000000
,
00000000
00000000
00000000
00000000
,
00000000
00000000
00000000
00000000
00001000
00000000
00000000
00000000
00010000
00000000
00000000
00000000
00001000
00000000
00000000
00010000
,
00000000
00000000
00001000
00000000
00011000
00000000
00000000
00000000
00001000
00000000
00000000
00000000
00010000
00000000
00000000
00001000
,
00000000
00000000
00010000
00000000
00011000
00000000
00000000
00000000
00010000
00000000
00000000
00000000
00001000
00000000
00000000
00010000
,
00000000
00000000
00001000
00000000
00010000
00001000
00010000
00000000
01000000
00000000
10000000
00000000
01000000
00000000
00010000
00000000
,
00001000
00000010
00000011
00000000
00000100
00000000
00001010
00000000
,
00010000
00101000
00000100
00010010
,
00100000
01001000
10000000
00110000
,
01000000
00000000
00000000
00000000
10100000
00000000
00000000
00000000
00010000
00000000
00000000
00000000
10000000
00100000
00000000
00100000
,
02000000
00000000
03002000
00000000
00010000
00023000
00000000
00000000
,
00000100
00030200
00000000
00000000
00000000
00000010
00000310
00000001
,
00000100
00002000
00000000
00000000
00010000
00023000
00000000
00000000
,
00230000
00000000
00000000
00000000
10300000
00000000
00000000
01000000
00000000
00000000
00100000
00000000
00001000
00000000
00000000
00000000
,
00011000
00020000
00030200
00000320
,
00000032
00002003
00003020
00020030
,
00032000
00203000
00000000
00000000
,
00000000
00000000
01300000
01000000
10000000
10000000
00100000
00010000
,
00001000
00010000
00011000
00000000
00001000
00100000
01000000
10000000
,
00100000
00000000
00010000
00000000
00000000
00000000
00010000
00000000
00100000
01000000
00100000
00000000
00010000
00000000
00001000
00000000
,
00000010
00000001
00000101
00000000
00000100
00001000
00010000
00001000
,
00000100
00001000
00020000
00000000
02030000
00000000
23000000
00000000
,
30010000
00000000
10010000
00000000
00010000
01000000
00001000
00010000
,
00000100
00000010
00000100
00000000
00000000
00000000
00001000
00000000
00000010
00000000
00000001
00000000
00000010
00000000
00000100
00000000
,
00001000
00010000
00011000
00000000
00001000
00100000
01000000
10000000
,
00100000
01000000
00020000
00000000
00230000
00000000
00302000
00000000
,
00003010
00000010
00000011
00000000
00000000
00000000
00001100
00000000
,
00000000
01010000
00000000
10100000
,
00000000
11000000
00000000
00110000
,
00000000
00001010
00000000
00000101
,
00000000
00001001
00000000
00011000
,
00000000
10010000
00000000
01100000
,
00000000
00011000
00000000
00000110
,
00000000
00000002
00000000
00002000
,
00003003
00000000
00001000
00000100
00000010
00000001
00000100
00001000
,
00010000
00001000
00000100
00010000
01000000
00100000
10000000
01000000
,
00010000
00001000
00010000
01000000
00001000
00000100
00000001
00000100
,
00000010
00000001
00000010
00001000
00100000
00010000
00100000
01000000
,
00010000
01000000
10000000
00100000
01000000
10000000
01000000
00100000
,
00010000
00000010
00001000
00000100
00000010
00000100
00000001
00001000
,
00000010
00000001
00001000
00000100
00010000
01000000
00100000
10000000
,
00100000
01000000
20000000
00000000
30200000
00000000
00320000
00000000
,
00032000
00003020
00000000
00000000
,
00000030
00000002
00000000
00000000
,
00000003
00000200
00000000
00000000
,
00000300
00002000
00000000
00000000
,
00003000
00011000
00010000
00101000
,
00010000
01001000
00001000
00010100
,
00001000
00010010
00011000
01010000
,
11000000
00000000
00000000
00000000
10000000
00000000
00100000
00000000
00010000
00000000
00001000
00000000
00000010
00000100
00000010
00000100
,
00000010
00000100
00000010
00000100
00000020
00000000
00000030
00000000
00001001
00000000
00000000
00001100
00000000
00000000
00010100
00000000
,
00000000
00022000
00000000
00000000
00033000
00000000
00011000
00000000
00000000
00101000
00000000
00000000
00110000
00000000
00000000
10010000
,
00000000
00000000
10100000
00000000
10100000
00000000
00000000
00000000
01100000
00000000
00000000
01010000
00000000
00000000
00110000
00000000
,
00000000
00202000
00000000
00000000
00303000
00000000
00011000
00000000
00000000
00010100
00000000
00000000
00000110
00000000
00000000
00000011
,
00000000
00000000
00000101
00000000
00000100
00001000
00000100
00000000
00000010
00000000
00001000
00000000
00000100
00000000
00000010
00000000
,
00000001
00000000
00000100
00001000
00011000
00000000
01000000
00010000
,
00011000
00000000
00000000
00000000
00001000
00100000
00001000
00000000
01000000
00000000
00100000
00000000
00010000
00000000
00100000
00000000
,
10000000
00000000
01000000
00010000
00011000
00000000
00000010
00001000
,
00011000
00000000
00000000
00000000
01010000
00000000
00000000
11000000
00000000
00000000
20200000
00000000
00000000
00000000
30300000
00000000
,
00110000
00000000
00000000
00011000
00000000
00000000
00002020
00000000
00000000
00000000
00003030
00000000
00000011
00000000
00000000
00000101
,
00000000
00000000
00002200
00000000
00000000
00000000
00003300
00000000
00011000
00000000
00000000
00010010
00000000
00000000
00011000
00000000
,
00000000
01001000
00000000
00000000
00011000
00000000
00000000
00210000
00000000
00000000
00000000
00000000
10000000
00000000
10300000
00000000
;
