#TITLE:Trouble;
#SUBTITLE:;
#ARTIST:Avicii;
#TITLETRANSLIT:;
#SUBTITLETRANSLIT:;
#ARTISTTRANSLIT:;
#GENRE:POP CHARTS;
#CREDIT:MUINELIM;
#BANNER:Trouble.png;
#BACKGROUND:Trouble-bg.png;
#LYRICSPATH:;
#CDTITLE:;
#MUSIC:Trouble.ogg;
#OFFSET:0.031000;
#SAMPLESTART:45.420238;
#SAMPLELENGTH:12.413795;
#SELECTABLE:YES;
#DISPLAYBPM:116;
#BPMS:0.000000=116;
#STOPS:
;
#BGCHANGES:;
#KEYSOUNDS:;
#ATTACKS:;

//---------------dance-single - ----------------
#NOTES:
     dance-single:
     :
     Beginner:
     1:
     0.087877,0.117169,0.019528,0.000000,0.000000,63.000000,61.000000,2.000000,0.000000,0.000000,0.000000,0.087877,0.117169,0.019528,0.000000,0.000000,63.000000,61.000000,2.000000,0.000000,0.000000,0.000000:
0000
0000
0000
0000
,
0000
0000
0000
0000
,
0000
0000
0000
0000
,
0000
0000
0000
0000
,
0000
1000
0000
0000
,
0000
1000
0000
0000
,
0000
0001
0000
0000
,
0000
0001
0000
0000
,
0000
1000
0000
0000
,
0000
0001
0000
0000
,
0000
0100
0000
0000
,
0000
0010
0000
0000
,
0000
0100
0000
0000
,
0000
0100
0000
0000
,
0000
0010
0000
0000
,
0000
0010
0000
0000
,
0000
0100
0000
0000
,
0000
0010
0000
0000
,
0000
1000
0000
0000
,
0000
0001
0000
0000
,
0000
1001
0000
0000
,
0000
1001
0000
0000
,
0000
1000
0000
1000
,
0000
0010
0000
0010
,
0000
0100
0000
0100
,
0000
0001
0000
0001
,
0000
1000
0000
0100
,
0000
0010
0000
0001
,
0000
0100
0000
0100
,
0000
0100
0000
0000
,
0000
0010
0000
0010
,
0000
0010
0000
0000
,
0000
1000
0000
0000
,
0000
1000
0000
0000
,
0000
0100
0000
0000
,
0000
0100
0000
0000
,
0000
0001
0000
0000
,
0000
0001
0000
0000
,
0000
0010
0000
0000
,
0000
0010
0000
0000
,
0000
1000
0000
1000
,
0000
1000
0000
1000
,
0000
0100
0000
0100
,
0000
0100
0000
0100
,
0000
0001
0000
0001
,
0000
0001
0000
0001
,
0000
0010
0000
0010
,
0000
0010
0000
0010
,
0010
0000
0000
0000
;

//---------------dance-single - ----------------
#NOTES:
     dance-single:
     :
     Easy:
     4:
     0.142277,0.187471,0.048820,0.000000,0.000000,102.000000,97.000000,5.000000,0.000000,0.000000,0.000000,0.142277,0.187471,0.048820,0.000000,0.000000,102.000000,97.000000,5.000000,0.000000,0.000000,0.000000:
0000
0000
0000
0000
,
0000
0000
0000
0000
,
0000
0000
0000
0000
,
0000
0000
0000
0000
,
0000
1000
0000
1000
,
0000
1000
0000
1000
,
0000
0001
0000
0001
,
0000
0001
0000
0001
,
0000
1000
0000
1000
,
0000
0001
0000
0001
,
0000
1000
0000
0001
,
0000
0100
0100
0100
,
0000
0010
0000
0010
,
0000
0010
0000
0010
,
0000
0100
0000
0100
,
0000
0100
0000
0100
,
0000
0010
0000
0010
,
0000
0100
0000
0100
,
0000
0010
0000
0100
,
0000
0001
0001
0001
,
0000
1001
0000
0000
,
0000
1001
0000
0000
,
0000
1000
0000
0100
,
0000
1000
0000
0100
,
0000
0001
0000
0010
,
0000
0001
0000
0010
,
0000
1000
0000
0100
,
0000
0001
0000
0010
,
0000
0100
0000
0100
,
0000
0100
0100
1001
,
0000
0010
0000
0010
,
0000
1001
0000
0000
,
0000
1000
0000
0010
,
0000
1000
0000
0010
,
0000
0001
0000
0100
,
0000
0001
0000
0100
,
0000
1000
0000
0010
,
0000
0001
0000
0100
,
0000
1000
0000
0010
,
0000
0010
0000
0010
,
0000
0100
0100
0100
,
0000
0001
0001
0001
,
0000
0010
0010
0010
,
0000
1000
1000
1000
,
0000
0100
0001
0100
,
0000
0010
1000
0010
,
0000
1000
0100
1000
,
0000
0001
0010
0001
,
1001
0000
0000
0000
;

//---------------dance-double - ----------------
#NOTES:
     dance-double:
     :
     Easy:
     4:
     0.142277,0.187471,0.048820,0.000000,0.000000,102.000000,97.000000,5.000000,0.000000,0.000000,0.000000,0.142277,0.187471,0.048820,0.000000,0.000000,102.000000,97.000000,5.000000,0.000000,0.000000,0.000000:
00000000
00000000
00000000
00000000
,
00000000
00000000
00000000
00000000
,
00000000
00000000
00000000
00000000
,
00000000
00000000
00000000
00000000
,
00000000
00001000
00000000
00001000
,
00000000
00001000
00000000
00001000
,
00000000
01000000
00000000
01000000
,
00000000
01000000
00000000
01000000
,
00000000
00001000
00000000
00001000
,
00000000
01000000
00000000
01000000
,
00000000
00001000
00000000
01000000
,
00000000
00001000
00001000
00001000
,
00000000
00010000
00000000
00010000
,
00000000
00010000
00000000
00010000
,
00000000
00000100
00000000
00000100
,
00000000
00000100
00000000
00000100
,
00000000
00010000
00000000
00010000
,
00000000
00000100
00000000
00000100
,
00000000
00010000
00000000
00000100
,
00000000
00010000
00010000
00010000
,
00000000
00011000
00000000
00000000
,
00000000
00011000
00000000
00000000
,
00000000
00001000
00000000
00100000
,
00000000
00001000
00000000
00100000
,
00000000
00001000
00000000
00010000
,
00000000
00001000
00000000
00010000
,
00000000
00000010
00000000
00010000
,
00000000
00000010
00000000
00010000
,
00000000
00001000
00000000
00001000
,
00000000
00001000
00001000
00011000
,
00000000
00010000
00000000
00010000
,
00000000
00011000
00000000
00000000
,
00000000
00001000
00000000
00010000
,
00000000
01000000
00000000
10000000
,
00000000
00100000
00000000
00010000
,
00000000
00001000
00000000
00000100
,
00000000
00000001
00000000
00000010
,
00000000
00001000
00000000
00010000
,
00000000
00100000
00000000
10000000
,
00000000
01000000
00000000
00010000
,
00000000
00001000
00001000
00001000
,
00000000
00000100
00000100
00000100
,
00000000
00000001
00000001
00000001
,
00000000
00000010
00000010
00000010
,
00000000
00001000
00010000
01000000
,
00000000
01000000
10000000
00100000
,
00000000
00100000
00010000
00001000
,
00000000
00001000
00000010
00000001
,
00001001
00000000
00000000
00000000
;

//---------------dance-single - ----------------
#NOTES:
     dance-single:
     :
     Medium:
     7:
     0.267815,0.281938,0.146461,0.078113,0.000000,192.000000,177.000000,15.000000,8.000000,0.000000,0.000000,0.267815,0.281938,0.146461,0.078113,0.000000,192.000000,177.000000,15.000000,8.000000,0.000000,0.000000:
0000
0000
0000
0000
,
0000
0000
0000
0000
,
0000
0000
0000
0000
,
0000
0000
0000
0000
,
0000
1000
0001
1000
,
0001
0100
0010
0100
,
0000
0001
1000
0001
,
1000
0010
0100
0010
,
0000
1000
0001
1000
,
0001
0010
0100
0010
,
0000
0001
1000
0001
,
1000
0100
0010
0110
,
0000
1000
1000
0001
,
0001
1000
0010
0100
,
1001
0001
0001
1000
,
1000
0001
0100
0010
,
1001
0100
0100
0010
,
0010
1000
0001
0100
,
0110
0010
0010
0100
,
0100
0001
1000
0010
,
0110
1001
0000
0000
,
0000
2002
0000
3003
,
1000
0001
1000
0000
1000
0000
0010
0000
,
0010
0001
0001
0100
,
0100
1000
0001
0000
0001
0000
0010
0000
,
0010
1000
1000
0100
,
0100
0001
1000
0000
0010
0000
0001
0000
,
0100
1000
0001
0010
,
1000
0000
0100
0100
0000
0000
0010
0010
,
0000
1010
0101
2002
,
3003
0000
0001
0001
0000
0000
1000
1000
,
0000
0220
0000
0000
,
0330
0000
0010
1000
0100
0000
1000
0000
,
0001
1000
0100
1000
,
1010
0000
0010
0001
0100
0000
0001
0000
,
0010
0001
1000
0001
,
0101
0000
1000
0100
0010
0000
0100
0000
,
1000
0100
0001
0100
,
1100
0000
0001
0010
0100
0000
0001
0000
,
0100
2000
0000
0002
,
3003
0000
1000
0100
1000
0000
0010
0000
,
0010
0000
0001
0010
0001
0000
0100
0000
,
0100
0000
1000
0010
1000
0000
0100
0000
,
0100
0000
0001
0100
0001
0000
0010
0000
,
0010
0000
1000
0010
0100
0000
0010
0000
,
1000
0000
0001
0100
0010
0000
0100
0000
,
0001
0000
1000
0100
0010
0000
0001
0000
,
0100
0000
0001
0010
0100
0000
1000
0000
,
0010
0110
0000
0000
0000
0000
0000
0000
;

//---------------dance-double - ----------------
#NOTES:
     dance-double:
     :
     Medium:
     7:
     0.269210,0.281938,0.156226,0.078113,0.000000,193.000000,177.000000,16.000000,8.000000,0.000000,0.000000,0.269210,0.281938,0.156226,0.078113,0.000000,193.000000,177.000000,16.000000,8.000000,0.000000,0.000000:
00000000
00000000
00000000
00000000
,
00000000
00000000
00000000
00000000
,
00000000
00000000
00000000
00000000
,
00000000
00000000
00000000
00000000
,
00000000
00001000
00010000
00001000
,
00010000
00001000
01000000
00001000
,
00000000
00010000
00001000
00010000
,
00001000
00010000
00000010
00010000
,
00000000
00001000
00010000
00001000
,
00010000
00001000
00100000
00001000
,
00000000
00010000
00001000
00010000
,
00001000
00010000
00000100
00010000
,
00011000
00001000
00001000
00010000
,
00010000
01000000
10000000
00100000
,
01100000
00010000
00010000
00001000
,
00001000
00000010
00000001
00000100
,
00000110
00001000
00001000
00010000
,
00010000
00100000
10000000
01000000
,
01100000
00010000
00010000
00001000
,
00001000
00000100
00000001
00000010
,
00000110
00001001
00000000
00000000
,
00000000
00022000
00000000
00033000
,
00001000
00010000
00001000
00000000
00010000
00000000
01000000
00000000
,
10000000
01000000
00010000
01000000
,
10000000
01000000
00010000
00000000
00001000
00000000
00000010
00000000
,
00000001
00000010
00001000
00000010
,
00000001
00000010
00001000
00000000
00010000
00000000
00100000
00000000
,
10000000
01000000
00010000
00001000
,
00000010
00000000
00000001
00000001
00000000
00000000
00000100
00000100
,
00000000
00001010
00011000
00220000
,
00330000
00000000
10000000
10000000
00000000
00000000
01000000
01000000
,
00000000
00022000
00000000
00000000
,
00033000
00000000
00001000
00100000
00001000
00000000
00010000
00000000
,
00000100
00001000
00000010
00010000
,
00011000
00000000
00010000
00000100
00010000
00000000
00001000
00000000
,
00100000
00010000
01000000
00001000
,
00011000
00000000
00001000
00100000
00010000
00000000
10000000
00000000
,
00100000
01000000
00001000
00010000
,
00011000
00000000
00010000
00000100
00001000
00000000
00000001
00000000
,
00000100
00000220
00000000
00000000
,
00000330
00000000
00000001
00000100
00001000
00000000
00010000
00000000
,
00001000
00000000
00000100
00001000
00010000
00000000
01000000
00000000
,
00010000
00000000
00001000
00010000
01000000
00000000
10000000
00000000
,
01000000
00000000
10000000
00100000
00010000
00000000
00100000
00000000
,
10000000
00000000
00100000
00010000
00001000
00000000
00010000
00000000
,
00100000
00000000
00010000
00001000
00000010
00000000
00001000
00000000
,
00010000
00000000
00001000
00000010
00000001
00000000
00000010
00000000
,
00001000
00000000
00000010
00000001
00000100
00000000
00001000
00000000
,
00010000
00011000
00000000
00000000
00000000
00000000
00000000
00000000
;

//---------------dance-single - ----------------
#NOTES:
     dance-single:
     :
     Hard:
     10:
     0.369641,0.422908,0.263631,0.136697,0.151344,265.000000,238.000000,27.000000,14.000000,0.000000,0.000000,0.369641,0.422908,0.263631,0.136697,0.151344,265.000000,238.000000,27.000000,14.000000,0.000000,0.000000:
0000
0000
0000
0000
,
0000
0000
0000
0000
,
0000
0000
0000
0000
,
0000
0000
0000
0000
,
0000
1000
0010
0001
,
0100
1000
0010
0001
,
0110
0001
0010
1000
,
0100
0001
0010
1000
,
0110
1000
0010
0001
,
1000
0001
0100
1000
,
0110
0001
0010
1000
,
0001
1000
0100
0001
,
1001
0000
0010
1000
0100
0000
1000
0000
,
0001
0000
0010
0001
0100
0000
0001
0000
,
1000
0000
0010
0100
0001
0000
1000
0000
,
0010
0000
0100
0010
1000
0000
0001
0000
,
0100
0000
0010
1000
0010
0000
0100
0001
,
0100
0000
0001
0010
0001
0010
0100
1000
,
0100
0000
1000
0001
0010
0000
0001
0000
,
0101
0000
0001
1000
0010
0000
1000
0000
,
1010
0220
0000
0000
,
0330
2002
0000
3003
,
0001
1000
0001
0000
0100
0000
0000
0100
0010
0000
0000
0010
1000
0000
0000
1000
,
0001
0000
0000
0001
0100
0000
0000
0100
0010
0000
0000
0010
1000
0000
0000
1000
,
0001
0000
1000
0000
0100
0000
0000
0100
0010
0000
0000
0010
0001
0000
0000
0001
,
1000
0000
0000
1000
0100
0000
0000
0100
0010
0000
0000
0010
0001
0000
0000
0001
,
1000
0000
0010
0000
0100
0000
0000
0100
0001
0000
0000
0001
0010
0000
0000
0010
,
0100
0000
0000
0100
1000
0000
0000
1000
0010
0000
0000
0010
0100
0000
0000
0100
,
0001
1000
0100
1100
0000
0000
0010
0011
,
0000
0000
0000
0000
0101
0000
0000
0110
0000
0000
2002
0000
0000
0000
0000
0000
,
3003
0000
1000
1010
0000
0000
0001
0101
,
0000
0000
0000
0000
0220
0000
0000
0000
0000
0000
0000
0000
0330
0000
0000
0001
,
1000
0000
0001
0000
0100
0000
0010
0000
0000
1000
0000
0000
0001
0000
0000
0000
,
0010
0000
0011
0000
0000
0000
0001
0000
0000
0100
0000
0000
0010
0000
0000
0000
,
1000
0000
1100
0000
0000
0000
0100
0000
0000
1000
0000
0000
0001
0000
0000
0000
,
0100
0000
0110
0000
0000
0000
0010
0000
0000
1000
0000
0000
0001
0000
0000
0000
,
0010
0000
0110
0000
0000
0000
0100
0000
0000
1000
0000
0000
0010
0000
0000
0000
,
0100
0000
0101
0000
0000
0000
0001
0000
0000
0010
0000
0000
0100
0000
0000
0000
,
1000
0000
1010
0000
0000
0000
0010
0000
0000
0001
0000
0000
0100
0000
0000
0000
,
1000
1001
0020
0000
0000
0000
0200
0000
,
0330
0000
0010
1000
0010
0100
0001
0100
,
0010
1000
0100
0010
0001
1000
0020
0000
,
0130
0101
0000
0001
0010
0001
1000
0100
,
1000
0001
0100
0010
1000
0001
0020
0000
,
0130
1100
0000
1000
0010
1000
0100
0001
,
0100
1000
0010
0100
0001
1000
0200
0000
,
0310
0011
0000
0001
0100
1000
0100
0001
,
0100
0010
0001
0010
1000
0001
0200
0000
,
0310
1010
0000
0000
0000
0000
0000
0000
;

//---------------dance-double - ----------------
#NOTES:
     dance-double:
     :
     Hard:
     10:
     0.352902,0.399413,0.175754,0.117169,0.107405,253.000000,235.000000,18.000000,12.000000,0.000000,0.000000,0.352902,0.399413,0.175754,0.117169,0.107405,253.000000,235.000000,18.000000,12.000000,0.000000,0.000000:
// measure 0
00000000
00000000
00000000
00000000
,  // measure 1
00000000
00000000
00000000
00000000
,  // measure 2
00000000
00000000
00000000
00000000
,  // measure 3
00000000
00000000
00000000
00000000
,  // measure 4
00000000
00001000
00010000
01000000
,  // measure 5
10000000
00100000
00010000
00001000
,  // measure 6
00011000
00010000
00001000
00000100
,  // measure 7
00000001
00000010
00001000
00010000
,  // measure 8
00011000
00001000
00010000
00100000
,  // measure 9
10000000
01000000
00010000
00001000
,  // measure 10
00011000
00010000
00001000
00000010
,  // measure 11
00000001
00000100
00001000
00010000
,  // measure 12
00011000
00000000
00001000
00100000
00010000
00000000
01000000
00000000
,  // measure 13
00001000
00000000
00010000
00000100
00001000
00000000
00000010
00000000
,  // measure 14
00010000
00000000
00001000
00010000
00100000
00000000
01000000
00000000
,  // measure 15
00001000
00000000
00010000
00001000
00000100
00000000
00000010
00000000
,  // measure 16
00010000
00000000
00001000
00100000
00001000
00000000
00010000
00000010
,  // measure 17
00010000
00000000
00001000
01000000
00001000
00000000
00010000
00000100
,  // measure 18
00010000
00000000
00001000
00010000
00100000
00000000
10000000
00000000
,  // measure 19
11000000
00000000
00010000
00001000
00000010
00000000
00000001
00000000
,  // measure 20
00000101
00002000
00000000
00000000
,  // measure 21
00000000
00020000
00000000
00033000
,  // measure 22
00010000
00001000
00010000
00000000
00001000
00000000
00000000
00100000
00010000
00000000
00000000
00000000
01000000
00000000
00000000
00100000
,  // measure 23
10000000
00000000
00000000
00000000
01000000
00000000
00000000
00010000
00001000
00000000
00000000
00000000
00000010
00000000
00000000
00000001
,  // measure 24
00000100
00000000
00000010
00000000
00001000
00000000
00000000
00000001
00000010
00000000
00000000
00000000
00000100
00000000
00000000
00001000
,  // measure 25
00000010
00000000
00000000
00000000
00010000
00000000
00000000
00001000
00100000
00000000
00000000
00000000
01000000
00000000
00000000
10000000
,  // measure 26
00100000
00000000
01000000
00000000
00001000
00000000
00000000
00100000
00010000
00000000
00000000
00000000
01000000
00000000
00000000
00001000
,  // measure 27
00010000
00000000
00000000
00000000
00000100
00000000
00000000
00001000
00000010
00000000
00000000
00000000
00000100
00000000
00000000
00000001
,  // measure 28
00000010
00001000
00010000
00010010
00000000
00000000
00001000
01001000
,  // measure 29
00000000
00000000
00000000
00000000
00010100
00000000
00000000
00101000
00000000
00000000
00022000
00000000
00000000
00000000
00000000
00000000
,  // measure 30
00033000
00000000
00000100
00010100
00000000
00000000
00100000
00101000
,  // measure 31
00000000
00000000
00000000
00000000
00022000
00000000
00000000
00000000
00000000
00000000
00000000
00000000
00033000
00000000
00000000
00001000
,  // measure 32
00010000
00000000
00000100
00000000
00001000
00000000
00000100
00000000
00000000
00000010
00000000
00000000
00000001
00000000
00001000
00000000
,  // measure 33
00000010
00000000
00010000
00000000
00000000
00000000
00001000
00000000
00000000
00100000
00000000
00000000
01000000
00000000
10000000
00000000
,  // measure 34
00100000
00000000
01000000
00000000
00000000
00000000
00010000
00000000
00000000
10000000
00000000
00000000
01000000
00000000
00100000
00000000
,  // measure 35
00010000
00000000
01000000
00000000
00000000
00000000
00001000
00000000
00000000
00010000
00000000
00000000
00000100
00000000
00000010
00000000
,  // measure 36
00000001
00000000
00000100
00000000
00000000
00000000
00001000
00000000
00000000
00010000
00000000
00000000
00100000
00000000
10000000
00000000
,  // measure 37
01000000
00000000
00100000
00000000
00000000
00000000
01000000
00000000
00000000
00010000
00000000
00000000
00001000
00000000
00000010
00000000
,  // measure 38
00000001
00000000
00001000
00000000
00000000
00000000
00000010
00000000
00000000
00010000
00000000
00000000
00001000
00000000
00010000
00000000
,  // measure 39
01000000
10000000
00200000
00000000
00000000
00000000
02000000
00000000
,  // measure 40
03300000
00000000
01000000
00010000
01000000
00001000
00010000
00001000
,  // measure 41
00100000
00010000
01000000
00001000
00010000
00000100
00000020
00000000
,  // measure 42
00000031
00000101
00000000
00000100
00000010
00000100
00001000
00010000
,  // measure 43
00001000
00100000
00010000
10000000
00100000
01000000
00020000
00000000
,  // measure 44
10030000
11000000
00000000
01000000
00100000
01000000
00010000
00001000
,  // measure 45
00010000
00000100
00001000
00000100
00000010
00000001
00002000
00000000
,  // measure 46
00003010
00000110
00000000
00000100
00000001
00000010
00000100
00010000
,  // measure 47
00001000
00100000
01000000
10000000
00100000
00010000
00002000
00000000
,  // measure 48
00013000
00011000
00000000
00000000
00000000
00000000
00000000
00000000
;
