#VERSION:0.83;
#TITLE:Together Forever;
#SUBTITLE:;
#ARTIST:Rick Astley;
#TITLETRANSLIT:;
#SUBTITLETRANSLIT:;
#ARTISTTRANSLIT:;
#GENRE:XROSS;
#ORIGIN:;
#CREDIT:MUINELIM;
#BANNER:Together Forever.png;
#BACKGROUND:Together Forever-bg.png;
#PREVIEWVID:;
#JACKET:Together Forever-jacket.png;
#CDIMAGE:;
#DISCIMAGE:;
#LYRICSPATH:;
#CDTITLE:;
#MUSIC:Together Forever.ogg;
#OFFSET:-0.195000;
#SAMPLESTART:52.031414;
#SAMPLELENGTH:12.483253;
#SELECTABLE:YES;
#BPMS:0.000=115.170;
#STOPS:;
#DELAYS:;
#WARPS:;
#TIMESIGNATURES:0.000=4=4;
#TICKCOUNTS:0.000=4;
#COMBOS:0.000=1;
#SPEEDS:0.000=1.000=0.000=0;
#SCROLLS:0.000=1.000;
#FAKES:;
#LABELS:0.000=Song Start;
#BGCHANGES:0.000=Together Forever.avi=1.000=1=0=0=StretchNoLoop==CrossFade==,
99999=-nosongbg-=1.000=0=0=0 // don't automatically add -songbackground-
;
#KEYSOUNDS:;
#ATTACKS:
;

//---------------dance-single - ----------------
#NOTEDATA:;
#CHARTNAME:;
#STEPSTYPE:dance-single;
#DESCRIPTION:;
#CHARTSTYLE:;
#DIFFICULTY:Beginner;
#METER:2;
#RADARVALUES:0.075710,0.137310,0.008030,0.000000,0.000000,66.000000,65.000000,1.000000,0.000000,0.000000,0.000000,0.000000,0.000000,0.000000,0.075710,0.137310,0.008030,0.000000,0.000000,66.000000,65.000000,1.000000,0.000000,0.000000,0.000000,0.000000,0.000000,0.000000;
#CREDIT:MILEN;
#NOTES:
0000
0000
0000
0000
,
0000
0000
0000
0000
,
0000
0000
0000
0000
,
0000
0000
0000
0000
,
0000
0000
0000
0000
,
0100
0000
0000
0000
,
0010
0000
0000
0000
,
0100
0000
0000
0000
,
0010
0000
0000
0000
,
0100
0000
0000
0000
,
0001
0000
0000
0000
,
1000
0000
0000
0000
,
0010
0000
0000
0000
,
0100
0000
0000
0000
,
0001
0000
0000
0000
,
1000
0000
0000
0000
,
0010
0000
0000
0000
,
0100
0000
0000
0000
,
0100
0000
0000
0000
,
0010
0000
0000
0000
,
0010
0000
0000
0000
,
1000
0000
0000
0000
,
1000
0000
0000
0000
,
0001
0000
0000
0000
,
0001
0000
0000
0000
,
1000
0000
0000
0000
,
0100
0000
0000
0000
,
0010
0000
0000
0000
,
0001
0000
0000
0000
,
0001
0000
0000
0000
,
0010
0000
0000
0000
,
0100
0000
0000
0000
,
1000
0000
0000
0000
,
0010
0000
0010
0000
,
0010
0000
0000
0000
,
0100
0000
0100
0000
,
0100
0000
0000
0000
,
0001
0000
0001
0000
,
0001
0000
0000
0000
,
1000
0000
1000
0000
,
1000
0000
0000
0000
,
0001
0000
0000
0000
,
0010
0000
0000
0000
,
0100
0000
0000
0000
,
1000
0000
0000
0000
,
1000
0000
0000
0000
,
0100
0000
0000
0000
,
0010
0000
0000
0000
,
0001
0000
0000
0000
,
1000
0000
1000
0000
,
1000
0000
1000
0000
,
0010
0000
0010
0000
,
0010
0000
0010
0000
,
0100
0000
0100
0000
,
0100
0000
0100
0000
,
0001
0000
0001
0000
,
0001
0000
0001
0000
,
1001
0000
0000
0000
;

//---------------dance-single - ----------------
#NOTEDATA:;
#CHARTNAME:;
#STEPSTYPE:dance-single;
#DESCRIPTION:;
#CHARTSTYLE:;
#DIFFICULTY:Easy;
#METER:3;
#RADARVALUES:0.135360,0.189503,0.008030,0.032119,0.000000,118.000000,117.000000,1.000000,4.000000,0.000000,0.000000,0.000000,0.000000,0.000000,0.135360,0.189503,0.008030,0.032119,0.000000,118.000000,117.000000,1.000000,4.000000,0.000000,0.000000,0.000000,0.000000,0.000000;
#CREDIT:MILEN;
#NOTES:
0000
0000
0000
0000
,
0000
0000
0000
0000
,
0000
0000
0000
0000
,
0000
0000
0000
0000
,
0000
0000
0000
0000
,
0100
0000
0100
0000
,
0010
0000
0010
0000
,
0100
0000
0010
0000
,
0100
0000
0010
0000
,
1000
0000
0001
0000
,
0100
0000
0010
0000
,
1000
0000
0001
0000
,
0100
0000
0010
0000
,
0100
0000
0001
0000
,
1000
0000
0010
0000
,
0100
0000
0001
0000
,
1000
0000
0010
0000
,
0100
0000
0010
0000
,
1000
0000
0100
0000
,
0010
0000
0001
0000
,
0100
0000
0010
0000
,
0100
0000
0001
0000
,
0010
0000
0100
0000
,
1000
0000
0010
0000
,
0100
0200
0000
0300
,
0001
0000
1000
0000
,
0010
0000
0100
0000
,
0001
0000
1000
0000
,
0010
0010
0010
0010
,
0100
0000
0001
0000
,
1000
0000
0010
0000
,
0100
0000
0001
0000
,
1000
1000
1000
1000
,
0010
0000
1000
0000
,
0010
0000
1000
0000
,
0100
0000
0001
0000
,
0100
0000
0001
0000
,
0010
0000
1000
0000
,
0100
0000
0001
0000
,
0010
0000
1000
0000
,
0100
0000
0001
0000
,
0010
0000
1000
0000
,
0001
0000
0100
0000
,
1000
0000
0010
0000
,
0001
0000
1000
0000
,
0100
0000
0001
0000
,
0010
0000
1000
0000
,
0001
0000
0100
0000
,
0010
0020
0000
0030
,
1000
1000
1000
0000
,
0100
0100
0100
0000
,
0010
0010
0010
0000
,
0001
0001
0001
0000
,
0100
0001
0100
0000
,
0010
1000
0010
0000
,
1000
0100
1000
0000
,
0001
0010
0001
0000
,
2002
0000
0000
0000
,
0000
0000
0000
0000
,
3003
0000
0000
0000
;

//---------------dance-double - ----------------
#NOTEDATA:;
#CHARTNAME:;
#STEPSTYPE:dance-double;
#DESCRIPTION:;
#CHARTSTYLE:;
#DIFFICULTY:Easy;
#METER:3;
#RADARVALUES:0.133065,0.189503,0.008030,0.032119,0.000000,116.000000,115.000000,1.000000,4.000000,0.000000,0.000000,0.000000,0.000000,0.000000,0.133065,0.189503,0.008030,0.032119,0.000000,116.000000,115.000000,1.000000,4.000000,0.000000,0.000000,0.000000,0.000000,0.000000;
#CREDIT:MILEN;
#NOTES:
// measure 0
00000000
00000000
00000000
00000000
,  // measure 1
00000000
00000000
00000000
00000000
,  // measure 2
00000000
00000000
00000000
00000000
,  // measure 3
00000000
00000000
00000000
00000000
,  // measure 4
00000000
00000000
00000000
00000000
,  // measure 5
00001000
00000000
00001000
00000000
,  // measure 6
00010000
00000000
00010000
00000000
,  // measure 7
00001000
00000000
00010000
00000000
,  // measure 8
00001000
00000000
00010000
00000000
,  // measure 9
00000100
00000000
00001000
00000000
,  // measure 10
00000010
00000000
00010000
00000000
,  // measure 11
00001000
00000000
00100000
00000000
,  // measure 12
00010000
00000000
01000000
00000000
,  // measure 13
00001000
00000000
00010000
00000000
,  // measure 14
00000100
00000000
00000010
00000000
,  // measure 15
00001000
00000000
00010000
00000000
,  // measure 16
01000000
00000000
00100000
00000000
,  // measure 17
00001000
00000000
00010000
00000000
,  // measure 18
00100000
00000000
01000000
00000000
,  // measure 19
00001000
00000000
00010000
00000000
,  // measure 20
00000010
00000000
00000100
00000000
,  // measure 21
00001000
00000000
00010000
00000000
,  // measure 22
01000000
00000000
00100000
00000000
,  // measure 23
00001000
00000000
00010000
00000000
,  // measure 24
00000100
00000020
00000000
00000030
,  // measure 25
00000001
00000000
00000100
00000000
,  // measure 26
00000010
00000000
00010000
00000000
,  // measure 27
00001000
00000000
00100000
00000000
,  // measure 28
01000000
01000000
01000000
00000000
,  // measure 29
10000000
00000000
00100000
00000000
,  // measure 30
01000000
00000000
00001000
00000000
,  // measure 31
00010000
00000000
00000100
00000000
,  // measure 32
00000010
00000010
00000010
00000000
,  // measure 33
00000001
00000000
00000100
00000000
,  // measure 34
00001000
00000000
00010000
00000000
,  // measure 35
01000000
00000000
10000000
00000000
,  // measure 36
00100000
00000000
00010000
00000000
,  // measure 37
00001000
00000000
00000010
00000000
,  // measure 38
00000001
00000000
00000100
00000000
,  // measure 39
00001000
00000000
00010000
00000000
,  // measure 40
00100000
00000000
10000000
00000000
,  // measure 41
01000000
00000000
00010000
00000000
,  // measure 42
00001000
00000000
00000010
00000000
,  // measure 43
00000001
00000000
00001000
00000000
,  // measure 44
00000010
00000000
00010000
00000000
,  // measure 45
00100000
00000000
00001000
00000000
,  // measure 46
00000100
00000000
00010000
00000000
,  // measure 47
01000000
00000000
10000000
00000000
,  // measure 48
00100000
02000000
00000000
03000000
,  // measure 49
00010000
00010000
00010000
00000000
,  // measure 50
00100000
00100000
00100000
00000000
,  // measure 51
00001000
00001000
00001000
00000000
,  // measure 52
00010000
00010000
00010000
00000000
,  // measure 53
00000010
00000010
00000010
00000000
,  // measure 54
00001000
00001000
00001000
00000000
,  // measure 55
00000100
00010000
00001000
00000000
,  // measure 56
01000000
00001000
00010000
00000000
,  // measure 57
00022000
00000000
00000000
00000000
,  // measure 58
00000000
00000000
00000000
00000000
,  // measure 59
00033000
00000000
00000000
00000000
;

//---------------dance-single - ----------------
#NOTEDATA:;
#CHARTNAME:;
#STEPSTYPE:dance-single;
#DESCRIPTION:;
#CHARTSTYLE:;
#DIFFICULTY:Medium;
#METER:6;
#RADARVALUES:0.270719,0.307943,0.152566,0.160596,0.000000,236.000000,217.000000,19.000000,20.000000,0.000000,0.000000,0.000000,0.000000,0.000000,0.270719,0.307943,0.152566,0.160596,0.000000,236.000000,217.000000,19.000000,20.000000,0.000000,0.000000,0.000000,0.000000,0.000000;
#CREDIT:MILEN;
#NOTES:
0000
0000
0000
0000
,
0000
0000
0000
0000
,
0000
0000
0000
0000
,
0000
0000
0000
0000
,
0000
0000
0000
0000
,
0010
0100
0010
0010
,
0100
0010
0100
0100
,
1001
0010
0100
0010
,
1001
0001
1000
0001
,
0100
0100
0010
0010
,
0110
1000
0001
1000
,
0010
0100
0010
0000
1000
0000
0001
0000
,
0100
0010
0100
0000
0001
0000
1000
0000
,
0010
0010
0100
0100
,
0110
0001
1000
0001
,
0010
0100
0010
0000
0001
0000
1000
0000
,
0100
0010
0100
0000
1000
0000
0001
0000
,
2000
3000
0100
0010
,
0002
0003
0010
0100
,
2002
0000
3003
0000
1000
0001
0100
0000
,
0010
0010
1000
0001
,
0200
0300
0001
1000
,
0020
0030
1000
0001
,
0220
0330
0001
1000
,
1010
0000
0101
0000
0000
0000
0000
0001
,
0001
0100
0010
0100
,
0001
0000
0100
0000
0010
0000
0100
0001
,
1000
0010
0100
0010
,
1000
0000
0010
0000
0100
0000
0010
1000
,
0001
0010
0100
0010
,
0001
0000
0010
0000
0100
0000
0010
0001
,
1000
0100
0010
0100
,
1000
0000
0100
0000
0010
0000
0001
1000
,
1001
0001
0200
0310
,
0100
0010
1000
0000
0100
1000
0010
0000
,
1000
1100
0001
0011
,
1000
0001
0100
0100
,
1001
1000
0020
0130
,
0010
0100
0001
0000
0010
0001
0100
0000
,
0001
0101
1000
1010
,
0001
1000
0010
0010
,
0002
0103
2000
3010
,
0002
1003
0200
0310
,
0001
0100
1000
0010
,
0001
1000
0110
1001
,
2000
3100
0002
0013
,
2000
3001
0020
0130
,
1000
0010
0001
0100
,
1100
0000
0011
0000
0000
0000
0000
1000
,
1000
0010
0001
0010
,
1000
0000
0010
0000
0001
0000
0010
1000
,
0001
0100
1000
0100
,
0001
0000
0100
0000
1000
0000
0100
0001
,
1000
0010
0001
0100
,
1000
0000
0010
0000
0001
0000
0100
1000
,
0001
0010
1000
0100
,
0001
0010
1000
0100
,
0220
0000
0000
0000
,
0000
0000
0000
0000
,
0330
0000
0000
0000
;

//---------------dance-double - ----------------
#NOTEDATA:;
#CHARTNAME:;
#STEPSTYPE:dance-double;
#DESCRIPTION:;
#CHARTSTYLE:;
#DIFFICULTY:Medium;
#METER:6;
#RADARVALUES:0.283337,0.331631,0.224835,0.096358,0.000000,247.000000,219.000000,28.000000,12.000000,0.000000,0.000000,0.000000,0.000000,0.000000,0.283337,0.331631,0.224835,0.096358,0.000000,247.000000,219.000000,28.000000,12.000000,0.000000,0.000000,0.000000,0.000000,0.000000;
#CREDIT:MILEN;
#NOTES:
// measure 0
00000000
00000000
00000000
00000000
,  // measure 1
00000000
00000000
00000000
00000000
,  // measure 2
00000000
00000000
00000000
00000000
,  // measure 3
00000000
00000000
00000000
00000000
,  // measure 4
00000000
00000000
00000000
00000000
,  // measure 5
00001000
00010000
00001000
00001000
,  // measure 6
00010000
00001000
00010000
00010000
,  // measure 7
00011000
00000010
00010000
00001000
,  // measure 8
00011000
00100000
00001000
00010000
,  // measure 9
00011000
00000100
00001000
00000001
,  // measure 10
00001001
00000001
00001000
00000100
,  // measure 11
00010000
00001000
00010000
00000000
00000010
00000000
00010000
00000000
,  // measure 12
00001000
00010000
00001000
00000000
01000000
00000000
00001000
00000000
,  // measure 13
00011000
01000000
00010000
10000000
,  // measure 14
10010000
10000000
00010000
01000000
,  // measure 15
00001000
00010000
00001000
00000000
00100000
00000000
00001000
00000000
,  // measure 16
00010000
00001000
00010000
00000000
00000100
00000000
00010000
00000000
,  // measure 17
00002000
00003000
00010000
01000000
,  // measure 18
20000000
30000000
01000000
00010000
,  // measure 19
00022000
00000000
00033000
00000000
00001000
01000000
00001000
00000000
,  // measure 20
00010000
00000100
00010000
00000000
00001000
00000000
00011000
00000000
,  // measure 21
00020000
00030000
00001000
00000010
,  // measure 22
00000002
00000003
00000010
00001000
,  // measure 23
00022000
00033000
00010000
00001000
,  // measure 24
01001000
00000000
00010100
00000000
00000000
00000000
00000000
00000010
,  // measure 25
00000010
00000001
00000100
00000001
,  // measure 26
00000010
00000000
00000001
00000000
00000100
00000000
00000001
00000010
,  // measure 27
00001000
00010000
00001000
00100000
,  // measure 28
00001000
00000000
00010000
00000000
00001000
00000000
00100000
01000000
,  // measure 29
10000000
00100000
10000000
01000000
,  // measure 30
10000000
00000000
00100000
00000000
10000000
00000000
01000000
00010000
,  // measure 31
00001000
00010000
00000100
00010000
,  // measure 32
00001000
00010000
00000100
00010000
,  // measure 33
00011000
00001000
00000020
00000031
,  // measure 34
00000001
00000100
00001000
00000000
00000100
00001000
00010000
00000000
,  // measure 35
00001000
00101000
00010000
00010100
,  // measure 36
00000100
00000000
00001000
00000000
00000010
00010000
00001000
00000000
,  // measure 37
00011000
00010000
00200000
10300000
,  // measure 38
10000000
01000000
00010000
00000000
01000000
00010000
00001000
00000000
,  // measure 39
00010000
00010010
00001000
01001000
,  // measure 40
01000000
00000000
00010000
00000000
00100000
00001000
00010000
00000000
,  // measure 41
00011000
01000000
00011000
00000100
,  // measure 42
00011000
00100000
00011000
00000010
,  // measure 43
00010000
00001000
00000010
00000001
,  // measure 44
00000100
00001000
00010000
00001000
,  // measure 45
00011000
00000010
00011000
00100000
,  // measure 46
00011000
00000100
00011000
01000000
,  // measure 47
00010000
00100000
00001000
00010000
,  // measure 48
00010100
00000000
01001000
00000000
00000000
00000000
00000000
10000000
,  // measure 49
10000000
00100000
00010000
00100000
,  // measure 50
10000000
00000000
00100000
00000000
00010000
00000000
00001000
00000010
,  // measure 51
00000001
00000100
00000001
00000010
,  // measure 52
00000001
00000000
00000100
00000000
00000001
00000000
00000010
00001000
,  // measure 53
00010000
00001000
00000100
00001000
,  // measure 54
00010000
00000000
00001000
00000000
00000100
00000000
00001000
00010000
,  // measure 55
00100000
10000000
01000000
00010000
,  // measure 56
01000000
10000000
01000000
00010000
,  // measure 57
00022000
00000000
00000000
00000000
,  // measure 58
00000000
00000000
00000000
00000000
,  // measure 59
00033000
00000000
00000000
00000000
;

//---------------dance-single - ----------------
#NOTEDATA:;
#CHARTNAME:;
#STEPSTYPE:dance-single;
#DESCRIPTION:;
#CHARTSTYLE:;
#DIFFICULTY:Hard;
#METER:10;
#RADARVALUES:0.369371,0.426383,0.273013,0.361341,0.000000,322.000000,288.000000,34.000000,45.000000,0.000000,0.000000,0.000000,0.000000,0.000000,0.369371,0.426383,0.273013,0.361341,0.000000,322.000000,288.000000,34.000000,45.000000,0.000000,0.000000,0.000000,0.000000,0.000000;
#CREDIT:MILEN;
#NOTES:
0000
0000
0000
0000
,
0000
0000
0000
0000
,
0000
0000
0000
0000
,
0000
0000
0000
0000
,
0000
0000
0000
0000
,
1000
0010
0100
0001
0000
0100
0010
1000
,
0000
0010
0100
0002
0000
0000
1003
0000
,
1001
0000
0010
0200
0000
0000
0310
0000
,
0010
1000
0100
0010
0001
0100
0010
0010
,
1000
0001
1000
0100
,
1000
0001
0010
0000
0001
0000
1000
0000
,
0001
1000
0100
0000
1000
0000
0001
0000
,
1000
0001
0100
0000
0101
0000
1010
0000
,
1000
0000
0100
0000
0010
0000
0001
0100
,
0010
0000
0100
0000
0010
0000
1000
0010
,
0100
0000
0010
0000
0100
0000
0001
0010
,
0100
0000
0010
0000
0100
1000
0100
0010
,
0012
0203
0320
2030
,
3010
1000
0100
0000
0010
0001
0100
0000
,
0110
0010
0000
1000
0010
0100
0001
1000
,
1100
0000
0100
0020
0000
0031
0010
0100
,
2100
0000
3020
0000
0230
0000
0301
1000
,
0200
0000
0320
0000
0032
0000
1003
0010
,
0200
0000
0302
0000
0023
0000
0130
1000
,
1010
0000
0101
0000
0000
0000
0000
0010
,
0010
1000
0100
0020
0000
0031
0100
0020
,
0000
1030
0100
0010
0000
0000
0011
0001
,
0010
0100
1000
0002
0000
0103
0010
1000
,
1020
0000
0230
0000
0302
0000
1003
1000
,
0100
0010
0001
0200
0000
0310
1000
0200
,
0000
0310
0001
0200
0000
0310
1000
0100
,
1000
0010
1000
0100
0000
1000
0001
0000
,
0011
0000
1100
0000
1010
0000
0101
0100
,
0010
0000
2000
0000
3002
0000
1003
0100
,
0010
0001
0010
0100
1000
0000
1010
0000
,
0001
0010
0100
0001
0100
1000
0001
0000
,
0010
0000
0100
0000
1000
0001
0200
0000
,
0310
0000
0002
0000
2003
0000
3001
0100
,
0010
1000
0010
0100
0001
0000
0011
0000
,
1000
0010
0100
1000
0100
0001
1000
0000
,
0010
0000
0100
0000
0001
1000
0100
0010
,
0022
0000
0033
0000
0001
1000
0010
0000
,
2020
0000
3030
0000
1000
0010
0100
0000
,
1000
0100
0001
0010
0000
0100
0010
0001
,
0101
0000
0100
0010
0000
0010
1000
0100
,
2200
0000
3300
0000
1000
0010
0100
0000
,
0202
0000
0303
0000
0001
0010
0100
0000
,
0001
0100
1000
0010
0100
0001
1000
0100
,
1100
0000
0011
0000
0000
0000
0000
0100
,
0100
0010
1000
0002
0000
0103
1000
0002
,
0000
0013
1000
0001
0000
0000
0101
0100
,
0010
0001
0010
1000
0000
0100
0010
0100
,
1100
0000
1010
0000
0101
0000
0011
0100
,
0100
0010
0001
2000
0000
3100
0001
2000
,
0000
3010
0001
2000
0000
3100
0001
0100
,
0010
1000
0010
0001
0000
0100
0010
0100
,
0101
0011
1010
1100
,
0220
0000
0000
0000
,
0000
0000
0000
0000
,
0330
0000
0000
0000
;

//---------------dance-double - ----------------
#NOTEDATA:;
#CHARTNAME:;
#STEPSTYPE:dance-double;
#DESCRIPTION:;
#CHARTSTYLE:;
#DIFFICULTY:Hard;
#METER:10;
#RADARVALUES:0.376254,0.426383,0.224835,0.192715,0.048179,328.000000,300.000000,28.000000,24.000000,0.000000,0.000000,0.000000,0.000000,0.000000,0.376254,0.426383,0.224835,0.192715,0.048179,328.000000,300.000000,28.000000,24.000000,0.000000,0.000000,0.000000,0.000000,0.000000;
#CREDIT:MILEN;
#NOTES:
// measure 0
00000000
00000000
00000000
00000000
,  // measure 1
00000000
00000000
00000000
00000000
,  // measure 2
00000000
00000000
00000000
00000000
,  // measure 3
00000000
00000000
00000000
00000000
,  // measure 4
00000000
00000000
00000000
00000000
,  // measure 5
00001000
00010000
00000100
00000010
00000000
00000010
00001000
00010000
,  // measure 6
00000000
00010000
00100000
20000000
00000000
00000000
30010000
00000000
,  // measure 7
10010000
00000000
01000000
00200000
00000000
00000000
01300000
00000000
,  // measure 8
01000000
00001000
00010000
00000100
00000010
00000001
00000100
00000100
,  // measure 9
00000010
00001000
00000001
00000100
,  // measure 10
00000010
00001000
00000001
00000000
00000100
00000000
00000010
00000000
,  // measure 11
00010000
00001000
00100000
00000000
00010000
00000000
01000000
00000000
,  // measure 12
00100000
10000000
00010000
00000000
01010000
00000000
10100000
00000000
,  // measure 13
10000000
00000000
00010000
00000000
01000000
00000000
00100000
10000000
,  // measure 14
00010000
00000000
01000000
00000000
00001000
00000000
00010000
00000100
,  // measure 15
00001000
00000000
00000001
00000000
00000100
00000000
00000010
00001000
,  // measure 16
00000001
00000000
00000100
00000000
00000010
00010000
00001000
00100000
,  // measure 17
01000000
00000000
00000000
10000000
00000000
00000000
00100000
00000000
00100000
00000000
00000000
00010000
00000000
00000000
00001000
00000000
,  // measure 18
00100000
01000000
00010000
00000000
00001000
00000010
00000100
00000000
,  // measure 19
00000110
00000010
00000000
00000001
00000100
00001000
00010000
00000000
,  // measure 20
00011000
00000000
00001000
00200000
00000000
01300000
10000000
01000000
,  // measure 21
00010000
00000000
00000000
00001000
00000000
00000000
00000010
00000000
00000000
00000000
00000011
00000000
00000000
00000000
00000001
00000000
,  // measure 22
00000001
00000000
00000000
00000100
00000000
00000000
00001000
00000000
00010000
00000000
00000000
00001000
00000000
00000000
00100000
00000000
,  // measure 23
00100000
01000000
10000000
00010000
00100000
01000000
00010000
00001000
,  // measure 24
00101000
00000000
00010010
00000000
00000000
00000000
00000000
00010000
,  // measure 25
00010000
00001000
00000100
00000020
00000000
00001030
00000100
00000020
,  // measure 26
00000000
00000130
00000010
00000001
00000000
00000000
00000101
00000100
,  // measure 27
00001000
00010000
00100000
02000000
00000000
03010000
00100000
01000000
,  // measure 28
21000000
00000000
30200000
00000000
00320000
00000000
00031000
00001000
,  // measure 29
00010000
00100000
01000000
00020000
00000000
00130000
01000000
00020000
,  // measure 30
00000000
00030100
00000010
00002000
00000000
00013000
00100000
10000000
,  // measure 31
01000000
10000000
00100000
00010000
00000000
00001000
00010000
00000000
,  // measure 32
00001000
00000000
01001000
00000000
00010000
00000000
00010100
00010000
,  // measure 33
00001000
00000000
00000020
00000000
00000032
00000000
00000013
00000001
,  // measure 34
00000010
00000100
00001000
00000010
00010000
00000000
00011000
00000000
,  // measure 35
00100000
00010000
00100000
01000000
00010000
01000000
10000000
00000000
,  // measure 36
00100000
00000000
01000000
00000000
00010000
00100000
00002000
00000000
,  // measure 37
00013000
00000000
00200000
00000000
20300000
00000000
30100000
10000000
,  // measure 38
00100000
01000000
00010000
00100000
00001000
00000000
00011000
00000000
,  // measure 39
00000010
00001000
00000010
00000100
00001000
00000100
00000001
00000000
,  // measure 40
00000010
00000000
00000100
00000000
00001000
00000010
00010000
00001000
,  // measure 41
00100000
00000000
00000000
01000000
00000000
00000000
10000000
00000000
10000000
00000000
00000000
00100000
00000000
00000000
00010000
00000000
,  // measure 42
00001000
00000000
00000000
00100000
00000000
00000000
01000000
00000000
01000000
00000000
00000000
00010000
00000000
00000000
00001000
00000000
,  // measure 43
00001000
00010000
00000100
00000010
00000000
00000100
00001000
00000010
,  // measure 44
00000110
00000000
00000100
00000001
00000000
00000001
00000010
00000100
,  // measure 45
00001000
00000000
00000000
00000010
00000000
00000000
00010000
00000000
00000000
00000000
00011000
00000000
00000000
00000000
00001000
00000000
,  // measure 46
00001000
00000000
00000000
00100000
00000000
00000000
01000000
00000000
10000000
00000000
00000000
00100000
00000000
00000000
00010000
00000000
,  // measure 47
00010000
00001000
00100000
01000000
00010000
00001000
00000010
00000100
,  // measure 48
00010100
00000000
01001000
00000000
00000000
00000000
00000000
00001000
,  // measure 49
00001000
00010000
00100000
02000000
00000000
03010000
00100000
02000000
,  // measure 50
00000000
03100000
01000000
10000000
00000000
00000000
10100000
00100000
,  // measure 51
00010000
00001000
00100000
01000000
00000000
00010000
00001000
00000100
,  // measure 52
00000101
00000000
00010010
00000000
00101000
00000000
11000000
10000000
,  // measure 53
10000000
00100000
00010000
00002000
00000000
00003010
00001000
00020000
,  // measure 54
00000000
01030000
00010000
00002000
00000000
00003100
00001000
00010000
,  // measure 55
00001000
00000010
00000001
00000100
00000000
00000010
00010000
00001000
,  // measure 56
01001000
00010100
00101000
00010010
,  // measure 57
00022000
00000000
00000000
00000000
,  // measure 58
00000000
00000000
00000000
00000000
,  // measure 59
00033000
00000000
00000000
00000000
;
