#TITLE:Tied up;
#SUBTITLE:;
#ARTIST:LUCY;
#TITLETRANSLIT:;
#SUBTITLETRANSLIT:;
#ARTISTTRANSLIT:;
#GENRE:K-POP;
#CREDIT:;
#BANNER:Tied up.png;
#BACKGROUND:Tied up-bg.png;
#LYRICSPATH:;
#CDTITLE:;
#MUSIC:Tied up.ogg;
#OFFSET:-0.032000;
#SAMPLESTART:58.466785;
#SAMPLELENGTH:12.441730;
#SELECTABLE:YES;
#DISPLAYBPM:115.000000;
#BPMS:0.000000=115;
#STOPS:
;
#BGCHANGES:;
#KEYSOUNDS:;
#ATTACKS:;

//---------------dance-single - ----------------
#NOTES:
     dance-single:
     :
     Beginner:
     2:
     0.101575,0.165906,0.014813,0.014813,0.000000,96.000000,94.000000,2.000000,2.000000,0.000000,0.000000,0.101575,0.165906,0.014813,0.014813,0.000000,96.000000,94.000000,2.000000,2.000000,0.000000,0.000000:
0000
0000
0000
0000
,
0000
0000
0000
0000
,
0000
0000
0000
0000
,
0000
0000
0000
0000
,
0000
0100
0000
0000
,
0000
0100
0000
0000
,
0000
0100
0000
0100
,
0000
0200
0000
0300
,
0000
0001
0000
0001
,
0000
0001
0000
0000
,
0000
1000
0000
1000
,
0000
1000
0000
0000
,
0000
0001
0000
0001
,
0000
1000
0000
0000
,
0000
1000
0000
1000
,
0000
0001
0000
0000
,
0000
1000
0000
0000
,
0000
0100
0000
0000
,
0000
0010
0000
0000
,
0000
0001
0000
0000
,
0000
0001
0000
0000
,
0000
0100
0000
0000
,
0000
0010
0000
0000
,
0000
1000
0000
0000
,
0000
0001
0001
0000
,
0000
0100
0100
0000
,
0000
0010
0010
0000
,
0000
1000
0000
1000
,
0000
0001
0000
0100
,
0000
0010
0000
1000
,
0000
0001
0000
0100
,
0000
0010
0000
0000
,
0000
1000
0000
0010
,
0000
0100
0000
0001
,
0000
1000
0000
0010
,
0000
0100
0000
0000
,
0010
0010
0000
0000
,
0000
1000
0000
0000
,
0000
0100
0000
0000
,
0000
0001
0000
0000
,
0010
0010
0000
0001
,
0000
0100
0000
1000
,
0000
0010
0000
0001
,
0000
0100
0000
1000
,
0000
0020
0000
0000
,
0000
0000
0000
0000
,
0000
0030
0000
0000
,
0000
0000
0000
0000
,
0000
1000
0000
0100
,
0000
0010
0000
0001
,
0000
1000
0000
0100
,
0000
0010
0000
0000
,
0000
0001
0000
0010
,
0000
0100
0000
1000
,
0000
0001
0000
0010
,
0000
0100
0000
0000
,
1000
1000
0000
0010
,
0000
0001
0000
0001
,
0000
0001
0000
0100
,
0000
1000
0000
0000
,
0001
0001
0000
0010
,
0000
1000
0000
1000
,
0000
1000
0000
0100
,
0000
0001
0000
1001
,
1001
0000
0000
0000
;

//---------------dance-single - ----------------
#NOTES:
     dance-single:
     :
     Easy:
     5:
     0.192570,0.237009,0.088878,0.088878,0.000000,182.000000,170.000000,12.000000,12.000000,0.000000,0.000000,0.192570,0.237009,0.088878,0.088878,0.000000,182.000000,170.000000,12.000000,12.000000,0.000000,0.000000:
0000
0000
0000
0000
,
0000
0000
0000
0000
,
0000
0000
0000
0000
,
0000
0000
0000
0000
,
0000
1000
0000
0000
,
0000
0010
0000
0000
,
0000
0001
0000
0100
,
0000
2000
0000
3000
,
0000
0001
0010
0001
,
0000
0010
0001
0100
,
0000
0010
1000
0010
,
0000
1000
0100
0020
,
0030
0001
1000
0100
,
0000
1000
0001
1000
,
0000
0001
0010
0100
,
0000
1000
0100
1000
,
1001
0001
0000
0100
,
0000
1000
0000
0010
,
0000
0001
0000
0100
,
0000
1000
0000
0010
,
0010
0100
0010
0001
,
0000
0010
0100
1000
,
0000
0100
0010
0001
,
0010
0100
1000
0100
,
0100
0220
0330
0000
,
0000
0220
0330
0000
,
0000
0220
0330
0000
,
0000
0110
0001
1000
,
0000
0001
0100
0010
,
0010
0100
0001
1000
,
0000
1000
0010
0100
,
0100
0010
1000
0001
,
0000
1000
0100
0010
,
0010
0100
1000
0001
,
0000
0001
0010
0100
,
0100
0010
0001
1000
,
0000
1001
0000
0010
,
0000
0100
0000
0010
,
0000
1001
0000
0100
,
0000
0010
0000
0100
,
0100
0000
0010
1000
,
0100
1000
0100
0100
,
0010
0001
0010
0001
,
0001
1000
0010
0100
,
0001
2002
0000
0000
,
0000
0000
0000
0000
,
0000
3003
0000
0000
,
0000
0000
0000
0000
,
1001
1000
0100
0010
,
0010
1000
0100
0010
,
0000
0001
0010
0100
,
0100
0001
0010
0100
,
0000
1000
0010
0001
,
0001
1000
0010
0001
,
0000
0001
0100
1000
,
1000
0001
0100
1000
,
1001
0010
0001
0100
,
0001
0010
0001
0100
,
0000
0100
1000
0010
,
1000
0200
0300
1000
,
1001
0010
1000
0100
,
1000
0010
1000
0100
,
0000
0100
0001
0020
,
0030
0001
1000
0001
,
1001
0000
0000
0000
;

//---------------dance-double - ----------------
#NOTES:
     dance-double:
     :
     Easy:
     5:
     0.190454,0.237009,0.088878,0.081472,0.000000,180.000000,168.000000,12.000000,11.000000,0.000000,0.000000,0.190454,0.237009,0.088878,0.081472,0.000000,180.000000,168.000000,12.000000,11.000000,0.000000,0.000000:
// measure 0
00000000
00000000
00000000
00000000
,  // measure 1
00000000
00000000
00000000
00000000
,  // measure 2
00000000
00000000
00000000
00000000
,  // measure 3
00000000
00000000
00000000
00000000
,  // measure 4
00000000
01000000
00000000
00000000
,  // measure 5
00000000
00100000
00000000
00000000
,  // measure 6
00000000
00010000
00000000
00001000
,  // measure 7
00000000
00000200
00000000
00000300
,  // measure 8
00000000
00000001
00000010
00000001
,  // measure 9
00000000
00000010
00001000
00000010
,  // measure 10
00000000
00001000
00010000
00001000
,  // measure 11
00000000
00010000
01000000
00010000
,  // measure 12
00000000
01000000
10000000
01000000
,  // measure 13
00000000
10000000
00100000
10000000
,  // measure 14
00000000
00100000
00010000
00100000
,  // measure 15
00000000
00010000
00001000
00010000
,  // measure 16
00011000
00001000
00000000
00010000
,  // measure 17
00000000
01000000
00000000
10000000
,  // measure 18
00000000
00100000
00000000
00010000
,  // measure 19
00000000
00001000
00000000
00000100
,  // measure 20
00000100
00000001
00000010
00000100
,  // measure 21
00000000
00000010
00001000
00010000
,  // measure 22
00000000
00001000
00010000
00100000
,  // measure 23
00000000
01000000
00100000
10000000
,  // measure 24
00000000
20020000
30030000
00000000
,  // measure 25
00000000
00022000
00033000
00000000
,  // measure 26
00000000
00002002
00003003
00000000
,  // measure 27
00000000
00011000
00010000
00001000
,  // measure 28
00000000
00010000
00000100
00001000
,  // measure 29
00000010
00000100
00001000
00010000
,  // measure 30
00000000
00001000
00100000
00010000
,  // measure 31
01000000
00100000
00010000
00001000
,  // measure 32
00000000
00010000
00000010
00001000
,  // measure 33
00000100
00000010
00001000
00010000
,  // measure 34
00000000
00001000
01000000
00010000
,  // measure 35
00100000
01000000
00010000
00001000
,  // measure 36
00000000
00011000
00000000
00000100
,  // measure 37
00000000
00000010
00000000
00000100
,  // measure 38
00000000
00011000
00000000
00100000
,  // measure 39
00000000
01000000
00000000
00100000
,  // measure 40
00100000
00000000
00010000
10000000
,  // measure 41
01000000
00010000
00001000
00010000
,  // measure 42
00001000
00000100
00000001
00000010
,  // measure 43
00001000
00010000
01000000
10000000
,  // measure 44
00100000
02200000
00000000
00000000
,  // measure 45
00000000
00000000
00000000
00000000
,  // measure 46
00000000
03300000
00000000
00000000
,  // measure 47
00000000
00000000
00000000
00000000
,  // measure 48
00000110
00000001
00000100
00001000
,  // measure 49
00010000
00100000
10000000
01000000
,  // measure 50
00000000
10000000
00100000
00010000
,  // measure 51
00001000
00000100
00000001
00000010
,  // measure 52
00000000
00000001
00000010
00001000
,  // measure 53
00010000
01000000
10000000
00100000
,  // measure 54
00000000
10000000
01000000
00010000
,  // measure 55
00001000
00000010
00000001
00000100
,  // measure 56
00000110
00000001
00000010
00001000
,  // measure 57
00010000
00100000
10000000
01000000
,  // measure 58
00000000
10000000
00100000
00010000
,  // measure 59
00100000
20000000
30000000
00010000
,  // measure 60
10010000
10000000
00100000
00010000
,  // measure 61
00001000
00000100
00000001
00000010
,  // measure 62
00000000
00000010
00000001
00000020
,  // measure 63
00000030
00001000
00010000
00001000
,  // measure 64
00011000
00000000
00000000
00000000
;

//---------------dance-single - ----------------
#NOTES:
     dance-single:
     :
     Medium:
     8:
     0.289913,0.331813,0.111098,0.222196,0.000000,274.000000,259.000000,15.000000,30.000000,0.000000,0.000000,0.289913,0.331813,0.111098,0.222196,0.000000,274.000000,259.000000,15.000000,30.000000,0.000000,0.000000:
0000
0000
0000
0000
,
0000
0000
0000
0000
,
0000
0000
0000
0000
,
0000
0000
0000
0000
,
0000
1000
0000
0010
,
0000
0001
0000
0100
,
0000
1000
0000
0010
,
0000
0001
0100
2000
,
3002
1003
0010
1000
,
1100
1000
0010
1000
,
1100
0001
0100
0001
,
0011
0001
0100
0002
,
1003
0001
0010
0001
,
0101
0001
0010
0001
,
0101
1000
0100
1000
,
1010
1000
0100
2000
,
3002
0103
0000
1000
,
0000
0010
0000
0001
,
0000
0100
0000
1000
,
0000
0010
0000
0002
,
2003
0000
3010
0000
0010
0000
0010
0100
,
0001
0000
0100
0000
0100
0000
0100
0010
,
1000
0010
0100
0010
,
1000
0000
0001
0000
1000
0000
1001
1001
,
0000
0000
0010
0100
0010
0000
0000
0000
,
0000
0000
0100
0010
0100
0000
0000
0000
,
0000
0000
0001
1000
0001
0000
0000
0000
,
0000
0000
2000
0000
3002
0000
1003
0100
,
0010
0001
0010
0000
0010
0001
0100
0000
,
0010
0000
0010
0000
0010
1000
0100
0000
,
0010
0000
0010
0001
0100
0000
0010
1000
,
0100
0000
0010
0100
0010
0100
0010
0000
,
1001
0000
0100
0000
0100
1000
0010
0000
,
0100
0000
0100
0000
0100
0001
0010
0000
,
0010
0000
0100
1000
0010
0000
0100
0001
,
0010
0000
0100
0010
0100
0010
0000
0000
,
0100
1001
0000
1000
0200
0000
2300
0000
,
3002
0023
0032
0203
,
0310
0100
0010
0000
1000
0100
0010
0000
,
0010
0001
0100
0000
0001
1000
0100
1000
,
0002
0203
0320
2030
,
3100
0100
0000
0000
1100
0000
1000
0100
,
0010
0001
0200
0000
0000
0310
0200
0000
,
0000
0310
0100
0001
0100
0000
0010
1000
,
0010
2002
0000
0000
,
0000
0000
0000
0000
,
0000
3003
0000
0000
,
0000
0000
0000
0000
,
1000
0001
1001
0000
1000
0010
0100
0000
,
0010
0000
0100
0000
0001
0010
0100
0000
,
0010
0000
0100
1000
0010
0000
0100
0001
,
0010
0000
0100
1000
0001
0010
0100
0000
,
1001
0000
0001
0100
0010
0000
0100
0000
,
0010
0000
1000
0100
0010
0000
0100
0000
,
0010
0001
0100
0000
0010
1000
0100
0000
,
0010
0001
1000
0100
0010
0200
0000
0000
,
0010
0310
0000
0010
0001
0000
0100
0001
,
0000
0010
0001
0000
0100
0001
2000
0000
,
3002
0000
1003
0010
1000
0000
0100
1000
,
0000
0001
2000
0000
3100
0000
0002
0000
,
0013
0000
1000
0100
0010
0000
0001
0010
,
0000
1000
0010
0000
0001
0020
0000
0230
,
0000
0000
1300
0010
0100
0000
0001
0100
,
0010
0000
1000
0100
0010
0001
1000
0000
,
0110
0000
0000
0000
;

//---------------dance-double - ----------------
#NOTES:
     dance-double:
     :
     Medium:
     8:
     0.289913,0.331813,0.118504,0.222196,0.000000,274.000000,258.000000,16.000000,30.000000,0.000000,0.000000,0.289913,0.331813,0.118504,0.222196,0.000000,274.000000,258.000000,16.000000,30.000000,0.000000,0.000000:
// measure 0
00000000
00000000
00000000
00000000
,  // measure 1
00000000
00000000
00000000
00000000
,  // measure 2
00000000
00000000
00000000
00000000
,  // measure 3
00000000
00000000
00000000
00000000
,  // measure 4
00000000
10000000
00000000
01000000
,  // measure 5
00000000
00100000
00000000
00010000
,  // measure 6
00000000
00001000
00000000
00000100
,  // measure 7
00000000
00000010
00000010
00000002
,  // measure 8
00002003
00003100
00010000
00001000
,  // measure 9
00011000
01000000
00001000
00010000
,  // measure 10
00011000
00000010
00010000
00001000
,  // measure 11
00011000
00100000
00001000
00020000
,  // measure 12
00031000
00010000
00100000
10000000
,  // measure 13
11000000
01000000
00010000
00001000
,  // measure 14
00011000
00010000
00001000
00000010
,  // measure 15
00000011
00000001
00000100
00002000
,  // measure 16
00023000
00031000
00000000
00100000
,  // measure 17
00000000
01000000
00000000
00010000
,  // measure 18
00000000
00001000
00000000
00000010
,  // measure 19
00000000
00000100
00000000
00020000
,  // measure 20
00032000
00000000
00103000
00000000
00100000
00000000
00100000
01000000
,  // measure 21
10000000
00000000
00100000
00000000
00100000
00000000
00100000
00010000
,  // measure 22
00001000
00000010
00000001
00000100
,  // measure 23
00001000
00000000
00010000
00000000
00001000
00000000
00011000
00011000
,  // measure 24
00000000
00000000
00001000
01000000
00001000
00000000
00000000
00000000
,  // measure 25
00000000
00000000
00010000
00000010
00010000
00000000
00000000
00000000
,  // measure 26
00000000
00000000
00001000
00010000
00001000
00000000
00000000
00000000
,  // measure 27
00000000
00000000
00020000
00000000
00032000
00000000
00103000
00010000
,  // measure 28
00100000
01000000
10000000
00000000
00100000
01000000
00010000
00000000
,  // measure 29
00100000
00000000
00100000
00000000
00001000
00010000
00000100
00000000
,  // measure 30
00001000
00000000
00000010
00000100
00000001
00000000
00000100
00000010
,  // measure 31
00001000
00000000
00000100
00010000
00001000
00000100
00000010
00000000
,  // measure 32
00000110
00000000
00000001
00000000
00000100
00000010
00001000
00000000
,  // measure 33
00000100
00000000
00000100
00000000
00010000
00001000
00100000
00000000
,  // measure 34
00010000
00000000
01000000
00100000
10000000
00000000
00100000
01000000
,  // measure 35
00010000
00000000
00100000
01000000
10000000
00100000
00000000
00000000
,  // measure 36
00010000
00011000
00000000
00001000
00200000
00000000
00320000
00000000
,  // measure 37
02030000
03002000
00023000
00030200
,  // measure 38
00000310
00000001
00000010
00000000
00000001
00000100
00001000
00000000
,  // measure 39
00000100
00001000
00010000
00000000
00001000
00010000
00100000
00000000
,  // measure 40
20100000
32000000
03020000
00032000
,  // measure 41
00013000
00010000
00000000
00000000
00010100
00000000
00000100
00001000
,  // measure 42
00000100
00000010
00000002
00000000
00000000
00000103
00000020
00000000
,  // measure 43
00000000
00010030
00001000
00010000
01000000
00000000
10000000
00100000
,  // measure 44
00010000
00022000
00000000
00000000
,  // measure 45
00000000
00000000
00000000
00000000
,  // measure 46
00000000
00033000
00000000
00000000
,  // measure 47
00000000
00000000
00000000
00000000
,  // measure 48
00001000
00010000
00011000
00000000
00000100
00001000
00000010
00000000
,  // measure 49
00000100
00000000
00000001
00000000
00000010
00001000
00010000
00000000
,  // measure 50
00001000
00000000
00100000
00010000
01000000
00000000
00100000
10000000
,  // measure 51
01000000
00000000
00010000
00001000
00010000
00001000
00010000
00000000
,  // measure 52
00011000
00000000
00100000
00010000
01000000
00000000
00100000
00000000
,  // measure 53
10000000
00000000
01000000
00010000
00001000
00000000
00010000
00000000
,  // measure 54
00000100
00001000
00000010
00000000
00000100
00000001
00000010
00000000
,  // measure 55
00001000
00010000
00001000
00010000
00001000
00020000
00000000
00000000
,  // measure 56
01030000
01000000
00000000
10000000
00100000
00000000
01000000
00100000
,  // measure 57
00000000
00010000
00100000
00000000
10000000
01000000
00020000
00000000
,  // measure 58
00032000
00000000
00003010
00000001
00000100
00000000
00001000
00000100
,  // measure 59
00000000
00000001
00000020
00000000
00001030
00000000
00020000
00000000
,  // measure 60
00130000
00000000
10000000
01000000
00100000
00000000
01000000
00010000
,  // measure 61
00000000
00001000
00010000
00000000
00001000
00000200
00000000
00000302
,  // measure 62
00000000
00000000
00001003
00000100
00000010
00000000
00000010
00000001
,  // measure 63
00000100
00000000
00000100
00001000
00010000
00100000
10000000
00000000
,  // measure 64
11000000
00000000
00000000
00000000
;

//---------------dance-single - ----------------
#NOTES:
     dance-single:
     :
     Hard:
     13:
     0.460263,0.568821,0.244415,0.296261,0.344404,435.000000,402.000000,33.000000,40.000000,0.000000,0.000000,0.460263,0.568821,0.244415,0.296261,0.344404,435.000000,402.000000,33.000000,40.000000,0.000000,0.000000:
0000
0000
0000
0000
,
0000
0000
0000
0000
,
0000
0000
0000
0000
,
0000
0000
0000
0000
,
0000
1000
0000
0010
,
0000
0001
0000
0100
,
0000
1000
0000
0010
,
0000
0001
0100
2000
,
3002
0000
0000
0000
1003
0000
1000
0100
0000
1000
0000
0010
0000
1000
0000
0000
,
0001
0000
0010
0000
0001
0100
0001
0100
0000
0001
0000
1000
0000
0000
0100
1000
,
0100
0000
1000
0000
0100
0000
0010
0001
0000
0100
0000
0001
0000
0010
0000
0000
,
0001
0000
1000
0000
0100
1000
0100
1000
0000
0200
0000
0000
0000
0000
0310
0001
,
0020
0000
0230
0000
1300
0000
1000
0010
0000
0100
0000
0010
0000
1000
0000
0000
,
0100
0000
0010
0000
0001
0100
0001
0100
0000
0001
0000
0010
0000
0100
0000
0000
,
1000
0000
0010
0000
0100
0000
0001
0010
0000
0001
0000
0100
0000
0010
0000
0000
,
1010
1000
0002
0000
0023
0000
0230
0000
,
2300
0000
0000
0000
3001
0000
0001
0000
0100
0000
0100
0000
0010
0000
1000
0100
,
0000
0000
1000
0010
1000
0000
0100
0000
0010
0000
0001
0000
0101
0000
0000
0000
,
1010
0000
0000
0000
0010
0000
0010
0000
0100
0000
0100
0000
0001
1000
0000
0100
,
0000
0000
1100
0000
1000
0000
0010
0000
0100
0000
0001
1000
0002
0000
0000
0000
,
2003
0000
0000
0000
3010
0000
0000
0000
0010
0000
0100
0001
0100
0001
0010
0000
,
0100
0000
0000
0000
1000
0000
0000
0000
1000
0000
0010
0100
0010
0100
0001
0000
,
1000
0200
0000
1300
0100
0010
0011
0000
,
0101
0000
0100
0000
0010
0000
0001
0010
0000
0010
1000
0000
0100
0000
0010
0000
,
1001
0000
1000
1000
2000
0000
0000
0000
,
3000
0000
0100
0100
0200
0000
0000
0000
,
0300
0000
0001
0001
0002
0000
0000
0000
,
0003
0000
0000
0000
0010
0000
0000
0000
0010
0000
0000
0000
1000
0001
0000
0100
,
0000
0010
1000
0000
0001
0100
0001
0100
0001
0000
0010
0000
0100
0000
0000
0000
,
1100
0000
1000
0010
0000
0100
0001
0100
0001
0000
0010
0000
0100
0000
0000
0000
,
1000
0000
0010
0001
0000
0000
0010
0000
1000
0000
0100
0001
0000
0000
0100
0000
,
1000
0010
0001
1000
0100
0220
0330
0000
,
0010
1000
0010
1000
0100
0000
0010
0001
0100
0000
0010
0000
1010
0000
0000
0000
,
0101
0000
0001
0010
0000
0001
1000
0000
0100
0000
0010
0000
0001
0000
0000
0000
,
1000
0010
0100
0001
0010
0100
0001
0100
,
1000
0100
0010
0001
0100
0220
0330
0000
,
1010
0000
0101
0000
0000
0000
0001
0010
0001
0000
0100
0000
0010
1000
0010
1000
,
0001
0000
0100
0000
0000
1000
0100
1000
0100
0000
0001
0010
0100
0000
1000
0010
,
0100
0000
0001
0010
0100
0000
0000
0000
1000
0010
0000
0110
0000
0000
0001
0000
,
0010
0000
0100
0000
1000
0000
0010
0100
0000
0100
0010
0100
0000
0010
1000
0000
,
0200
0310
0011
1100
,
0001
2002
0000
3003
0000
1000
0100
0001
,
1000
0000
0010
0002
0000
0000
0000
0000
0000
0000
0103
0010
0200
0000
0000
0000
,
0000
0000
0310
0000
0010
1000
0010
1000
0001
0000
0100
0001
0100
0001
1000
0000
,
0001
0100
0010
2000
0002
0000
0000
0000
0000
0000
0000
0000
0000
0000
0000
0000
,
0000
0000
0000
0000
,
0000
3003
0000
0000
,
0000
0000
0000
0000
,
0001
1000
0001
1000
0001
0010
0001
0010
0100
0000
1000
0000
0010
0000
0000
0000
,
0110
0000
0100
0001
0000
0010
0100
0010
0100
0000
1000
0000
0010
0000
0000
0000
,
0001
0000
0010
1000
0000
0000
0100
0000
0001
0000
0100
1000
0000
0000
0010
0000
,
0001
0010
1000
0100
0010
0220
0330
0000
,
0100
0010
0100
0010
0001
0000
0100
0010
1000
0000
0001
0000
0011
0000
0000
0000
,
1100
0000
1000
0010
0000
0100
0010
0000
0001
0000
0010
0000
1000
0000
0000
0000
,
0100
0010
0001
0100
1000
0001
0010
1000
,
0010
0100
0010
1000
0100
0220
0330
0000
,
1010
0101
0000
0002
0013
0000
2000
3100
,
0000
0002
0103
0000
2000
3010
0010
0100
,
0001
1001
0000
2000
3010
0000
0002
0103
,
0000
1000
0200
0000
0320
0000
0031
0001
,
0100
0010
1000
0000
0100
0000
0010
0000
0011
0000
0001
0000
0100
0000
1100
0000
,
1000
0010
0011
0001
0100
1100
0000
1001
,
0001
0200
0000
0310
1000
0100
0020
0000
,
0031
0100
1000
0001
0010
1000
1100
0000
,
0011
0000
0000
0000
;

//---------------dance-double - ----------------
#NOTES:
     dance-double:
     :
     Hard:
     13:
     0.456031,0.521420,0.259229,0.303668,0.322184,431.000000,396.000000,35.000000,41.000000,0.000000,0.000000,0.456031,0.521420,0.259229,0.303668,0.322184,431.000000,396.000000,35.000000,41.000000,0.000000,0.000000:
// measure 0
00000000
00000000
00000000
00000000
,  // measure 1
00000000
00000000
00000000
00000000
,  // measure 2
00000000
00000000
00000000
00000000
,  // measure 3
00000000
00000000
00000000
00000000
,  // measure 4
00000000
10000000
00000000
01000000
,  // measure 5
00000000
00010000
00000000
00001000
,  // measure 6
00000000
00000010
00000000
00000001
,  // measure 7
00000000
00000100
00001000
00020000
,  // measure 8
00032000
00000000
00000000
00000000
00103000
00000000
00100000
00010000
00000000
01000000
00000000
00100000
00000000
10000000
00000000
00000000
,  // measure 9
00010000
00000000
01000000
00000000
00001000
00010000
00001000
00010000
00000000
00000100
00000000
00000010
00000000
00000000
00000001
00000100
,  // measure 10
00000001
00000000
00001000
00000000
00000010
00000000
00010000
00001000
00000000
00100000
00000000
00010000
00000000
01000000
00000000
00000000
,  // measure 11
10000000
00000000
01000000
00000000
00100000
01000000
00100000
01000000
00000000
00020000
00000000
00000000
00000000
00000000
00130000
00001000
,  // measure 12
00020000
00000000
00032000
00000000
00003010
00000000
00000010
00000001
00000000
00000100
00000000
00000001
00000000
00001000
00000000
00000000
,  // measure 13
00000010
00000000
00010000
00000000
00001000
00100000
00001000
00100000
00000000
01000000
00000000
10000000
00000000
00100000
00000000
00000000
,  // measure 14
00010000
00000000
00100000
00000000
01000000
00000000
00010000
00100000
00000000
01000000
00000000
00010000
00000000
00001000
00000000
00000000
,  // measure 15
00011000
00010000
00000200
00000000
00000320
00000000
00000032
00000000
,  // measure 16
00000203
00000000
00000000
00000000
00001300
00000000
00010000
00000000
01000000
00000000
00010000
00000000
00001000
00000000
00010000
01000000
,  // measure 17
00000000
00000000
10000000
00100000
10000000
00000000
01000000
00000000
00010000
00000000
00001000
00000000
00101000
00000000
00000000
00000000
,  // measure 18
00010010
00000000
00000000
00000000
00010000
00000000
00001000
00000000
00000100
00000000
00001000
00000000
00010000
00001000
00000000
00000100
,  // measure 19
00000000
00000000
00000101
00000000
00000001
00000000
00000010
00000000
00000100
00000000
00010000
00001000
00020000
00000000
00000000
00000000
,  // measure 20
00230000
00000000
00000000
00000000
10300000
00000000
00000000
00000000
10000000
00000000
01000000
00100000
01000000
00100000
00010000
00000000
,  // measure 21
01000000
00000000
00000000
00000000
00001000
00000000
00000000
00000000
00001000
00000000
00010000
00000100
00010000
00000100
00000010
00000000
,  // measure 22
00000001
00000200
00000000
00000310
00010000
00001000
00011000
00000000
,  // measure 23
01010000
00000000
01000000
00000000
10000000
00000000
00100000
00010000
00000000
00100000
01000000
00000000
00100000
00000000
00010000
00000000
,  // measure 24
00011000
00000000
00100000
00100000
00200000
00000000
00000000
00000000
,  // measure 25
00300000
00000000
00001000
00001000
00002000
00000000
00000000
00000000
,  // measure 26
00003000
00000000
00010000
00010000
00020000
00000000
00000000
00000000
,  // measure 27
00030000
00000000
00000000
00000000
00000100
00000000
00000000
00000000
00000100
00000000
00000000
00000000
00000010
00000001
00000000
00000100
,  // measure 28
00000000
00000010
00010000
00000000
00001000
00010000
00001000
00010000
00001000
00000000
00100000
00000000
01000000
00000000
00000000
00000000
,  // measure 29
11000000
00000000
10000000
00100000
00000000
00010000
00100000
00010000
00100000
00000000
01000000
00000000
00010000
00000000
00000000
00000000
,  // measure 30
00100000
00000000
01000000
00010000
00000000
00000000
00001000
00000000
00000010
00000000
00000100
00001000
00000000
00000000
00000010
00000000
,  // measure 31
00000001
00000010
00001000
00000100
00010000
00022000
00033000
00000000
,  // measure 32
00001000
00100000
00001000
00100000
00010000
00000000
01000000
00100000
10000000
00000000
01000000
00000000
01010000
00000000
00000000
00000000
,  // measure 33
00011000
00000000
00001000
00000010
00000000
00001000
00010000
00000000
00000100
00000000
00000010
00000000
00000001
00000000
00000000
00000000
,  // measure 34
00000101
00000100
00001000
00010000
00001000
00000100
00001000
00010000
,  // measure 35
01000000
00010000
00001000
00010000
01000000
22000000
33000000
00000000
,  // measure 36
10100000
00000000
10100000
00000000
00000000
00000000
00100000
01000000
00100000
00000000
01000000
00000000
00001000
00010000
00001000
00010000
,  // measure 37
00001000
00000000
00000100
00000000
00000000
00000001
00000010
00000001
00000010
00000000
00001000
00000000
00010000
00000000
01000000
00000000
,  // measure 38
10000000
00000000
00100000
00000000
02000000
00000000
00000000
00000000
03010000
00100000
00000000
00101000
00000000
00000000
00001000
00000000
,  // measure 39
00010000
00000000
00000100
00000000
00000010
00000000
00000001
00000100
00000000
00000010
00001000
00000010
00000000
00010000
00001000
00000000
,  // measure 40
00200000
00310000
01010000
10100000
,  // measure 41
00010000
20020000
00000000
30030000
00000000
10000000
01000000
00100000
,  // measure 42
00010000
00000000
01000000
00002000
00000000
00000000
00000000
00000000
00000000
00000000
00013000
00000100
00002000
00000000
00000000
00000000
,  // measure 43
00000000
00000000
00003001
00000000
00000001
00000010
00000100
00000000
00010000
00000000
00001000
00000000
00100000
01000000
10000000
00000000
,  // measure 44
00100000
00000000
00010000
00002000
00020000
00000000
00000000
00000000
00000000
00000000
00000000
00000000
00000000
00000000
00000000
00000000
,  // measure 45
00000000
00000000
00000000
00000000
,  // measure 46
00000000
00033000
00000000
00000000
,  // measure 47
00000000
00000000
00000000
00000000
,  // measure 48
00010000
00000100
00010000
00000100
00001000
00000100
00001000
00000100
00000010
00000000
00000001
00000000
00000100
00000000
00000000
00000000
,  // measure 49
00001100
00000000
00001000
00010000
00000000
01000000
00010000
01000000
00010000
00000000
00001000
00000000
00100000
00000000
00000000
00000000
,  // measure 50
01000000
00000000
10000000
00100000
00000000
00000000
00010000
00000000
00001000
00000000
00000100
00000001
00000000
00000000
00000010
00000000
,  // measure 51
00001000
00010000
00100000
00010000
00001000
00002200
00003300
00000000
,  // measure 52
00000100
00000001
00000100
00000001
00000010
00000000
00000100
00010000
00001000
00000000
00100000
00000000
01100000
00000000
00000000
00000000
,  // measure 53
11000000
00000000
10000000
00100000
00000000
00010000
00100000
00000000
01000000
00000000
00001000
00000000
00010000
00000000
00000000
00000000
,  // measure 54
00000100
00000010
00000001
00001000
00000010
00010000
00100000
00001000
,  // measure 55
00000100
00010000
01000000
10000000
00100000
02020000
03030000
00000000
,  // measure 56
00011000
00011000
00000000
00020000
00030010
00000000
00002000
00103000
,  // measure 57
00000000
00020000
00030100
00000000
00002000
01003000
01000000
00100000
,  // measure 58
00010000
00011000
00000000
00002000
00103000
00000000
00020000
00030100
,  // measure 59
00000000
00001000
02001000
00000000
03200000
00000000
10300000
10000000
,  // measure 60
01000000
00100000
01000000
00000000
00010000
00000000
00001000
00000000
00011000
00000000
00010000
00000000
00000100
00000000
00000110
00000000
,  // measure 61
00000010
00001000
00011000
00010000
01000000
01100000
00000000
10010000
,  // measure 62
00010000
02000000
00000000
03001000
00010000
00000100
00000020
00000000
,  // measure 63
00000031
00000100
00001000
00010000
00100000
10000000
11000000
00000000
,  // measure 64
00110000
00000000
00000000
00000000
;
