#TITLE:The Reverie;
#SUBTITLE:;
#ARTIST:uma;
#TITLETRANSLIT:;
#SUBTITLETRANSLIT:;
#ARTISTTRANSLIT:;
#GENRE:VARIETY;
#CREDIT:;
#BANNER:The Reverie.png;
#BACKGROUND:The Reverie-bg.png;
#LYRICSPATH:;
#CDTITLE:;
#MUSIC:The Reverie.ogg;
#OFFSET:-0.137000;
#SAMPLESTART:25.739985;
#SAMPLELENGTH:9.899998;
#LASTBEATHINT:260.500031;
#SELECTABLE:YES;
#DISPLAYBPM:150.000000;
#BPMS:0.000000=150,28.000000=300,31.000000=150,188.000000=300,191.000000=150,257.000000=75
;
#STOPS:28.000000=0.2,29.000000=0.2,30.000000=0.1,30.500000=0.1,188.000000=0.2,189.000000=0.2,190.000000=0.1,190.500000=0.1
;
#BGCHANGES:0.000=The Reverie.avi=1.000=1=0=0=StretchNoLoop==CrossFade==,
99999=-nosongbg-=1.000=0=0=0 // don't automatically add -songbackground-
;
#KEYSOUNDS:;
#ATTACKS:;

//---------------dance-single - ----------------
#NOTES:
     dance-single:
     :
     Challenge:
     18:
     0.906641,1.079784,0.533638,1.257862,1.210215,666.000000,610.000000,56.000000,132.000000,0.000000,0.000000,0.906641,1.079784,0.533638,1.257862,1.210215,666.000000,610.000000,56.000000,132.000000,0.000000,0.000000:
// measure 0
0000
0000
0000
0000
,  // measure 1
0000
0000
0000
0000
,  // measure 2
0000
0000
0000
0000
,  // measure 3
0000
0000
0000
0000
,  // measure 4
2100
3001
0102
1003
,  // measure 5
2010
3001
0012
1003
,  // measure 6
1000
0010
1000
0010
0100
0001
0100
0001
1000
0100
1000
0100
0010
0001
0010
0001
,  // measure 7
0200
0000
0300
0000
0020
0000
0030
0000
2000
3000
0002
0003
2002
0000
3003
0000
,  // measure 8
1001
0000
0110
0000
0000
1010
0000
0000
1100
0000
0000
0110
0000
0000
0011
0000
,  // measure 9
1000
0000
1100
0000
0000
0101
0000
0000
1010
0000
0000
0011
0000
0000
1001
0000
,  // measure 10
0001
0000
0110
0000
0000
0101
0000
0000
0011
0000
0000
0110
0000
0000
1100
0000
,  // measure 11
0001
0000
0011
0000
0000
1010
0000
0000
1000
0100
0010
0001
0200
0000
0300
0000
,  // measure 12
0110
0000
1001
0000
0000
1100
0000
0000
1010
0000
0000
0110
0000
0000
0101
0000
,  // measure 13
1000
0000
1010
0000
0000
0011
0000
0000
1100
0000
0101
0000
2002
0000
3003
0000
,  // measure 14
1000
0010
1000
0010
0100
0001
0100
0001
1000
0100
0010
0001
1000
0010
0100
0002
,  // measure 15
2000
0000
0000
0000
0000
0000
0000
0000
0000
3003
0000
0000
1001
0000
0000
0000
0000
0000
1000
0010
0100
0001
0000
0000
,  // measure 16
0021
0000
0000
1030
0010
0000
0100
0000
1200
0000
0000
0301
0100
0000
0010
0000
,  // measure 17
0012
0000
0000
0103
0001
0000
1000
0000
2100
0000
0000
3010
1000
0000
0001
0000
,  // measure 18
0201
0000
0000
1300
0100
0000
0010
0000
1020
0000
0000
0031
0010
0000
0100
0000
,  // measure 19
0102
0000
0000
0013
0001
0000
1000
0000
2010
0000
0000
3100
1000
0000
1001
0000
,  // measure 20
0001
0000
0010
0000
0100
0000
1000
0000
0000
0000
0000
0000
1010
0000
0000
0000
0000
0000
0011
0000
0000
0000
0000
0000
0120
0000
0000
0000
0000
0000
0000
0000
0000
1030
0000
0000
0100
0000
0000
0000
0000
0000
0001
0000
0000
0000
0000
0000
,  // measure 21
0210
0000
0000
0301
0010
0000
1000
0000
0120
0000
0000
1030
0001
0000
1001
0000
,  // measure 22
1000
0010
0100
0001
0010
0100
1000
0001
0100
0010
1000
0100
0010
0001
1000
0020
,  // measure 23
0200
0000
0000
0000
0000
0000
0330
0000
0100
0001
0010
0100
1000
0010
0100
0001
,  // measure 24
2000
0000
0000
0000
0000
0000
3100
0010
0002
0000
0000
0000
2003
0000
3020
0000
,  // measure 25
0230
0000
0000
0000
0302
0000
0023
0000
0230
0000
2300
0000
3010
0100
0001
1000
,  // measure 26
0200
0320
0032
2003
3020
0000
0032
2003
,  // measure 27
3200
0302
0023
0230
2300
3020
0000
0230
,  // measure 28
0302
0000
0023
0000
2030
0000
3002
0203
,  // measure 29
2300
0000
0000
0000
3002
0000
0000
0000
0203
0000
0000
0000
0320
0000
1030
0001
,  // measure 30
0200
0000
0000
0000
0000
0000
0320
0000
2030
0000
0000
0000
0000
0000
3001
0010
,  // measure 31
0200
0000
0000
0000
0000
0000
0000
0000
0000
0000
0000
0000
0301
0000
0000
0000
0100
0000
0000
0000
1000
0000
0000
0000
0002
0000
0000
0000
0000
0000
0000
0000
0000
0000
0000
0000
0013
0000
0000
0100
0000
0000
1000
0000
0000
0001
0000
0000
,  // measure 32
0200
0000
0000
0000
0000
0000
0310
1000
0002
0000
0000
0203
0000
0000
2300
0000
,  // measure 33
0000
0000
0200
0000
0000
0000
0000
0000
3000
0000
0000
0000
0000
0000
0301
0010
,  // measure 34
2000
0000
0000
0000
0000
0000
3010
0001
0200
0000
0000
0320
0000
0000
2000
0000
,  // measure 35
0000
0000
0000
0000
0030
0000
3100
0010
0002
0000
2003
0000
3200
0000
0320
0000
,  // measure 36
0032
0000
0000
0000
0000
0000
1003
0010
0200
0000
0000
2300
0000
0000
3002
0000
,  // measure 37
0000
0000
0020
0000
0000
0000
0000
0000
0003
0000
0000
0000
0000
0000
1030
0100
,  // measure 38
0020
0000
0000
0000
0000
0000
0031
0100
2000
0000
0000
3002
0000
0000
0013
0000
,  // measure 39
0220
0000
0000
0000
0330
0000
1000
0001
0100
0000
1000
0000
0010
0000
0001
0000
,  // measure 40
1000
0020
0130
0010
1000
0020
0130
0010
1000
0020
0130
0010
1000
0000
1001
0000
,  // measure 41
0001
0020
0130
0010
0001
0020
0130
0010
0001
0020
0130
0010
0001
0000
1001
0000
,  // measure 42
1000
0200
0301
0100
1000
0200
0301
0100
1000
0200
0301
0100
1000
0000
1001
0000
,  // measure 43
0001
0020
1030
0010
0001
0020
1030
0010
0001
0020
1030
0010
0002
0000
0000
0000
,  // measure 44
1003
0200
0301
0200
0310
0200
1300
0200
0310
0200
0301
0100
2000
0000
0000
0000
,  // measure 45
3001
0020
1030
0020
0130
0020
0031
0020
0130
0020
1030
0010
0002
0000
0000
0000
,  // measure 46
2003
3010
0200
0301
2000
3100
0020
0031
0200
0310
2000
3001
0020
0130
2000
3001
,  // measure 47
0200
0000
0300
0000
0020
0000
0030
0000
2000
3000
0002
0003
2002
0000
3003
0000
,  // measure 48
0110
0000
0010
1000
0000
0001
0010
0100
1000
0010
0100
0001
0000
1000
0100
0010
,  // measure 49
0001
0100
0010
1000
0000
0001
0010
0100
1000
0010
0100
0001
0100
0010
1000
0010
,  // measure 50
0100
0001
0010
0100
0000
1000
0010
0100
0001
1000
0100
0010
0000
0001
0100
0010
,  // measure 51
1000
0001
0010
0100
1000
0010
1000
0001
0100
0001
0010
0100
1000
0010
0100
0001
,  // measure 52
1000
0100
1000
0100
0010
0100
0010
0100
0010
0001
0010
0001
0100
0001
0100
0001
,  // measure 53
1000
0010
0100
1000
0100
0010
1000
0100
0010
0100
1000
0010
0100
1000
0100
0001
,  // measure 54
0010
0100
1000
0010
0000
0001
0010
1000
0100
0010
0001
0100
0010
1000
0001
0010
,  // measure 55
0100
0000
0010
0000
0100
0000
0000
0000
1000
0000
0000
0000
0010
0000
0000
0000
0001
0000
0000
0000
1000
0000
0000
0000
0100
0000
0000
0000
0001
0000
0000
0000
0010
0000
0000
0000
0100
0000
1000
0000
0100
0000
0010
0000
0000
0100
0000
0000
,  // measure 56
1000
0010
0100
0001
0000
0010
0100
0010
0001
0100
0010
1000
0000
0100
0010
0001
,  // measure 57
1000
0000
0000
0010
0000
0000
0100
0000
0000
0001
0000
0000
0000
0000
0000
1000
0000
0000
0100
0000
0000
0010
0000
0000
0001
0000
0000
1000
0000
0000
0010
0000
0000
0100
0000
0000
0001
0000
0010
0000
0001
0000
1000
0000
0000
0010
0000
0000
,  // measure 58
0100
0000
0000
0001
0000
0000
0010
0000
0000
1000
0000
0000
0000
0000
0000
0001
0000
0000
0100
0000
0000
1000
0000
0000
0010
0000
0000
0100
0000
0000
0001
0000
0000
1000
0000
0000
0000
0000
0000
0100
0000
0000
0010
0000
0001
0000
0010
0000
,  // measure 59
0100
0000
0010
0000
0001
0000
1000
0000
0100
0000
0010
0000
0001
0000
1000
0000
0010
0000
0001
0000
1000
0000
0100
0000
0001
0010
0001
0000
0010
0000
0100
0000
,  // measure 60
1000
0010
0100
0001
0100
0010
1000
0010
0001
0010
0100
0010
1000
0100
0010
0100
,  // measure 61
0001
0100
1000
0010
0001
0010
1000
0100
0001
0100
0010
0001
0100
1000
0100
0010
,  // measure 62
1000
0000
0100
0000
1000
0000
0001
0000
0000
0200
0000
0000
0000
0000
0000
1300
0000
0000
0100
0000
0000
0010
0000
0000
1000
0000
0100
0000
1000
0000
0001
0000
0000
0200
0000
0000
0000
0000
0000
1300
0000
0000
0100
0000
0000
0001
0000
0000
,  // measure 63
0010
1000
0010
0200
0000
1300
0100
0010
1000
0010
0100
0001
0100
0010
0001
1000
,  // measure 64
0020
0200
0000
0000
0000
0000
0330
0000
;

//---------------dance-double - ----------------
#NOTES:
     dance-double:
     :
     Challenge:
     18:
     0.887582,1.018082,0.505050,0.981513,1.157804,652.000000,599.000000,53.000000,103.000000,0.000000,0.000000,0.887582,1.018082,0.505050,0.981513,1.157804,652.000000,599.000000,53.000000,103.000000,0.000000,0.000000:
00000000
00000000
00000000
00000000
,
00000000
00000000
00000000
00000000
,
00000000
00000000
00000000
00000000
,
00000000
00000000
00000000
00000000
,
00012000
01003000
00021000
00030100
,
00012000
00103000
00021000
00030010
,
00000010
00001000
00000010
00001000
00000100
00010000
00000100
00010000
00001000
01000000
00001000
01000000
00010000
00100000
00010000
00100000
,
00002000
00000000
00003000
00000000
00020000
00000000
00030000
00000000
00002000
00003000
00020000
00030000
00022000
00000000
00033000
00000000
,
00011000
00000000
00011000
00000000
00000000
01001000
00000000
00000000
01010000
00000000
00000000
00110000
00000000
00000000
00101000
00000000
,
00001000
00000000
00011000
00000000
00000000
00010010
00000000
00000000
00001010
00000000
00000000
00001100
00000000
00000000
00010100
00000000
,
00010000
00000000
00010010
00000000
00000000
00101000
00000000
00000000
00010100
00000000
00000000
01001000
00000000
00000000
00101000
00000000
,
00001000
00000000
01001000
00000000
00000000
00010100
00000000
00000000
00010000
00001000
00010000
00001000
00000020
00000000
00000030
00000000
,
00000011
00000000
00000101
00000000
00000000
00001100
00000000
00000000
00011000
00000000
00000000
00110000
00000000
00000000
10100000
00000000
,
10000000
00000000
01010000
00000000
00000000
00011000
00000000
00000000
00001010
00000000
00000011
00000000
00002002
00000000
00003003
00000000
,
00001000
00000100
00001000
00000100
00010000
00001000
00010000
00001000
01000000
00010000
01000000
00010000
00100000
00001000
00100000
00002000
,
00020000
00000000
00000000
00000000
00000000
00000000
00000000
00000000
00000000
00033000
00000000
00000000
00011000
00000000
00000000
00000000
00000000
00000000
00001000
00010000
00001000
00010000
00000000
00000000
,
00021000
00000000
00000000
00130000
10000000
00000000
00100000
00000000
00012000
00000000
00000000
00003010
00000001
00000000
00000010
00000000
,
00021000
00000000
00000000
01030000
10000000
00000000
01000000
00000000
00012000
00000000
00000000
00003100
00000001
00000000
00000100
00000000
,
00021000
00000000
00000000
00130000
10000000
00000000
01000000
00000000
00012000
00000000
00000000
00003010
00000001
00000000
00000100
00000000
,
00021000
00000000
00000000
01030000
10000000
00000000
00100000
00000000
00012000
00000000
00000000
00003100
00000001
00000000
00001001
00000000
,
00001000
00000010
00010000
00000000
00011000
00000000
00110000
00000000
20100000
00000000
00000000
31000000
00010000
00000000
00001000
00000000
,
00000012
00000000
00000000
00000103
00001000
00000000
00010000
00000000
21000000
00000000
00000000
30100000
00010000
00000000
00011000
00000000
,
00001000
00010000
00001000
00010000
00000100
00000010
00000100
00000010
00000001
00000100
00000001
00000100
00001000
00010000
00001000
00020000
,
00002000
00000000
00000000
00000000
00000000
00000000
00033000
00000000
00001000
00010000
00001000
00010000
01000000
00100000
01000000
00100000
,
00020000
00000000
00000000
00000000
00000000
00000000
10030000
01000000
00200000
00000000
00000000
00000000
00302000
00000000
00023000
00000000
,
00030200
00000000
00000000
00000000
00000320
00000000
00000032
00000000
00000203
00000000
00002300
00000000
00013000
00000100
00010000
00001000
,
02000000
03020000
00230000
02300000
23000000
00000000
30200000
00320000
,
00230000
02300000
03020000
00230000
02300000
03020000
00000000
00032000
,
00003020
00000000
00000032
00000000
00000203
00000000
00002300
00023000
,
00030200
00000000
00000000
00000000
00000320
00000000
00000000
00000000
00002030
00000000
00000000
00000000
00023000
00000000
00130000
10000000
,
02000000
00000000
00000000
00000000
00000000
00000000
03200000
00000000
20300000
00000000
00000000
00000000
00000000
00000000
30100000
00010000
,
02000000
00000000
00000000
00000000
00000000
00000000
00000000
00000000
00000000
00000000
00000000
00000000
03100000
00000000
00000000
00000000
00010000
00000000
00000000
00000000
00001000
00000000
00000000
00000000
00000020
00000000
00000000
00000000
00000000
00000000
00000000
00000000
00000000
00000000
00000000
00000000
00000031
00000000
00000000
00000100
00000000
00000000
00000001
00000000
00000000
00000100
00000000
00000000
,
00002000
00000000
00000000
00000000
00000000
00000000
00013000
00001000
02000000
00000000
00000000
03020000
00000000
00000000
20030000
00000000
,
00000000
00000000
00200000
00000000
00000000
00000000
00000000
00000000
30000000
00000000
00000000
00000000
00000000
00000000
00310000
00001000
,
00000020
00000000
00000000
00000000
00000000
00000000
00001030
00000010
00000002
00000000
00000000
00000203
00000000
00000000
00002000
00000000
,
00000000
00000000
00000000
00000000
00000300
00000000
00003100
00001000
00020000
00000000
00230000
00000000
20300000
00000000
32000000
00000000
,
03200000
00000000
00000000
00000000
00000000
00000000
00301000
00010000
00000200
00000000
00000000
00000320
00000000
00000000
00000032
00000000
,
00000000
00000000
00000200
00000000
00000000
00000000
00000000
00000000
00000003
00000000
00000000
00000000
00000000
00000000
00001300
00010000
,
00200000
00000000
00000000
00000000
00000000
00000000
00310000
00100000
20000000
00000000
00000000
32000000
00000000
00000000
03010000
00000000
,
00022000
00000000
00000000
00000000
00033000
00000000
00001000
00010000
00001000
00000000
00000100
00000000
00000001
00000000
00000010
00000000
,
00001000
00010000
00000100
00010000
00001000
00010000
00000100
00010000
00001000
00010000
00000100
00010000
00002000
00000000
00013000
00000000
,
00010000
00001000
01000000
00001000
00010000
00001000
01000000
00001000
00010000
00001000
01000000
00001000
00020000
00000000
00031000
00000000
,
00001000
00010000
00100000
00010000
00001000
00010000
00100000
00010000
00001000
00010000
00100000
00010000
00002000
00000000
00013000
00000000
,
00010000
00001000
00000010
00001000
00010000
00001000
00000010
00001000
00010000
00001000
00000010
00001000
00020000
00000000
00000000
00000000
,
00130000
10000000
00100000
00010000
00100000
10000000
00100000
00010000
00100000
10000000
00100000
00010000
00002000
00000000
00000000
00000000
,
00003010
00000001
00000010
00001000
00000010
00000001
00000010
00001000
00000010
00000001
00000010
00001000
00020000
00000000
00000000
00000000
,
01030000
10000000
01000000
00010000
01000000
10000000
00100000
00010000
00001000
00000010
00000001
00000010
00001000
00000010
00000001
00000100
,
00002000
00000000
00003000
00000000
00020000
00000000
00030000
00000000
00002000
00003000
00020000
00030000
00022000
00000000
00033000
00000000
,
00011000
00000000
00001000
00100000
00000000
00100000
00010000
00100000
01000000
10000000
00100000
01000000
00000000
01000000
00010000
01000000
,
00001000
00010000
00000100
00001000
00000000
00001000
00000001
00001000
00000100
00000010
00000001
00000100
00000001
00001000
00000100
00001000
,
00000010
00000100
00000001
00001000
00000000
00001000
00000100
00010000
00001000
00010000
00100000
01000000
00000000
01000000
00010000
00100000
,
00010000
10000000
01000000
00100000
00010000
01000000
00010000
10000000
01000000
10000000
00100000
01000000
00010000
00100000
01000000
00010000
,
00001000
00010000
00001000
00000000
01000000
00001000
00010000
00000000
00001000
00010000
00001000
00000000
00010000
00000100
00001000
00000000
,
00000001
00000100
00000010
00001000
00000100
00010000
00001000
00100000
00010000
01000000
00100000
10000000
01000000
00100000
00010000
01000000
,
00100000
00010000
00001000
00100000
00000000
00100000
01000000
00010000
00001000
00000010
00000001
00000010
00000100
00001000
00000010
00000100
,
00000001
00000000
00001000
00000000
00000001
00000000
00000000
00000000
00000100
00000000
00000000
00000000
00001000
00000000
00000000
00000000
00010000
00000000
00000000
00000000
01000000
00000000
00000000
00000000
10000000
00000000
00000000
00000000
00100000
00000000
00000000
00000000
00010000
00000000
00000000
00000000
00001000
00000000
00010000
00000000
00001000
00000000
00010000
00000000
00000000
00000100
00000000
00000000
,
00001000
00000100
00000010
00000001
00000000
00000001
00000100
00000001
00001000
00000100
00000010
00001000
00000000
00001000
00010000
00001000
,
00100000
01000000
10000000
00100000
00000000
00100000
00010000
00100000
01000000
00010000
00100000
01000000
10000000
00100000
00010000
00001000
,
00100000
01000000
00100000
00010000
00000000
00010000
01000000
00001000
00010000
00001000
00000100
00000010
00000000
00000010
00000100
00000001
,
00000010
00001000
00010000
00100000
10000000
01000000
00010000
00001000
00000010
00000001
00000100
00001000
00020000
00000000
00031000
00100000
,
00001000
00010000
00100000
01000000
00001000
00010000
00100000
01000000
00010000
00100000
01000000
10000000
01000000
00100000
00001000
00010000
,
00000100
00000010
00000001
00000100
00001000
00010000
00100000
10000000
01000000
00010000
00001000
00000010
00000001
00000100
00001000
00010000
,
00100000
00010000
00001000
00000010
00000000
00000010
00001000
00010000
01000000
00010000
00001000
00000100
00000000
00000100
00001000
00010000
,
00100000
00010000
00001000
00000010
00000000
00000010
00000001
00000010
00000100
00001000
00010000
00100000
01000000
10000000
01000000
00100000
,
00002000
00020000
00000000
00000000
00000000
00000000
00033000
00000000
;

//---------------dance-single - ----------------
#NOTES:
     dance-single:
     :
     Hard:
     16:
     0.778676,0.925529,0.142939,0.495521,0.881456,572.000000,557.000000,15.000000,52.000000,0.000000,0.000000,0.778676,0.925529,0.142939,0.495521,0.881456,572.000000,557.000000,15.000000,52.000000,0.000000,0.000000:
0000
0000
0000
0000
,
0000
0000
0000
0000
,
0000
0000
0000
0000
,
0000
0000
0000
0000
,
1001
0000
0000
1000
0000
0000
0010
0000
0110
0000
0000
0100
0000
0000
0001
0000
,
0011
0000
0000
0010
0000
0000
0100
0000
1100
0000
0000
1000
0000
0000
0010
0000
,
0100
0001
0100
0000
0010
1000
0010
0000
1000
0100
1000
0000
0001
0010
0001
0010
,
0001
0000
1000
0000
0001
1000
2002
3003
,
0001
0000
1000
0000
0010
0100
0000
0100
0001
0000
0001
1000
0000
1000
0100
0000
,
0010
0000
0001
0000
0100
0010
0000
0010
1000
0000
1000
0001
0000
0001
0010
0000
,
0110
0000
0100
0000
1000
0010
0000
0010
0100
0000
0100
0001
0000
0001
1000
0000
,
0100
0000
0010
0000
0001
0100
0000
0100
0010
0000
0010
1000
0200
0000
0000
0000
,
0310
0000
0001
0000
0100
0010
0000
0010
1000
0000
1000
0001
0000
0001
0010
0000
,
0100
0000
1000
0000
0010
0100
0000
0100
0001
0000
1000
0000
2002
0000
3003
0000
,
1000
0010
1000
0000
0001
0100
0001
0000
0010
0001
0010
0000
0100
1000
0100
1000
,
0200
0000
0000
0000
0000
0000
0000
0000
0020
0000
0330
0000
0100
0010
0002
0000
,
1003
0000
1000
0010
0000
0010
0200
0000
0301
0000
0001
0100
0000
0100
0020
0000
,
1030
0000
1000
0100
0000
0100
0020
0000
0031
0000
0001
0010
0000
0010
0200
0000
,
1300
0000
1000
0010
0000
0010
0002
0000
0103
0000
0001
0010
0000
0010
2000
0000
,
3100
0000
1000
0100
0000
0100
0002
0000
0013
0000
0001
0100
0000
0100
2000
0000
,
3020
0000
0000
0000
0130
0000
0110
0000
0010
0000
1000
0100
0000
0001
0010
0000
,
0010
0000
0001
0100
0000
1000
0010
0000
0010
0000
0100
0001
0000
0010
1000
0000
,
0100
0010
0100
0000
0010
1000
0010
0000
0100
0001
0100
0000
0001
1000
0001
1000
,
0002
0000
0000
0000
0000
0000
0000
0000
0013
0100
0010
0100
1000
0001
0010
0100
,
2000
0000
0000
0000
0000
0000
3010
0100
0002
0000
0000
0000
1003
0000
0100
0000
,
0020
0000
0000
0000
0130
0000
0010
0000
0001
0000
1000
0000
0010
0100
0010
0100
,
0001
0010
1000
0100
0002
0000
1003
0010
,
0001
0100
1000
0010
0100
0002
0000
1003
,
1020
0000
0230
0000
0302
0000
1003
0100
,
0020
0000
0000
0000
0032
0000
0000
0000
0203
0000
0000
0000
1300
0000
0100
0010
,
0002
0000
0000
0000
0000
0000
0013
0000
0210
0000
0000
0000
0000
0000
1300
0100
,
0020
0000
0000
0000
0000
0000
0000
0000
0000
0000
0000
0000
1030
0000
0000
0000
0010
0000
0000
0000
0100
0000
0000
0000
0002
0000
0000
0000
0000
0000
0000
0000
0000
0000
0000
0000
0013
0000
0000
0100
0000
0000
0010
0000
0000
0100
0000
0000
,
2000
0010
0001
3100
,
0002
0000
0000
0000
0010
0000
0000
0000
1000
0000
0000
0000
0103
0000
0001
1000
,
0020
0001
0100
1030
,
2000
0000
0000
0000
3100
0000
0100
0010
1000
0000
0010
0000
0001
0000
0100
0000
,
0020
1000
0100
0031
,
0200
0000
0000
0000
0001
0000
0000
0000
0010
0000
0000
0000
1300
0000
0100
0001
,
0020
1000
0001
0130
,
2002
0000
0000
0000
3003
0000
1000
0010
0001
0000
0100
0000
1000
0000
0010
0000
,
0100
0001
0100
0001
0100
0001
0100
0001
0100
0001
0100
0001
0100
0000
0001
0000
,
1000
0010
1000
0010
1000
0010
1000
0010
1000
0010
1000
0010
1000
0000
0001
0000
,
0010
0001
0010
0001
0010
0001
0010
0001
0010
0001
0010
0001
0010
0000
0100
0000
,
1000
0100
1000
0100
1000
0100
1000
0100
1000
0100
1000
0100
0020
0000
0000
0000
,
0031
0100
0010
1000
0001
0100
0010
1000
0001
0100
0010
1000
0002
0000
0000
0000
,
1003
0100
0010
0001
1000
0100
0010
0001
1000
0100
0010
0001
2000
0000
0000
0000
,
3010
0100
0001
1000
0100
0010
0001
1000
0010
0100
0001
1000
0100
0010
0001
1000
,
0010
0000
0100
0000
0010
0100
0220
0330
,
0010
0000
1000
0100
0000
0000
1000
0000
0010
0000
0100
0001
0000
0000
0010
0001
,
0010
0000
0100
0000
0010
0000
0100
1000
0100
0000
0010
0000
0100
0000
0010
0000
,
0001
0000
0100
0010
0000
0000
1000
0000
0010
0000
0100
0001
0000
0000
1000
0001
,
1000
0000
0010
0000
0100
0000
0001
1000
0001
0000
0100
0000
0020
0000
1030
0000
,
1000
0100
0010
0000
0100
0000
1000
0000
0001
0010
0100
0000
0010
0000
0001
0000
,
1000
0010
0100
0000
0001
0100
0010
0000
1000
0001
0100
0000
0001
1000
0010
0000
,
0110
0000
0100
0001
0000
0000
0010
0000
0100
0000
1000
0010
0000
0000
0100
0001
,
0100
0010
1000
0100
0001
1000
0010
0001
0100
0020
0000
0000
,
1030
0000
1000
0100
0000
0001
0010
0000
1000
0000
0001
0100
0000
1000
0010
0000
,
0001
0100
0010
0000
1000
0010
0100
0000
0001
0010
0100
0000
1000
0100
0010
0000
,
0011
0000
0001
0100
0000
1000
0010
0000
0001
0000
1000
0100
0000
0001
0010
0100
,
0010
0100
1000
0000
0010
0100
0001
0000
1000
0100
0010
0000
0001
0100
0010
1000
,
0002
0000
0013
0000
0100
1000
0010
0000
0001
0000
1000
0000
0100
0001
0010
0000
,
0100
0010
0001
0000
1000
0100
0010
0000
1000
0010
0001
0010
0001
0100
0010
1000
,
0001
0000
0100
1000
0000
0010
0100
0001
1000
0000
0010
0001
0000
0100
0010
1000
,
0001
0000
0010
1000
0000
0010
0100
0001
1000
0100
0010
0001
0000
0100
1000
0000
,
0010
0220
0000
0000
0000
0000
0330
0000
;

//---------------dance-double - ----------------
#NOTES:
     dance-double:
     :
     Hard:
     16:
     0.765063,0.987231,0.161997,0.428816,0.824281,562.000000,545.000000,17.000000,45.000000,0.000000,0.000000,0.765063,0.987231,0.161997,0.428816,0.824281,562.000000,545.000000,17.000000,45.000000,0.000000,0.000000:
00000000
00000000
00000000
00000000
,
00000000
00000000
00000000
00000000
,
00000000
00000000
00000000
00000000
,
00000000
00000000
00000000
00000000
,
00011000
00000000
00000000
00001000
00000000
00000000
00100000
00000000
00101000
00000000
00000000
00001000
00000000
00000000
00010000
00000000
,
00010010
00000000
00000000
00000010
00000000
00000000
00010000
00000000
00011000
00000000
00000000
00001000
00000000
00000000
01000000
00000000
,
00010000
00000000
00100000
00000000
01000000
00000000
00010000
00000000
00001000
00000000
00000010
00000000
00000001
00001000
00000001
00001000
,
00000001
00000000
00000100
00000000
00001000
00010000
00022000
00033000
,
00001000
00000000
00100000
00000000
00010000
01000000
00000000
00010000
10000000
00000000
00010000
01000000
00000000
00010000
10000000
00000000
,
01000000
00000000
00100000
00000000
00001000
01000000
00000000
00001000
00010000
00000000
00001000
01000000
00000000
00001000
00010000
00000000
,
00010100
00000000
00000100
00000000
00000010
00000001
00000000
00000010
00000100
00000000
00000010
00000001
00000000
00000010
00000100
00000000
,
00001000
00000000
00000010
00000000
00010000
00001000
00000000
00010000
00000100
00000000
00010000
00001000
02000000
00000000
00000000
00000000
,
03010000
00000000
00100000
00000000
01000000
10000000
00000000
00100000
10000000
00000000
01000000
10000000
00000000
00100000
10000000
00000000
,
01000000
00000000
00010000
00000000
00001000
00100000
00000000
00001000
00010000
00000000
00000100
00000000
00000220
00000000
00000330
00000000
,
00000010
00000000
00000001
00000000
00000100
00000000
00001000
00000000
00010000
00000000
00100000
00000000
10000000
01000000
10000000
01000000
,
20000000
00000000
00000000
00000000
00000000
00000000
00000000
00000000
00020000
00000000
30030000
00000000
00010000
01000000
00002000
00000000
,
00013000
00000000
00010000
00000100
00000000
00000100
00000010
00000000
00001000
00000000
00010000
00000100
00000000
00000100
00000010
00000000
,
00001000
00000000
00001000
00100000
00000000
00100000
01000000
00000000
00010000
00000000
00001000
00100000
00000000
00100000
01000000
00000000
,
00010000
00000000
00001000
00000010
00000000
00000010
00000100
00000000
00010000
00000000
00001000
00000010
00000000
00000010
00000100
00000000
,
00010000
00000000
00010000
01000000
00000000
01000000
00100000
00000000
00001000
00000000
00010000
01000000
00000000
01000000
00200000
00000000
,
00302000
00000000
00000000
00000000
00013000
00000000
00011000
00000000
00001000
00000000
00010000
00100000
00000000
10000000
01000000
00000000
,
00010000
00000000
00001000
00000010
00000000
00000001
00000100
00000000
00001000
00000000
00010000
01000000
00000000
10000000
00100000
00000000
,
00010000
00000000
00001000
00000000
00000100
00000000
00000001
00000000
00000010
00000000
00001000
00000000
00010000
00001000
00010000
00001000
,
00020000
00000000
00000000
00000000
00000000
00000000
00000000
00000000
00031000
00100000
00001000
00100000
00010000
01000000
00100000
10000000
,
00020000
00000000
00000000
00000000
00000000
00000000
01030000
00100000
02000000
00000000
00000000
00000000
03001000
00000000
00010000
00000000
,
00000200
00000000
00000000
00000000
00000310
00000000
00000001
00000000
00001000
00000000
00000010
00000000
00000100
00000001
00000100
00000001
,
00000100
00001000
00010000
00100000
20000000
00000000
31000000
00010000
,
00001000
00000010
00000001
00001000
00000100
00000020
00000000
00001030
,
00021000
00000000
00230000
00000000
20300000
00000000
31000000
00010000
,
00002000
00000000
00000000
00000000
00203000
00000000
00000000
00000000
02300000
00000000
00000000
00000000
03010000
00000000
00010000
00001000
,
00000020
00000000
00000000
00000000
00000000
00000000
00000031
00000000
00000201
00000000
00000000
00000000
00000000
00000000
00001300
00010000
,
00200000
00000000
00000000
00000000
00000000
00000000
00000000
00000000
00000000
00000000
00000000
00000000
10300000
00000000
00000000
00000000
01000000
00000000
00000000
00000000
00100000
00000000
00000000
00000000
00020000
00000000
00000000
00000000
00000000
00000000
00000000
00000000
00000000
00000000
00000000
00000000
01030000
00000000
00000000
00001000
00000000
00000000
01000000
00000000
00000000
00001000
00000000
00000000
,
00020000
00000100
01000000
00030100
,
00002000
00000000
00000000
00000000
00100000
00000000
00000000
00000000
00000010
00000000
00000000
00000000
00103000
00000000
00100000
00001000
,
00020000
00000010
00001000
00130000
,
00002000
00000000
00000000
00000000
01003000
00000000
01000000
00100000
00010000
00000000
00100000
00000000
10000000
00000000
01000000
00000000
,
00200000
00001000
10000000
00301000
,
00000200
00000000
00000000
00000000
00010000
00000000
00000000
00000000
00000001
00000000
00000000
00000000
00010300
00000000
00010000
00001000
,
00200000
10000000
01000000
00301000
,
00022000
00000000
00000000
00000000
00033000
00000000
00010000
00001000
00000010
00000000
00000001
00000000
00000100
00000000
00001000
00000000
,
00010000
00000010
00010000
00000010
00010000
00000010
00010000
00000010
00010000
00000010
00010000
00000010
00010000
00000000
00011000
00000000
,
00001000
00100000
00001000
00100000
00001000
00100000
00001000
00100000
00001000
00100000
00001000
00100000
00001000
00000000
00011000
00000000
,
00010000
00000100
00010000
00000100
00010000
00000100
00010000
00000100
00010000
00000100
00010000
00000100
00010000
00000000
00011000
00000000
,
00001000
01000000
00001000
01000000
00001000
01000000
00001000
01000000
00001000
01000000
00001000
01000000
00002000
00000000
00000000
00000000
,
00013000
00000100
00001000
00000010
00010000
00000100
00001000
00000010
00010000
00000100
00001000
00000010
00020000
00000000
00000000
00000000
,
00031000
00010000
00100000
01000000
00001000
00010000
00100000
01000000
00001000
00010000
00100000
01000000
00002000
00000000
00000000
00000000
,
00013000
00000100
00001000
00000010
00010000
00001000
00100000
00010000
01000000
00001000
00010000
00000100
00001000
00000010
00010000
00001000
,
00100000
00000000
01000000
00000000
00010000
00001000
00022000
00033000
,
00010000
00000000
00001000
00000010
00000000
00000000
00001000
00000000
00010000
00000000
00100000
10000000
00000000
00000000
00100000
00010000
,
00001000
00100000
01000000
00010000
00001000
00000010
00000001
00000100
,
00001000
00000000
00010000
00100000
00000000
00000000
00010000
00000000
00001000
00000000
00000010
00000001
00000000
00000000
00000010
00001000
,
00010000
00000010
00000100
00001000
00010000
00100000
20000000
31000000
,
01000000
00100000
00010000
00000000
00100000
00000000
00001000
00000000
00000010
00000100
00001000
00000000
00000100
00000000
00010000
00000000
,
01000000
10000000
01000000
00000000
00100000
00010000
00100000
00000000
00001000
00010000
00001000
00000000
00000010
00000100
00000010
00000000
,
00000110
00000000
00000001
00000100
00000000
00000000
00001000
00000000
00010000
00000000
00100000
10000000
00000000
00000000
01000000
00100000
,
01000000
00010000
00001000
00000100
00000010
00001000
00000100
00000010
00000001
00000200
00000000
00000000
,
00001300
00000000
00010000
01000000
00000000
10000000
00100000
00000000
00010000
00000000
00001000
00000100
00000000
00000001
00000010
00000000
,
00001000
00010000
00000100
00000000
00010000
00001000
01000000
00000000
00001000
00010000
00000010
00000000
00010000
00001000
00100000
00000000
,
01000000
00000000
10000000
00100000
00000000
00010000
00001000
00000000
00000100
00000000
00000001
00000010
00000000
00001000
00010000
00001000
,
00010000
01000000
10000000
00000000
00100000
01000000
00010000
00000000
00100000
00001000
00010000
00000000
00000100
00001000
00000100
00000010
,
00000002
00000000
00000103
00000000
00001000
00010000
00001000
00000000
00100000
00000000
01000000
00000000
10000000
00100000
01000000
00000000
,
00010000
00100000
00001000
00000000
00010000
00001000
00100000
00000000
00001000
00010000
00000100
00000000
00010000
00001000
00000100
00000010
,
00001000
00000000
00000001
00000010
00000000
00001000
00010000
01000000
10000000
00000000
00100000
00010000
00000000
00001000
00000100
00000001
,
00000010
00000000
00001000
00010000
00000000
01000000
10000000
00100000
00010000
00100000
00010000
00001000
00000000
00000010
00000001
00000000
,
00000100
00000220
00000000
00000000
00000000
00000000
00000330
00000000
;

//---------------dance-single - ----------------
#NOTES:
     dance-single:
     :
     Beginner:
     3:
     0.127964,0.183676,0.019059,0.038117,0.000000,94.000000,92.000000,2.000000,4.000000,0.000000,0.000000,0.127964,0.183676,0.019059,0.038117,0.000000,94.000000,92.000000,2.000000,4.000000,0.000000,0.000000:
0000
0000
0000
0000
,
0000
0000
0000
0000
,
0000
0000
0000
0000
,
0000
0000
0000
0000
,
1000
0000
0000
0000
,
0001
0000
0000
0000
,
1000
0000
0001
0000
,
1001
0000
0000
0000
,
0001
0000
0000
0000
,
0100
0000
0000
0000
,
1000
0000
0000
0000
,
0010
0000
0000
0000
,
0001
0000
0000
0000
,
0100
0000
0000
0000
,
1000
0000
0000
0000
,
0010
0000
0000
0001
,
0001
0000
1000
0000
,
0001
0000
1000
0000
,
0010
0000
0100
0000
,
0010
0000
0100
0100
,
0000
0000
0001
0000
,
1000
0000
0001
0000
,
1000
0000
0100
0000
,
0010
0000
0000
0000
,
0020
0000
0000
0000
,
0000
0000
0000
0000
,
0030
0000
0000
0000
,
0000
0000
0000
0000
,
0002
0000
0000
0000
,
0000
0000
0000
0000
,
0003
0000
0000
0000
,
0000
0000
0000
0000
,
0100
0000
0100
0000
,
0100
0000
0000
0000
,
0010
0000
0010
0000
,
0010
0000
0000
0000
,
1000
0000
1000
0000
,
1000
0000
0000
0000
,
0001
0000
0001
0000
,
0001
0000
0000
0100
,
0100
0000
0100
0000
,
0010
0000
0010
0000
,
1000
0000
1000
0000
,
0001
0000
0001
0000
,
0100
0000
0010
0000
,
1000
0000
0001
0000
,
0100
0000
0010
0000
,
0110
0000
0000
0000
,
1000
0000
0001
0000
,
1000
0000
0001
0000
,
0010
0000
0100
0000
,
0010
0000
0100
0000
,
1000
0000
0001
0000
,
0010
0000
0100
0000
,
1000
0000
1000
0000
,
2000
0000
3000
0000
,
0001
0000
0100
0000
,
0001
0000
0100
0000
,
1000
0000
0010
0000
,
1000
0000
0010
0000
,
0001
0000
0100
0000
,
0010
0000
1000
0000
,
0001
0000
0010
0000
,
0100
0000
0100
0100
,
0200
0300
0000
0000
;

//---------------dance-single - ----------------
#NOTES:
     dance-single:
     :
     Easy:
     7:
     0.288600,0.367353,0.171527,0.123880,0.000000,212.000000,194.000000,18.000000,13.000000,0.000000,0.000000,0.288600,0.367353,0.171527,0.123880,0.000000,212.000000,194.000000,18.000000,13.000000,0.000000,0.000000:
0000
0000
0000
0000
,
0000
0000
0000
0000
,
0000
0000
0000
0000
,
0000
0000
0000
0000
,
1000
1000
0001
0001
,
0100
0100
0010
0010
,
1000
0001
0100
0010
,
1001
0000
0000
0000
,
1000
0100
1000
0000
,
0001
0100
0001
0000
,
1000
0010
1000
0000
,
0001
0010
0001
0000
,
1000
0001
0100
0000
,
0001
1000
0010
0000
,
1000
0001
0100
0010
,
0220
0000
0000
0330
,
0100
0001
0100
0001
,
0100
1000
0100
1000
,
0100
0001
0100
1000
,
0100
0001
0100
0100
,
0000
0010
1000
0010
,
0001
0010
1000
0010
,
0001
0010
0100
0010
,
2002
0000
0000
3003
,
1001
0000
1000
0000
,
0010
0000
0001
0000
,
0100
1000
0010
0000
,
0100
0001
0020
0030
,
0011
0001
0100
0000
,
1000
0000
0010
0000
,
0001
0000
1000
0000
,
1001
0010
0200
0300
,
0001
0000
0001
0010
,
0100
0100
0000
0000
,
1100
0000
1000
0100
,
0020
0030
0001
0100
,
0101
0000
0001
0100
,
0010
0010
0000
0000
,
1010
0000
1000
0010
,
0200
0300
0001
1000
,
0001
0100
0001
0101
,
1000
0010
1000
1010
,
0001
0010
0001
0011
,
1000
0100
1000
1100
,
0001
0100
0010
0110
,
1000
0010
0100
0110
,
0001
1000
0010
0100
,
1001
0000
0000
0000
,
1000
0100
0010
0100
,
1000
0100
0001
0001
,
1000
0010
0001
0010
,
0100
0010
0001
0001
,
1000
0010
0100
1000
,
0001
0010
0100
0001
,
1000
0010
0001
0100
,
2002
0000
0000
3003
,
1000
0010
0100
0001
,
1000
0100
0010
0001
,
0100
0010
1000
0001
,
0020
0000
0000
0030
,
1000
0100
0001
1000
,
0010
0100
0001
1000
,
0010
0010
0001
0001
,
0100
0100
1000
0010
,
0220
0330
0000
0000
;

//---------------dance-double - ----------------
#NOTES:
     dance-double:
     :
     Easy:
     7:
     0.289962,0.367353,0.219173,0.142939,0.000000,213.000000,190.000000,23.000000,15.000000,0.000000,0.000000,0.289962,0.367353,0.219173,0.142939,0.000000,213.000000,190.000000,23.000000,15.000000,0.000000,0.000000:
00000000
00000000
00000000
00000000
,
00000000
00000000
00000000
00000000
,
00000000
00000000
00000000
00000000
,
00000000
00000000
00000000
00000000
,
01000000
01000000
00001000
00001000
,
00010000
00010000
00000100
00000100
,
00001000
00000010
00010000
00001000
,
00011000
00000000
00000000
00000000
,
00010000
00000100
00010000
00000000
,
00001000
01000000
00001000
00000000
,
00010000
00000010
00010000
00000000
,
00001000
00100000
00001000
00000000
,
00010000
00001000
00000100
00000000
,
00001000
00010000
01000000
00000000
,
00010000
00001000
00000010
00000001
,
00002002
00000000
00000000
00003003
,
00001000
00000100
00001000
00000100
,
00010000
00001000
00010000
00001000
,
01000000
00010000
01000000
00010000
,
00100000
00001000
00010000
00010000
,
00000000
00000010
00001000
00000100
,
00010000
00001000
00100000
00010000
,
10000000
00100000
01000000
00010000
,
20020000
00000000
00000000
30030000
,
10010000
00000000
10000000
00000000
,
01000000
00000000
00010000
00000000
,
00001000
00000000
00000010
00000000
,
00000001
00000000
00000200
00000300
,
00000110
00000000
00000010
00000000
,
00010000
00000000
00001000
00000000
,
00100000
00000000
01000000
00000000
,
10010000
00000000
02200000
03300000
,
01100000
00000000
10000000
01000000
,
00010000
00011000
00000000
00000000
,
00011000
00000000
00010000
00001000
,
00000020
00000030
00000001
00001000
,
00001001
00000000
00000001
00000100
,
00001000
00011000
00000000
00000000
,
00011000
00000000
00001000
00010000
,
00200000
00300000
10000000
01000000
,
00100000
00001000
00100000
00101000
,
00000010
00010000
00000010
00010010
,
01000000
00001000
01000000
01001000
,
00000100
00010000
00000100
00010100
,
00010000
00001000
00000100
00001100
,
00001000
00010000
01000000
01010000
,
00010000
00001000
00000100
00000001
,
00001001
00000000
00000000
00000000
,
00001000
00000100
00000010
00001000
,
00010000
01000000
00100000
00010000
,
10000000
01000000
00010000
00001000
,
00000010
00000001
00000100
00001000
,
00010000
00100000
10000000
01000000
,
00100000
00001000
00010000
00000100
,
00000010
00000001
00000100
00001000
,
00022000
00000000
00000000
00033000
,
00010000
00000100
00000010
00001000
,
00010000
01000000
00100000
00010000
,
10000000
00100000
00010000
00001000
,
00022000
00000000
00000000
00033000
,
00010000
00000100
00000010
00001000
,
00100000
00010000
00000100
00001000
,
01000000
00100000
00010000
00001000
,
00000100
00000001
00000010
00001000
,
00022000
00033000
00000000
00000000
;

//---------------dance-single - ----------------
#NOTES:
     dance-single:
     :
     Medium:
     11:
     0.479185,0.555317,0.161997,0.314465,0.119116,352.000000,335.000000,17.000000,33.000000,0.000000,0.000000,0.479185,0.555317,0.161997,0.314465,0.119116,352.000000,335.000000,17.000000,33.000000,0.000000,0.000000:
0000
0000
0000
0000
,
0000
0000
0000
0000
,
0000
0000
0000
0000
,
0000
0000
0000
0000
,
1000
0010
0001
0100
,
1000
0010
0001
0100
,
1000
0010
1000
0010
0100
0001
0100
0001
,
1000
0000
0001
0000
0100
0100
0200
0000
,
0310
0000
0010
0000
0000
1000
0000
0000
0001
0000
0000
0100
0000
0000
0010
0000
,
0000
0000
1000
0000
0000
0100
0000
0000
0010
0000
0000
0001
0000
0000
0100
0000
,
0000
0000
0010
0000
0000
1000
0000
0000
0001
0000
0000
0010
0000
0000
0100
0000
,
0000
0000
1000
0000
0000
0010
0000
0000
0100
0000
0001
0000
1001
0000
0000
0000
,
1000
0000
1000
0000
0000
0010
0000
0000
0100
0000
0000
0001
0000
0000
1000
0000
,
0000
0000
0100
0000
0000
0010
0000
0000
0001
0000
0000
0000
1001
0000
0000
0000
,
1000
0000
1000
0000
0000
0010
0000
0000
0001
0000
0000
0100
0000
0000
1000
0000
,
2020
0000
3030
0000
0101
0000
0001
1000
,
0010
0000
0000
0010
0000
0000
0010
0000
0100
0000
0000
0100
0000
0000
0100
0000
,
0001
0000
0000
0001
0000
0000
0001
0000
1000
0000
0000
1000
0000
0000
1000
0000
,
0100
0000
0000
0100
0000
0000
0100
0000
0010
0000
0000
0010
0000
0000
0010
0000
,
0001
0000
0000
0001
0000
0000
0001
0000
1000
0000
0000
1000
0000
0000
1000
0000
,
1001
0000
0000
0000
0001
0000
0010
0000
0100
0000
0000
1000
0000
0000
0010
0000
,
0100
0000
0000
0001
0000
0000
1000
0000
0100
0000
0000
0010
0000
0000
0001
0000
,
0100
0000
0000
1000
0000
0000
0010
0000
0001
0000
0000
0100
0000
0000
0010
0000
,
0220
0000
0330
0000
0100
0001
0010
0100
,
2100
0000
0000
3010
0010
0000
0100
0001
,
0010
0000
0001
0100
0001
0100
0010
1000
,
0010
0000
1000
0000
0200
0000
0310
0001
,
0010
0000
0001
0000
0200
0000
0000
0310
,
0010
0000
1000
0000
0001
0000
0010
0100
,
1000
0000
0001
0000
0100
0000
0010
1000
,
0200
0000
0000
0010
0320
0000
0000
0001
,
0031
0000
0001
0010
0100
0000
0110
0000
,
2002
3000
1000
0100
,
0010
0100
1000
0103
,
2002
0003
0001
0100
,
0010
0100
0001
3100
,
2002
3000
1000
0010
,
1000
0100
1000
0013
,
2002
0003
0100
3010
,
0220
0000
0330
0010
0010
1000
0001
0100
,
0010
1000
0010
1000
0010
1000
0010
0000
,
0100
0001
0100
0001
0100
0001
0100
0000
,
0001
0010
0001
0010
0001
0010
0001
0000
,
1000
0100
1000
0100
1000
0100
1000
0000
,
0010
0100
0001
0100
0010
0100
0001
0000
,
1000
0100
0010
0100
1000
0100
0010
0000
,
0001
0100
0010
1000
0001
0010
0100
1000
,
0010
0000
0100
0000
0001
0001
0002
0000
,
1003
0100
0010
0000
1000
0100
0001
0000
,
1000
0100
0010
0000
1000
0100
0001
0100
,
0010
0001
0100
0000
0010
1000
0100
0000
,
0010
0100
1000
0010
0100
0001
0010
0100
,
0001
0100
1000
0010
0100
0001
0010
0100
,
2000
3020
0230
0302
,
1003
0010
0001
0000
0001
0100
1000
0000
,
0220
0000
0000
0330
,
0001
0100
0010
0000
0001
0100
1000
0000
,
0001
0100
0010
0000
0001
0100
1000
0100
,
0010
1000
0100
0000
0010
0001
0100
0000
,
0010
1000
0100
0001
1000
0010
0001
0100
,
0010
1000
0001
0010
0100
0001
0100
1000
,
0002
0023
0230
2300
,
3010
0100
0101
0000
0100
0010
1010
0000
,
1000
0100
0001
1000
0010
0001
0100
0010
,
1000
2002
0000
0000
0000
0000
3003
0000
;

//---------------dance-double - ----------------
#NOTES:
     dance-double:
     :
     Medium:
     11:
     0.473740,0.524466,0.152468,0.323995,0.119116,348.000000,332.000000,16.000000,34.000000,0.000000,0.000000,0.473740,0.524466,0.152468,0.323995,0.119116,348.000000,332.000000,16.000000,34.000000,0.000000,0.000000:
00000000
00000000
00000000
00000000
,
00000000
00000000
00000000
00000000
,
00000000
00000000
00000000
00000000
,
00000000
00000000
00000000
00000000
,
10000000
00100000
00010000
00001000
,
00000100
00000001
00000010
00001000
,
00010000
00000100
00010000
00000000
00001000
01000000
00001000
00000000
,
00010000
00000000
00001000
00000000
00010000
00010000
00020000
00000000
,
00031000
00000000
00001000
00000000
00000000
00100000
00000000
00000000
00010000
00000000
00000000
01000000
00000000
00000000
00100000
00000000
,
00000000
00000000
10000000
00000000
00000000
00010000
00000000
00000000
01000000
00000000
00000000
00001000
00000000
00000000
00010000
00000000
,
00000000
00000000
00000100
00000000
00000000
00001000
00000000
00000000
00000010
00000000
00000000
00000100
00000000
00000000
00000001
00000000
,
00000000
00000000
00001000
00000000
00000000
00000100
00000000
00000000
00000010
00000000
00000001
00000000
00001001
00000000
00000000
00000000
,
00001000
00000000
00001000
00000000
00000000
00000010
00000000
00000000
00010000
00000000
00000000
00001000
00000000
00000000
00100000
00000000
,
00000000
00000000
01000000
00000000
00000000
10000000
00000000
00000000
00100000
00000000
00000000
00000000
01100000
00000000
00000000
00000000
,
01000000
00000000
01000000
00000000
00000000
00001000
00000000
00000000
00010000
00000000
00000000
00000100
00000000
00000000
00000010
00000000
,
00000022
00000000
00000033
00000000
00001100
00000000
00000100
00000010
,
00000001
00000000
00000000
00000001
00000000
00000000
00000001
00000000
00000100
00000000
00000000
00000100
00000000
00000000
00000100
00000000
,
00001000
00000000
00000000
00001000
00000000
00000000
00001000
00000000
00010000
00000000
00000000
00010000
00000000
00000000
00010000
00000000
,
01000000
00000000
00000000
01000000
00000000
00000000
01000000
00000000
10000000
00000000
00000000
10000000
00000000
00000000
10000000
00000000
,
00100000
00000000
00000000
00100000
00000000
00000000
00100000
00000000
00010000
00000000
00000000
00010000
00000000
00000000
00010000
00000000
,
00011000
00000000
00000000
00000000
00001000
00000000
00100000
00000000
01000000
00000000
00000000
10000000
00000000
00000000
00100000
00000000
,
01000000
00000000
00000000
00010000
00000000
00000000
00100000
00000000
00001000
00000000
00000000
00010000
00000000
00000000
00000100
00000000
,
00000010
00000000
00000000
00000001
00000000
00000000
00000100
00000000
00001000
00000000
00000000
00010000
00000000
00000000
00100000
00000000
,
20200000
00000000
30300000
00000000
10000000
01000000
00100000
00001000
,
00021000
00000000
00000000
00030100
00000100
00000000
00001000
00000100
,
00000010
00000000
00000001
00000100
00000001
00000100
00001000
00010000
,
00001000
00000000
00010000
00000000
00200000
00000000
10300000
01000000
,
10000000
00000000
01000000
00000000
00020000
00000000
00000000
00031000
,
00001000
00000000
00011000
00000000
00010000
00000000
00000100
00000010
,
00000001
00000000
00000100
00000000
00001000
00000000
00010000
00100000
,
20000000
00000000
00000000
01000000
32000000
00000000
00000000
00010000
,
03010000
00000000
00010000
00001000
00000100
00000000
00000101
00000000
,
00002020
00000030
00000010
00000001
,
00000100
00000010
00000001
00003100
,
00020200
00000300
00000100
00000010
,
00001000
00000100
00000010
00031000
,
02002000
03000000
01000000
00010000
,
00100000
01000000
00010000
00103000
,
00220000
00300000
01000000
10030000
,
20020000
00000000
30030000
10000000
10000000
01000000
00100000
00001000
,
00010000
00000010
00010000
00000010
00010000
00000010
00010000
00000000
,
00001000
00100000
00001000
00100000
00001000
00100000
00001000
00000000
,
00010000
00000100
00010000
00000100
00010000
00000100
00010000
00000000
,
00001000
01000000
00001000
01000000
00001000
01000000
00001000
00000000
,
00010000
00000100
00001000
00000010
00001000
00000100
00010000
00000000
,
00001000
00010000
00100000
01000000
00100000
00010000
00001000
00000000
,
00010000
00001000
00000100
00000010
00010000
00001000
01000000
00100000
,
00010000
00000000
00001000
00000000
00010000
00010000
00020000
00000000
,
00031000
00000010
00000001
00000000
00000001
00000100
00001000
00000000
,
00010000
00100000
10000000
00000000
10000000
01000000
00010000
01000000
,
00010000
00001000
00000100
00000000
00001000
00010000
01000000
00000000
,
00010000
00001000
00000100
00000001
00000010
00000100
00001000
00000100
,
00010000
00001000
00100000
00010000
00100000
01000000
10000000
00100000
,
02000000
03002000
00023000
00030200
,
00000310
00000001
00000100
00000000
00000100
00001000
00010000
00000000
,
00022000
00000000
00000000
00033000
,
00010000
00100000
10000000
00000000
10000000
01000000
00010000
00000000
,
00001000
00000010
00000001
00000000
00000001
00000100
00001000
00010000
,
00001000
00010000
01000000
00000000
00010000
00001000
00000100
00000000
,
00001000
00010000
00100000
10000000
01000000
00010000
00002000
00000000
,
00103000
01000000
00010000
00001000
00000100
00000001
00000010
00000100
,
00020000
00032000
00203000
02300000
,
13000000
00100000
00010000
00000000
00001000
00000100
00000001
00000000
,
00000010
00000100
00001000
00010000
00100000
01000000
10000000
00100000
,
00010000
00022000
00000000
00000000
00000000
00000000
00033000
00000000
;
