#TITLE:The Quick Brown Fox Jumps Over The Lazy Dog;
#SUBTITLE:;
#ARTIST:Doin;
#TITLETRANSLIT:;
#SUBTITLETRANSLIT:;
#ARTISTTRANSLIT:;
#GENRE:VARIETY;
#CREDIT:MUINELIM;
#BANNER:The Quick Brown Fox Jumps Over The Lazy Dog.png;
#BACKGROUND:The Quick Brown Fox Jumps Over The Lazy Dog-bg.png;
#LYRICSPATH:;
#CDTITLE:;
#MUSIC:The Quick Brown Fox Jumps Over The Lazy Dog.mp3;
#OFFSET:-0.058000;
#SAMPLESTART:40.857998;
#SAMPLELENGTH:11.940002;
#SELECTABLE:YES;
#DISPLAYBPM:200;
#BPMS:0.000000=200;
#STOPS:
;
#BGCHANGES:;
#KEYSOUNDS:;
#ATTACKS:;

//---------------dance-single - ----------------
#NOTES:
     dance-single:
     :
     Hard:
     14:
     0.600924,0.773448,0.217108,0.588001,0.000000,465.000000,441.000000,24.000000,65.000000,0.000000,0.000000,0.600924,0.773448,0.217108,0.588001,0.000000,465.000000,441.000000,24.000000,65.000000,0.000000,0.000000:
0000
0000
0000
0000
,
0000
0000
0000
0000
,
0000
0000
0000
0000
,
0000
0000
0000
0000
,
0000
0000
0000
0000
,
0000
0000
0000
0000
,
0000
0000
0000
0000
,
0000
0000
0000
0000
,
0000
0000
0000
0000
,
0000
0000
0000
0000
,
2002
0000
0003
0000
3010
0100
0000
0100
,
0002
0000
0023
0000
,
0230
0000
0000
0000
1300
0010
0000
0010
,
0200
0000
0302
2003
,
3200
0000
0000
0000
0310
0001
0000
0001
,
0200
0000
0320
0000
,
2030
0000
0000
0000
3001
0010
0000
0010
,
0200
0000
0320
0000
0130
0010
0100
1000
,
2002
0000
3000
0000
0103
0010
0000
0010
,
2000
0000
3200
0000
,
0302
0000
0000
0000
1003
0010
0000
0010
,
0002
0000
0203
0000
,
2300
0000
0000
0000
3001
0010
0000
0010
,
2000
0000
3200
0000
,
0320
0000
0000
0000
0031
0100
0000
0100
,
2000
0000
3020
0000
,
0031
0010
0100
1100
0000
0000
0000
0000
,
0001
0100
0010
1010
0000
0000
0000
0000
,
0001
0010
0100
1100
0000
0000
0000
0000
,
0001
0100
0010
1000
0001
0010
0100
1000
,
0001
0100
1000
1010
0000
0000
0000
0000
,
1000
0100
0001
0011
0000
0000
0000
0000
,
0001
0100
1000
1020
0000
0230
0000
0001
,
0002
0000
0300
0000
0013
0100
1000
0001
,
1001
0000
1000
0010
0001
0010
0100
1000
,
0100
0001
0020
0100
0000
0100
0130
0010
,
0110
0001
0100
0010
1000
0001
0010
0100
,
1000
0010
0001
0010
1000
0010
0100
0001
,
1001
0000
0001
0010
1000
0010
0100
0001
,
0100
1000
0020
0100
0000
0100
0130
0010
,
0110
1000
0100
0010
0001
1000
0010
0100
,
0001
0010
1000
0010
0001
0010
0100
1000
,
1010
0000
0010
0100
0001
0100
1000
0010
,
1000
0100
0020
1000
0000
1000
1030
0001
,
0101
1000
0100
0010
1000
0010
0001
0100
,
1000
0001
0010
1000
0100
0001
0100
0010
,
0011
0000
0001
0100
1000
0100
0010
0001
,
0010
0100
0002
0010
0000
0010
0013
0100
,
1100
0001
0010
1000
0010
0100
0001
0100
,
1000
0010
0001
1000
0100
0001
0010
0100
,
0220
0000
0300
0000
0031
0100
0000
0100
,
2000
0000
3020
0000
,
0032
0000
0000
0000
1003
0100
0000
0100
,
0002
0000
0023
0000
,
2030
0000
0000
0000
3001
0100
0000
0100
,
2000
0000
3020
0000
,
0032
0000
0000
0000
1003
0100
0000
0100
,
0002
0000
2000
3003
,
1010
0000
0101
0000
0001
0010
1000
0100
,
0001
0000
0110
0000
1000
0010
0001
0100
,
1000
0000
0110
0000
1000
0100
0001
1000
,
0010
0001
0100
1000
0001
0010
1000
0100
,
0010
0000
0110
0000
1000
0010
0100
1000
,
0010
0000
1001
0000
0001
0100
0010
0001
,
0100
0000
1001
0000
1000
0010
0100
1000
,
0001
0010
0100
0001
0010
1000
0001
0100
,
2000
0000
0000
0010
0000
0010
0000
0010
,
3020
0000
0000
0100
0000
0001
0000
0030
,
1000
1000
0100
0010
0001
0100
0010
1000
,
0001
0001
0010
0100
1000
0010
0100
0001
,
1000
1000
0100
0001
1000
0010
0100
1000
,
0001
0001
0010
1000
0001
0100
0010
0001
,
0100
1000
0001
0010
1000
0100
0001
1000
,
0010
0001
0100
0010
2000
3002
0023
0230
,
1300
0010
0100
1000
0100
0001
0010
0100
,
0001
0100
0010
0001
0100
1000
0010
1000
,
0100
0001
0010
0100
0010
1000
0001
0100
,
0010
0100
1000
0010
0001
1000
0100
0001
,
0010
0001
0100
1000
0100
0010
1000
0001
,
0010
0100
0001
0100
1000
0010
0001
0100
,
0001
0010
0100
1000
0100
0010
0001
0010
,
1000
0100
0010
0001
0100
0100
0100
0100
,
0020
0000
2000
0030
0000
3010
1000
0100
,
0020
0000
0002
0030
0000
0013
0001
0100
,
0020
0000
2000
0030
0000
3010
1000
0100
,
0001
0000
0001
0100
1000
0010
0001
0010
,
0200
0000
0020
0300
0000
1030
0001
0010
,
0200
0000
0020
0300
0000
0031
0100
0010
,
2000
0002
0000
0000
,
0000
0000
0000
0000
,
3003
0000
0000
0000
;

//---------------dance-single - ----------------
#NOTES:
     dance-single:
     :
     Challenge:
     17:
     0.749540,1.180525,0.379939,0.732740,0.402555,580.000000,538.000000,42.000000,81.000000,0.000000,0.000000,0.749540,1.180525,0.379939,0.732740,0.402555,580.000000,538.000000,42.000000,81.000000,0.000000,0.000000:
0000
0000
0000
0000
,
0000
0000
0000
0000
,
0000
0000
0000
0000
,
0000
0000
0000
0000
,
0000
0000
0000
0000
,
0000
0000
0000
0000
,
0000
0000
0000
0000
,
0000
0000
0000
0000
,
0000
0000
0000
0000
,
0000
0000
0000
0000
,
2002
0000
3000
0000
1003
0100
0010
0001
,
0201
0320
2030
0000
,
0002
0000
0003
0000
3001
0010
0100
1000
,
1020
0230
0302
2003
,
0020
0000
3000
0000
1030
0001
0010
0100
,
2100
3020
0230
0000
,
0002
0000
0003
0000
0301
1000
0100
0010
,
0012
0000
0000
0000
0203
0000
0000
0000
0310
0000
0010
1000
0100
0000
0010
0001
,
0200
0000
0000
0000
0310
1000
0100
0010
,
0012
0203
2300
0000
,
0020
0000
3000
0000
0031
0010
0100
1000
,
1020
0032
0203
0000
,
2000
0000
0300
0000
3001
0100
0010
1000
,
1200
0302
0023
0000
,
2000
0000
0030
0000
3001
0010
0100
1000
,
1020
0032
0203
0000
,
2300
0000
0000
0000
,
3020
0000
0000
0000
,
0230
0000
0000
0000
,
0301
0001
0010
1000
0010
0100
0001
0100
,
2000
0000
0000
0000
,
3002
0000
0000
0000
,
0013
0010
0100
2100
0000
3002
0000
0103
,
0220
0000
0000
0000
0300
0000
0000
0000
1030
0001
1000
0001
1000
0001
1000
0001
,
2000
3000
1100
0100
0010
0011
0001
0100
,
0110
0010
1000
0100
0001
0100
1000
0100
,
0010
0001
0010
0000
0100
0000
0010
0001
0010
0000
0100
0010
0100
0000
1000
0100
,
1000
0100
0010
0000
0001
0000
0100
0000
1000
0000
0100
0000
0010
0000
0100
0000
,
0002
0003
0011
0010
0100
1100
1000
0010
,
0110
0100
0001
0010
1000
0010
0001
0010
,
0100
1000
0100
0000
0010
0000
0100
1000
0100
0000
0010
0100
0010
0000
0001
0010
,
0001
0000
1000
0010
1000
0000
0001
0100
0001
0000
1000
0000
0010
0100
0010
0100
,
0020
0030
1010
1000
0100
0011
0001
0100
,
1010
1000
0001
0010
1000
0001
0100
1000
,
0010
0100
0001
0000
0100
0000
0010
0100
0001
0000
0010
0001
0100
0000
0010
1000
,
0100
1000
0010
0000
0100
0000
0001
0000
0010
0000
1000
0000
0001
0000
0100
0000
,
0020
0030
0011
0001
0100
1010
1000
0100
,
0011
0001
1000
0100
0001
1000
0010
0001
,
0100
0010
1000
0000
0010
0000
0100
0010
1000
0000
0100
1000
0010
0000
0100
0001
,
0010
0000
0001
0100
0010
0000
1000
0001
0100
0000
0001
1000
0001
1000
0001
1000
,
0020
0000
0000
0000
0130
0001
0010
0100
,
2100
0000
3020
0000
,
0032
0000
0000
0000
1003
0100
0001
0010
,
0210
0000
2300
0000
,
3020
0000
0000
0000
0031
1000
0100
0010
,
2010
0000
3200
0000
,
0302
0000
0000
0000
1003
0010
0001
0100
,
0220
0330
2002
3003
,
1010
0000
0101
0000
0001
0010
1001
0100
,
0010
0000
1010
0000
1000
0100
1001
0010
,
0001
0000
0101
0000
0001
0010
1000
0010
,
0001
0100
1000
0100
0001
0010
0100
1000
,
1100
0000
0011
0000
0001
0100
1010
0001
,
0100
0000
1100
0000
1000
0010
0101
1000
,
0010
0000
0011
0000
0001
0100
1000
0100
,
0001
0010
1000
0010
0001
0100
0010
1000
,
0002
0000
0003
0200
0300
0020
0030
1000
,
2000
0000
3000
0002
0000
2000
0000
3003
,
0001
0100
0001
0000
0010
0000
0100
1000
0100
0000
0010
0001
0010
0000
0100
0010
,
0100
0010
0100
0000
1000
0000
0010
0100
0010
0000
1000
0001
1000
0000
0010
0000
,
0100
0001
0100
0000
0010
0000
1000
0100
1000
0000
0100
0010
0100
0000
0010
0001
,
0010
0000
0001
0000
0100
0000
0010
1000
0010
0000
0100
0001
0100
0000
0001
0000
,
0010
0100
0010
0100
1000
0000
0001
0000
0010
0100
0010
0100
1000
0000
0010
0000
,
0100
0001
0100
0000
0010
0000
1000
0000
0100
0010
0100
0010
0001
0010
0001
0010
,
0001
0100
0010
0000
1000
0000
0001
0010
0100
0000
0010
0100
1000
0000
0010
0100
,
0001
0100
0010
0000
1000
0000
0001
0100
0010
0000
1000
0010
0100
0000
0001
0000
,
1000
0100
0010
0000
0001
0000
0100
0010
1000
0000
0001
0010
0100
0000
1000
0100
,
0010
0000
0001
0000
0100
0000
0010
1000
0010
1000
0001
0100
0001
0100
0010
0000
,
1000
0100
0010
0000
0100
0000
1000
0010
0100
0000
1000
0100
0010
0000
0100
0001
,
0010
0001
0100
0000
0010
0000
0001
0010
0100
0000
0001
0100
0010
0000
1000
0000
,
0100
0010
0100
0010
0001
0000
1000
0000
0100
0010
0100
0010
0001
0000
1000
0000
,
0010
0100
0010
0100
0001
0100
0001
0100
0010
1000
0100
0010
0001
0100
0010
1000
,
0002
0000
0200
0003
0000
0301
0010
0100
,
2000
0000
0020
3000
0000
1030
0100
0010
,
0002
0000
0200
0003
0000
0301
0010
0100
,
2000
0000
3010
0100
0001
1000
0100
0010
,
0002
0000
0200
0003
0000
1300
0100
0001
,
0020
0000
2000
0030
0000
3010
0001
0100
,
0220
0330
2002
0000
0000
0000
0000
0000
,
0000
0000
0000
0000
,
3003
0000
0000
0000
;

//---------------dance-double - ----------------
#NOTES:
     dance-double:
     :
     Hard:
     15:
     0.598340,0.732740,0.199016,0.560863,0.000000,463.000000,441.000000,22.000000,62.000000,0.000000,0.000000,0.598340,0.732740,0.199016,0.560863,0.000000,463.000000,441.000000,22.000000,62.000000,0.000000,0.000000:
// measure 0
00000000
00000000
00000000
00000000
,  // measure 1
00000000
00000000
00000000
00000000
,  // measure 2
00000000
00000000
00000000
00000000
,  // measure 3
00000000
00000000
00000000
00000000
,  // measure 4
00000000
00000000
00000000
00000000
,  // measure 5
00000000
00000000
00000000
00000000
,  // measure 6
00000000
00000000
00000000
00000000
,  // measure 7
00000000
00000000
00000000
00000000
,  // measure 8
00000000
00000000
00000000
00000000
,  // measure 9
00000000
00000000
00000000
00000000
,  // measure 10
00022000
00000000
00030000
00000000
00103000
00010000
00000000
00010000
,  // measure 11
02000000
00000000
03002000
00000000
,  // measure 12
00023000
00000000
00000000
00000000
00030100
00001000
00000000
00001000
,  // measure 13
00000020
00000000
00020030
00032000
,  // measure 14
00203000
00000000
00000000
00000000
00310000
01000000
00000000
01000000
,  // measure 15
00002000
00000000
00023000
00000000
,  // measure 16
00030200
00000000
00000000
00000000
00000310
00000001
00000000
00000001
,  // measure 17
00000200
00000000
00002300
00000000
00013000
00001000
00010000
00100000
,  // measure 18
20200000
00000000
00300000
00000000
31000000
00010000
00000000
00010000
,  // measure 19
00002000
00000000
00003020
00000000
,  // measure 20
00000032
00000000
00000000
00000000
00000103
00001000
00000000
00001000
,  // measure 21
00020000
00000000
00230000
00000000
,  // measure 22
20300000
00000000
00000000
00000000
31000000
00010000
00000000
00010000
,  // measure 23
00002000
00000000
00003200
00000000
,  // measure 24
00000302
00000000
00000000
00000000
00000013
00001000
00000000
00001000
,  // measure 25
00020000
00000000
00230000
00000000
,  // measure 26
10300000
01000000
00100000
00010000
00000000
00000000
00000000
00000000
,  // measure 27
00001000
00000100
00000010
00000001
00000000
00000000
00000000
00000000
,  // measure 28
00000010
00000100
00001000
00010000
00000000
00000000
00000000
00000000
,  // measure 29
00010000
01000000
00100000
00010000
00001000
00010000
00001000
00000010
,  // measure 30
00000001
00000100
00000010
00001000
00000000
00000000
00000000
00000000
,  // measure 31
00010000
01000000
00100000
10000000
00000000
00000000
00000000
00000000
,  // measure 32
00100000
01000000
00010000
00210000
00000000
00302000
00000000
00010000
,  // measure 33
00020000
00000000
00003000
00000000
00031000
00000100
00000010
00000100
,  // measure 34
00000101
00000000
00000001
00000010
00001000
00010000
00000010
00001000
,  // measure 35
00000001
00000010
00001000
00020000
00000000
00031000
00001000
00010000
,  // measure 36
01000000
10000000
00100000
00010000
00100000
10000000
01000000
00010000
,  // measure 37
00001000
00010000
01000000
10000000
00100000
00010000
00100000
10000000
,  // measure 38
11000000
00000000
10000000
00100000
00010000
00001000
00100000
00010000
,  // measure 39
10000000
00100000
00010000
00002000
00000000
00013000
00010000
00001000
,  // measure 40
00000100
00000001
00000010
00001000
00000010
00000001
00000100
00001000
,  // measure 41
00010000
00001000
00000100
00000001
00000010
00001000
00000010
00000001
,  // measure 42
00000101
00000000
00000100
00000010
00001000
00000100
00000010
00001000
,  // measure 43
00010000
01000000
00100000
00020000
00000000
01030000
01000000
10000000
,  // measure 44
01000000
00100000
00010000
00001000
00010000
00100000
00010000
00001000
,  // measure 45
00000100
00001000
00010000
00001000
00000100
00000010
00000100
00000001
,  // measure 46
00000011
00000000
00000010
00000100
00001000
00000010
00000100
00001000
,  // measure 47
00010000
00100000
01000000
00020000
00000000
00130000
00100000
10000000
,  // measure 48
00100000
01000000
00010000
00001000
00010000
01000000
00010000
00001000
,  // measure 49
00000010
00001000
00010000
00001000
00000010
00000100
00000010
00000001
,  // measure 50
00000201
00000000
00000000
00000000
00001300
00010000
00000000
00010000
,  // measure 51
00200000
00000000
20300000
00000000
,  // measure 52
32000000
00000000
00000000
00000000
03010000
00001000
00000000
00001000
,  // measure 53
00000020
00000000
00000032
00000000
,  // measure 54
00000203
00000000
00000000
00000000
00001300
00010000
00000000
00010000
,  // measure 55
00200000
00000000
20300000
00000000
,  // measure 56
32000000
00000000
00000000
00000000
03010000
00001000
00000000
00001000
,  // measure 57
00020000
00000000
00002000
00033000
,  // measure 58
00011000
00000000
00011000
00000000
00001000
00000010
00000001
00000100
,  // measure 59
00001000
00000000
00011000
00000000
00010000
00100000
10000000
01000000
,  // measure 60
00010000
00000000
00011000
00000000
00001000
00000010
00000001
00000100
,  // measure 61
00001000
00010000
00100000
10000000
01000000
00010000
00001000
00000010
,  // measure 62
00000001
00000000
00001001
00000000
00001000
00000100
00010000
01000000
,  // measure 63
00100000
00000000
10010000
00000000
00010000
01000000
00001000
00000100
,  // measure 64
00000010
00000000
00001001
00000000
00000001
00000010
00000100
00001000
,  // measure 65
00000010
00000100
00001000
00010000
00100000
01000000
00010000
00100000
,  // measure 66
02000000
00000000
00000000
23000000
00000000
30200000
00000000
00010000
,  // measure 67
00320000
00000000
00000000
00001000
00000000
00000010
00000000
00030000
,  // measure 68
00001000
00001000
00010000
00100000
10000000
00010000
00100000
01000000
,  // measure 69
00010000
00001000
00010000
00100000
10000000
00010000
00100000
01000000
,  // measure 70
00010000
00010000
00001000
00000010
00000001
00001000
00000010
00000100
,  // measure 71
00001000
00010000
00001000
00000010
00000001
00001000
00000010
00000100
,  // measure 72
00000001
00000010
00001000
00010000
01000000
10000000
00100000
00010000
,  // measure 73
00001000
00000100
00000001
00000010
00000100
00001000
00010000
00100000
,  // measure 74
01000000
01000000
10000000
00100000
00010000
00001000
00100000
01000000
,  // measure 75
00010000
00001000
00000010
00000001
00001000
00000100
00000010
00000001
,  // measure 76
00000100
00000100
00000001
00000010
00001000
00010000
00000010
00000100
,  // measure 77
00001000
00010000
00100000
10000000
00010000
01000000
00100000
10000000
,  // measure 78
01000000
01000000
00100000
00010000
01000000
00100000
00010000
00001000
,  // measure 79
00100000
00010000
00001000
00000010
00010000
00001000
00000010
00000001
,  // measure 80
00000100
00000010
00001000
00010000
01000000
00100000
10000000
01000000
,  // measure 81
00100000
00010000
00001000
00000100
00000010
00000001
00000100
00001000
,  // measure 82
00021000
00000000
00230000
00000000
00000000
10300000
01000000
00010000
,  // measure 83
00012000
00000000
00003020
00000000
00000000
00000031
00000100
00001000
,  // measure 84
00021000
00000000
02030000
00000000
00000000
13000000
00100000
00010000
,  // measure 85
00011000
00000000
00001000
00000100
00000001
00000010
00001000
00010000
,  // measure 86
02010000
00000000
23000000
00000000
00000000
30100000
00010000
00001000
,  // measure 87
00001200
00000000
00000302
00000000
00000000
00000013
00000100
00001000
,  // measure 88
00021000
20000000
00000000
00000000
,  // measure 89
00000000
00000000
00000000
00000000
,  // measure 90
30030000
00000000
00000000
00000000
;

//---------------dance-double - ----------------
#NOTES:
     dance-double:
     :
     Challenge:
     17:
     0.713355,1.017694,0.253293,0.669417,0.343755,552.000000,524.000000,28.000000,74.000000,0.000000,0.000000,0.713355,1.017694,0.253293,0.669417,0.343755,552.000000,524.000000,28.000000,74.000000,0.000000,0.000000:
// measure 0
00000000
00000000
00000000
00000000
,  // measure 1
00000000
00000000
00000000
00000000
,  // measure 2
00000000
00000000
00000000
00000000
,  // measure 3
00000000
00000000
00000000
00000000
,  // measure 4
00000000
00000000
00000000
00000000
,  // measure 5
00000000
00000000
00000000
00000000
,  // measure 6
00000000
00000000
00000000
00000000
,  // measure 7
00000000
00000000
00000000
00000000
,  // measure 8
00000000
00000000
00000000
00000000
,  // measure 9
00000000
00000000
00000000
00000000
,  // measure 10
00022000
00000000
00003000
00000000
00031000
00000100
00000010
00001000
,  // measure 11
00001002
00000203
00002300
00000000
,  // measure 12
00020000
00000000
00003000
00000000
00031000
00010000
00100000
01000000
,  // measure 13
01020000
20030000
32000000
03200000
,  // measure 14
00002000
00000000
00300000
00000000
00103000
00001000
00010000
00000100
,  // measure 15
00000120
00000032
00000203
00000000
,  // measure 16
00002000
00000000
00000300
00000000
00003100
00001000
00010000
00100000
,  // measure 17
20100000
00000000
00000000
00000000
32000000
00000000
00000000
00000000
03010000
00000000
00010000
00001000
00100000
00000000
00001000
00010000
,  // measure 18
00000020
00000000
00000000
00000000
00000130
00000001
00000010
00000100
,  // measure 19
00020100
00032000
00203000
00000000
,  // measure 20
02000000
00000000
00300000
00000000
13000000
00100000
00010000
00001000
,  // measure 21
00021000
00030200
00000320
00000000
,  // measure 22
00000002
00000000
00000030
00000000
00000103
00001000
00010000
00100000
,  // measure 23
20100000
32000000
03020000
00000000
,  // measure 24
00002000
00000000
00030000
00000000
00103000
01000000
00010000
00001000
,  // measure 25
00001020
00000032
00000203
00000000
,  // measure 26
00002300
00000000
00000000
00000000
,  // measure 27
00023000
00000000
00000000
00000000
,  // measure 28
00230000
00000000
00000000
00000000
,  // measure 29
10300000
01000000
00010000
00001000
00000010
00000001
00000100
00001000
,  // measure 30
00020000
00000000
00000000
00000000
,  // measure 31
00030200
00000000
00000000
00000000
,  // measure 32
00000310
00000001
00000100
00002100
00000000
00023000
00000000
00000000
,  // measure 33
00200000
00000000
00000000
00000000
00030000
00000000
00000000
00000000
10300000
01000000
10000000
01000000
10000000
01000000
10000000
01000000
,  // measure 34
00100000
00000000
00101000
00001000
00010000
01000000
10000000
00010000
,  // measure 35
10000000
00100000
00010000
00001000
00010000
01000000
10000000
00100000
,  // measure 36
00010000
00001000
00010000
00000000
00100000
00000000
00010000
00001000
00010000
00000000
00000010
00001000
00000010
00000000
00000100
00000001
,  // measure 37
00000100
00000010
00001000
00000100
00000001
00000100
00000010
00000001
,  // measure 38
00000100
00000000
00001100
00001000
00000100
00000010
00001000
00000100
,  // measure 39
00000010
00001000
00010000
00100000
00010000
00001000
00010000
01000000
,  // measure 40
10000000
00100000
10000000
00000000
00010000
00000000
10000000
00100000
10000000
00000000
00010000
00100000
00010000
00000000
01000000
00100000
,  // measure 41
01000000
00000000
00001000
00010000
00001000
00000000
00000100
00000010
00000100
00000000
00000001
00000000
00001000
00000100
00001000
00000100
,  // measure 42
00010000
00000000
00010010
00010000
00001000
00000100
00000001
00001000
,  // measure 43
00000001
00000010
00001000
00010000
00001000
00000100
00000001
00000010
,  // measure 44
00001000
00010000
00001000
00000000
00000010
00000000
00001000
00010000
00001000
00000000
00100000
00010000
00100000
00000000
01000000
10000000
,  // measure 45
01000000
00100000
00010000
01000000
10000000
01000000
00100000
10000000
,  // measure 46
01000000
00000000
01010000
00010000
01000000
00100000
00010000
01000000
,  // measure 47
00100000
00010000
00001000
00000010
00001000
00010000
00001000
00000100
,  // measure 48
00000001
00000010
00000001
00000000
00001000
00000000
00000001
00000010
00000001
00000000
00001000
00000010
00001000
00000000
00000100
00000010
,  // measure 49
00000100
00000000
00010000
00001000
00010000
00000000
01000000
00100000
01000000
00000000
10000000
00000000
00010000
01000000
00010000
01000000
,  // measure 50
00002000
00000000
00000000
00000000
00013000
00001000
00000100
00000001
,  // measure 51
00000021
00000000
00002030
00000000
,  // measure 52
00023000
00000000
00000000
00000000
00031000
00010000
00100000
10000000
,  // measure 53
12000000
00000000
03020000
00000000
,  // measure 54
00032000
00000000
00000000
00000000
00013000
00001000
00000010
00000001
,  // measure 55
00000201
00000000
00002300
00000000
,  // measure 56
00023000
00000000
00000000
00000000
00031000
00010000
01000000
10000000
,  // measure 57
20200000
30300000
02020000
03030000
,  // measure 58
01100000
00000000
10010000
00000000
10000000
01000000
00100000
00010000
,  // measure 59
00001000
00000000
00011000
00000000
00010000
00001000
00000100
00000010
,  // measure 60
00000001
00000000
00001001
00000000
00000001
00000100
00001000
00010000
,  // measure 61
00100000
10000000
01000000
00010000
00001000
00000010
00000001
00000100
,  // measure 62
00000110
00000000
00001001
00000000
00000001
00000100
00000010
00001000
,  // measure 63
00010000
00000000
00011000
00000000
00001000
00010000
01000000
00100000
,  // measure 64
10000000
00000000
10010000
00000000
10000000
00100000
00010000
00001000
,  // measure 65
00000100
00000001
00000010
00001000
00010000
01000000
10000000
00100000
,  // measure 66
02100000
00000000
03000000
00002000
00003000
00020000
00030000
00000100
,  // measure 67
00000200
00000000
00000300
00002000
00000000
00000002
00000000
00003003
,  // measure 68
00000001
00000100
00000001
00000000
00000010
00000000
00000100
00001000
00000100
00000000
00010000
00001000
00010000
00000000
00100000
01000000
,  // measure 69
00100000
00000000
10000000
00000000
01000000
00000000
00100000
00010000
00100000
00000000
01000000
10000000
01000000
00000000
00010000
00000000
,  // measure 70
00001000
00010000
00001000
00000000
00000100
00000000
00000001
00000010
00000001
00000000
00000100
00000010
00000100
00000000
00000001
00001000
,  // measure 71
00000001
00000000
00000100
00000000
00001000
00000000
00010000
00001000
00010000
00000000
00100000
10000000
00100000
00000000
01000000
00000000
,  // measure 72
00010000
00100000
01000000
00000000
00010000
00000000
00001000
00000000
00000010
00000100
00001000
00000000
00000010
00000000
00000100
00000000
,  // measure 73
00000001
00001000
00000100
00000000
00010000
00000000
00001000
00000000
00100000
00010000
00100000
00010000
10000000
01000000
10000000
01000000
,  // measure 74
00100000
00000000
00100000
00000000
00010000
00000000
01000000
00100000
10000000
00000000
00100000
01000000
00010000
00000000
00100000
00001000
,  // measure 75
00010000
00000000
00001000
00000000
00000100
00000000
00000001
00001000
00000100
00000000
00001000
00000001
00000010
00000000
00000100
00000000
,  // measure 76
00010000
00001000
00100000
00000000
00001000
00000000
00010000
00000100
00001000
00000000
00000100
00000010
00000001
00000000
00001000
00000100
,  // measure 77
00000010
00000000
00000001
00000000
00000100
00000000
00001000
00010000
00001000
00010000
00001000
00100000
00001000
00100000
00010000
00000000
,  // measure 78
01000000
00100000
10000000
00000000
01000000
00000000
00100000
00010000
01000000
00000000
00001000
00010000
00000100
00000000
00001000
00000100
,  // measure 79
00000010
00000000
00000001
00000000
00000100
00000000
00001000
00010000
00000100
00000000
00010000
00001000
00100000
00000000
00010000
00000000
,  // measure 80
00100000
01000000
10000000
00000000
00100000
00000000
00010000
00000000
00000010
00001000
00000100
00000000
00000010
00000000
00000001
00000000
,  // measure 81
00000100
00001000
00000100
00001000
00010000
00000000
01000000
00000000
10000000
00100000
10000000
00100000
01000000
00010000
01000000
00010000
,  // measure 82
00200000
00000000
00002000
00300000
00000000
00013000
00001000
00000100
,  // measure 83
00000002
00000000
00000020
00000003
00000000
00000031
00000010
00001000
,  // measure 84
00020000
00000000
00002000
00030000
00000000
00013000
00100000
10000000
,  // measure 85
02000000
00000000
03100000
01000000
10000000
00100000
00010000
00001000
,  // measure 86
00000200
00000000
00000002
00000300
00000000
00000103
00000001
00000010
,  // measure 87
00002000
00000000
00020000
00003000
00000000
00031000
00010000
00100000
,  // measure 88
20000000
00020000
00000000
00000000
,  // measure 89
00000000
00000000
00000000
00000000
,  // measure 90
30030000
00000000
00000000
00000000
;

//---------------dance-single - ----------------
#NOTES:
     dance-single:
     :
     Beginner:
     4:
     0.147323,0.239497,0.000000,0.054277,0.000000,114.000000,114.000000,0.000000,6.000000,0.000000,0.000000,0.147323,0.239497,0.000000,0.054277,0.000000,114.000000,114.000000,0.000000,6.000000,0.000000,0.000000:
0000
0000
0000
0000
,
0000
0000
0000
0000
,
0000
0000
0000
0000
,
0000
0000
0000
0000
,
0000
0000
0000
0000
,
0000
0000
0000
0000
,
0000
0000
0000
0000
,
0000
0000
0000
0000
,
0000
0000
0000
0000
,
0000
0000
0000
0000
,
1000
0000
0000
0000
,
1000
0000
0000
0000
,
1000
0000
0000
0000
,
1000
0000
0000
0000
,
0001
0000
0000
0000
,
0001
0000
0000
0000
,
0001
0000
0000
0000
,
0001
0000
0000
0000
,
0100
0000
0000
0000
,
0100
0000
0000
0000
,
0100
0000
0000
0000
,
0100
0000
0000
0000
,
0010
0000
0000
0000
,
0010
0000
0000
0000
,
0010
0000
0000
0000
,
0010
0000
0000
0000
,
1000
0000
0000
0000
,
0001
0000
0000
0000
,
0100
0000
0000
0000
,
0010
0000
0000
0000
,
1000
0000
0000
0000
,
0001
0000
0000
0000
,
0100
0000
0000
0000
,
0010
0000
0000
0000
,
0010
0000
0010
0000
,
1000
0000
1000
0000
,
0010
0000
1000
0000
,
0010
0000
1000
0000
,
0001
0000
0001
0000
,
0100
0000
0100
0000
,
0001
0000
0100
0000
,
0001
0000
0100
0000
,
0001
0000
0001
0000
,
0010
0000
0010
0000
,
0001
0000
0010
0000
,
0001
0000
0010
0000
,
0100
0000
0100
0000
,
1000
0000
1000
0000
,
0100
0000
1000
0000
,
0100
0000
1000
0000
,
0200
0000
0300
0000
,
0000
0000
0000
0000
,
0020
0000
0030
0000
,
0000
0000
0000
0000
,
0002
0000
0003
0000
,
0000
0000
0000
0000
,
2000
0000
3000
0000
,
0000
0000
0000
0000
,
0010
0010
0000
0000
,
0100
0000
0100
0000
,
0100
0100
0000
0000
,
0001
0000
0001
0000
,
0001
0001
0000
0000
,
1000
0000
1000
0000
,
1000
1000
0000
0000
,
0010
0000
0001
0000
,
0200
0000
0000
0000
,
0300
0000
0100
0100
,
1000
0000
0001
0000
,
1000
0000
0001
0000
,
0100
0000
0010
0000
,
0100
0000
0010
0000
,
1000
0000
0001
0000
,
0200
0000
0300
0000
,
0100
0000
0001
0000
,
0010
0000
0100
0000
,
1000
0000
0010
0000
,
0100
0000
0001
0000
,
0010
0000
0100
0000
,
1000
0000
0010
0000
,
0100
0000
0001
0000
,
1000
0000
0100
0000
,
0010
0000
0000
0000
,
0001
0000
0000
0000
,
0100
0000
0000
0000
,
1000
0000
0000
0000
,
0010
0000
0000
0000
,
0001
0000
0000
0000
,
0100
0100
0000
0000
;

//---------------dance-single - ----------------
#NOTES:
     dance-single:
     :
     Easy:
     8:
     0.262339,0.407078,0.126646,0.262339,0.000000,203.000000,189.000000,14.000000,29.000000,0.000000,0.000000,0.262339,0.407078,0.126646,0.262339,0.000000,203.000000,189.000000,14.000000,29.000000,0.000000,0.000000:
0000
0000
0000
0000
,
0000
0000
0000
0000
,
0000
0000
0000
0000
,
0000
0000
0000
0000
,
0000
0000
0000
0000
,
0000
0000
0000
0000
,
0000
0000
0000
0000
,
0000
0000
0000
0000
,
0000
0000
0000
0000
,
0000
0000
0000
0000
,
1000
0000
1000
0000
,
1000
0000
1000
0000
,
0001
0000
0001
0000
,
0001
0000
0001
0000
,
0100
0000
0100
0000
,
0100
0000
0100
0000
,
0010
0000
0010
0000
,
0010
0000
0010
0010
,
1000
0000
0100
0000
,
0010
0000
0001
0000
,
1000
0000
0100
0000
,
0010
0000
0010
0000
,
0001
0000
0100
0000
,
0010
0000
1000
0000
,
0001
0000
0100
0000
,
0010
0000
0010
0000
,
2000
0000
3000
0000
,
0002
0000
0003
0000
,
0200
0000
0300
0000
,
0020
0030
0200
0300
,
0002
0000
0003
0000
,
2000
0000
3000
0000
,
0020
0000
0030
0000
,
0200
0300
0010
0010
,
1000
0100
1000
0000
,
0001
0100
0001
0000
,
1000
0100
1000
0001
,
0100
0001
1000
0000
,
0001
0010
0001
0000
,
1000
0010
1000
0000
,
0001
0010
0001
1000
,
0010
1000
0001
0000
,
1000
0100
0010
0000
,
0010
0001
0100
0000
,
0100
0010
1000
0010
,
0100
0001
0100
0000
,
0001
0010
0100
0000
,
0100
1000
0010
0000
,
0100
0001
0100
0010
,
1000
0010
0100
0100
,
0002
0000
0003
0000
,
2000
0000
3000
0000
,
0020
0000
0030
0000
,
0200
0000
0300
0000
,
0002
0000
0003
0000
,
2000
0000
3000
0000
,
0200
0000
0300
0000
,
0020
0000
0030
0000
,
0001
0001
0000
0101
,
0000
1100
0000
1010
,
1000
1000
0000
1100
,
0000
0101
0000
0011
,
0001
0001
0000
0101
,
0000
1010
0000
1100
,
1000
1000
0000
1010
,
0000
0101
0000
0011
,
0002
0000
0000
0003
,
0200
0300
0010
0010
,
1000
0100
0010
0001
,
1000
0100
0010
0010
,
0001
0010
0100
1000
,
0001
0010
0100
0100
,
1000
0010
0100
0001
,
2002
0000
0000
3003
,
1000
0100
1000
0100
,
0001
0100
0001
0100
,
1000
0100
0001
0100
,
1000
0100
0001
0100
,
0010
1000
0010
1000
,
0010
0001
0010
0001
,
0010
1000
0010
0001
,
0010
1000
0010
0100
,
0020
0000
0030
0000
,
2000
0000
3000
0000
,
0200
0000
0300
0000
,
0002
0000
0003
0000
,
0020
0000
0030
0000
,
0200
0000
0300
0000
,
2002
0000
0000
0000
,
0000
0000
0000
0000
,
3003
0000
0000
0000
;

//---------------dance-single - ----------------
#NOTES:
     dance-single:
     :
     Medium:
     10:
     0.417416,0.610617,0.180923,0.325662,0.000000,323.000000,303.000000,20.000000,36.000000,0.000000,0.000000,0.417416,0.610617,0.180923,0.325662,0.000000,323.000000,303.000000,20.000000,36.000000,0.000000,0.000000:
0000
0000
0000
0000
,
0000
0000
0000
0000
,
0000
0000
0000
0000
,
0000
0000
0000
0000
,
0000
0000
0000
0000
,
0000
0000
0000
0000
,
0000
0000
0000
0000
,
0000
0000
0000
0000
,
0000
0000
0000
0000
,
0000
0000
0000
0000
,
2000
0000
3001
1000
,
0002
0000
1003
0001
,
0200
0000
0301
1000
,
0020
0000
1030
0100
,
0020
0000
0031
0010
,
0200
0000
1300
0010
,
0200
0000
0301
0100
,
0020
0000
0000
0000
1030
0001
1000
0001
,
0200
0000
0310
1000
,
0020
0000
0130
0001
,
0200
0000
0310
1000
,
0002
0000
0013
0001
,
2000
0000
3100
1000
,
0200
0000
0310
0001
,
0020
0000
0031
0100
,
0020
0000
1030
0010
,
0110
0000
0000
0000
,
1001
0000
0000
0000
,
0110
0000
0000
0000
,
1001
0100
0010
0100
,
1001
0000
0000
0000
,
0110
0000
0000
0000
,
1001
0010
0100
0010
,
0220
0330
0100
0100
,
1001
0000
1000
0100
0000
0100
0000
0100
,
0010
0000
0001
0100
0000
0100
0000
0000
,
0010
1000
0010
0000
0100
0000
0001
0000
,
0010
0100
0010
0000
0001
0000
0100
0000
,
0010
0000
1000
0100
0000
0100
0000
0010
,
0001
0000
1000
0010
0000
0010
0000
0000
,
0100
0001
0100
0000
0001
0000
0010
0000
,
0100
0010
0100
0000
0010
0000
0001
0000
,
1001
0000
1000
0010
0000
0010
0000
0100
,
0001
0000
0010
0100
0000
0100
0000
0000
,
1000
0010
1000
0000
0001
0000
0010
0000
,
0100
1000
0100
0000
0010
0000
0001
0000
,
0100
0000
0010
1000
0000
1000
0000
0100
,
0010
0000
0001
0100
0000
0100
0000
0000
,
0010
1000
0010
0000
0100
0000
0001
0000
,
0010
0001
0010
0000
0001
0000
0100
0000
,
0020
0000
1030
0100
,
0020
0000
0031
0100
,
0020
0000
1030
0100
,
0020
0000
0031
1000
,
0200
0000
1300
0010
,
0200
0000
0301
0010
,
0200
0000
1300
0010
,
0200
0000
0301
1000
,
1001
0000
0110
0000
0000
1000
0100
0010
,
0001
0000
1000
0000
0000
1000
0100
0010
,
0001
0000
1000
0000
0000
1000
0100
0010
,
0001
0101
1000
1100
,
1001
0000
0110
0000
0000
0001
0100
0010
,
1000
0000
0001
0000
0000
0001
0100
0010
,
1000
0000
0001
0000
0000
0001
0100
0010
,
1000
1100
0001
0101
,
2002
0000
0000
0000
,
0000
0000
0000
3003
,
1000
0010
1000
0000
0001
0000
1000
0000
,
0001
0100
0001
0000
1000
0000
0001
0000
,
1000
0100
1000
0000
0001
0000
1000
0000
,
0001
0010
0001
0000
1000
0000
0001
0000
,
0100
0010
0100
0000
0010
0100
0010
0000
,
2000
0000
0000
0000
3001
0010
0001
0010
,
0100
0000
1000
0010
1000
0000
0001
0000
,
0100
0000
0010
1000
0100
0000
0010
0000
,
0001
0000
0100
0010
0100
0000
0001
0000
,
1000
0000
0100
0010
0001
0000
1000
0000
,
0010
0100
0001
0000
0100
0010
1000
0000
,
0001
0010
0001
0000
1000
0100
1000
0000
,
0001
0010
0100
0000
1000
0100
0010
0000
,
0001
1000
0001
1000
0010
0100
0010
0100
,
0001
0020
0000
0031
,
0100
0020
0000
1030
,
0001
0200
0000
0310
,
1000
0100
0010
0001
,
1000
0020
0000
0031
,
1000
0200
0000
0301
,
1000
2002
0000
0000
,
0000
0000
0000
0000
,
3003
0000
0000
0000
;

//---------------dance-double - ----------------
#NOTES:
     dance-double:
     :
     Easy:
     7:
     0.253293,0.407078,0.126646,0.262339,0.000000,196.000000,182.000000,14.000000,29.000000,0.000000,0.000000,0.253293,0.407078,0.126646,0.262339,0.000000,196.000000,182.000000,14.000000,29.000000,0.000000,0.000000:
// measure 0
00000000
00000000
00000000
00000000
,  // measure 1
00000000
00000000
00000000
00000000
,  // measure 2
00000000
00000000
00000000
00000000
,  // measure 3
00000000
00000000
00000000
00000000
,  // measure 4
00000000
00000000
00000000
00000000
,  // measure 5
00000000
00000000
00000000
00000000
,  // measure 6
00000000
00000000
00000000
00000000
,  // measure 7
00000000
00000000
00000000
00000000
,  // measure 8
00000000
00000000
00000000
00000000
,  // measure 9
00000000
00000000
00000000
00000000
,  // measure 10
01000000
00000000
01000000
00000000
,  // measure 11
01000000
00000000
01000000
00000000
,  // measure 12
00001000
00000000
00001000
00000000
,  // measure 13
00001000
00000000
00001000
00000000
,  // measure 14
00010000
00000000
00010000
00000000
,  // measure 15
00010000
00000000
00010000
00000000
,  // measure 16
00000100
00000000
00000100
00000000
,  // measure 17
00000100
00000000
00000100
00000100
,  // measure 18
00001000
00000000
00000010
00000000
,  // measure 19
00010000
00000000
00001000
00000000
,  // measure 20
00100000
00000000
00010000
00000000
,  // measure 21
01000000
00000000
00001000
00000000
,  // measure 22
00010000
00000000
00000100
00000000
,  // measure 23
00001000
00000000
00000010
00000000
,  // measure 24
00010000
00000000
00001000
00000000
,  // measure 25
00100000
00000000
00010000
00000000
,  // measure 26
02000000
00000000
03000000
00000000
,  // measure 27
00200000
00000000
00300000
00000000
,  // measure 28
00020000
00000000
00030000
00000000
,  // measure 29
00002000
00003000
00000020
00000030
,  // measure 30
00000002
00000000
00000003
00000000
,  // measure 31
00000200
00000000
00000300
00000000
,  // measure 32
00002000
00000000
00003000
00000000
,  // measure 33
00020000
00030000
00100000
00100000
,  // measure 34
10000000
01000000
00100000
00000000
,  // measure 35
00010000
00100000
01000000
00000000
,  // measure 36
10000000
01000000
00010000
00000000
,  // measure 37
00001000
00000010
00000001
00000000
,  // measure 38
00000001
00000010
00000100
00000000
,  // measure 39
00001000
00000100
00000010
00000000
,  // measure 40
00000001
00000100
00001000
00000000
,  // measure 41
00010000
00100000
10000000
00000000
,  // measure 42
01000000
00100000
00010000
00000000
,  // measure 43
00100000
00001000
00010000
00000000
,  // measure 44
00000010
00010000
00001000
00000000
,  // measure 45
00000100
00000010
00001000
00000000
,  // measure 46
00000001
00000100
00001000
00000000
,  // measure 47
00010000
00100000
10000000
00000000
,  // measure 48
10000000
01000000
00010000
00000000
,  // measure 49
00001000
00000010
00000001
00001000
,  // measure 50
00001020
00000000
00000030
00000000
,  // measure 51
00020000
00000000
00030000
00000000
,  // measure 52
00002000
00000000
00003000
00000000
,  // measure 53
00200000
00000000
00300000
00000000
,  // measure 54
00020000
00000000
00030000
00000000
,  // measure 55
02000000
00000000
03000000
00000000
,  // measure 56
00002000
00000000
00003000
00000000
,  // measure 57
00020000
00000000
00030000
00000000
,  // measure 58
00000100
00000100
00000000
00001010
,  // measure 59
00000000
00011000
00000000
00110000
,  // measure 60
01000000
01000000
00000000
01010000
,  // measure 61
00000000
00011000
00000000
00001100
,  // measure 62
00000010
00000010
00000000
00001100
,  // measure 63
00000000
00011000
00000000
01010000
,  // measure 64
00100000
00100000
00000000
00110000
,  // measure 65
00000000
00011000
00000000
00001010
,  // measure 66
00000002
00000000
00000000
00000003
,  // measure 67
00000200
00000300
00000020
00000030
,  // measure 68
00001000
00000100
00000010
00000001
,  // measure 69
00001000
00000100
00000010
00000000
,  // measure 70
00010000
00100000
01000000
10000000
,  // measure 71
00010000
00100000
01000000
00000000
,  // measure 72
00010000
00001000
00010000
00001000
,  // measure 73
00022000
00000000
00000000
00033000
,  // measure 74
00010000
00001000
00010000
00001000
,  // measure 75
00000010
00001000
00000010
00001000
,  // measure 76
00000010
00000001
00000010
00000001
,  // measure 77
00000100
00000001
00000100
00000001
,  // measure 78
00000100
00001000
00000100
00001000
,  // measure 79
00010000
00001000
00010000
00001000
,  // measure 80
00010000
00100000
00010000
00100000
,  // measure 81
10000000
00100000
10000000
00100000
,  // measure 82
20000000
00000000
30000000
00000000
,  // measure 83
02000000
00000000
03000000
00000000
,  // measure 84
00200000
00000000
00300000
00000000
,  // measure 85
00020000
00000000
00030000
00000000
,  // measure 86
00002000
00000000
00003000
00000000
,  // measure 87
00000200
00000000
00000300
00000000
,  // measure 88
00000002
00000000
00000000
00000000
,  // measure 89
00000000
00000000
00000000
00000000
,  // measure 90
00000003
00000000
00000000
00000000
;

//---------------dance-double - ----------------
#NOTES:
     dance-double:
     :
     Medium:
     10:
     0.399324,0.569909,0.208062,0.325662,0.000000,309.000000,286.000000,23.000000,36.000000,0.000000,0.000000,0.399324,0.569909,0.208062,0.325662,0.000000,309.000000,286.000000,23.000000,36.000000,0.000000,0.000000:
// measure 0
00000000
00000000
00000000
00000000
,  // measure 1
00000000
00000000
00000000
00000000
,  // measure 2
00000000
00000000
00000000
00000000
,  // measure 3
00000000
00000000
00000000
00000000
,  // measure 4
00000000
00000000
00000000
00000000
,  // measure 5
00000000
00000000
00000000
00000000
,  // measure 6
00000000
00000000
00000000
00000000
,  // measure 7
00000000
00000000
00000000
00000000
,  // measure 8
00000000
00000000
00000000
00000000
,  // measure 9
00000000
00000000
00000000
00000000
,  // measure 10
00022000
00030000
00013000
00000100
,  // measure 11
00002000
00000000
00003100
00010000
,  // measure 12
00002000
00000000
01003000
00001000
,  // measure 13
00020000
00000000
00031000
01000000
,  // measure 14
00020000
00000000
10030000
01000000
,  // measure 15
00200000
00000000
00310000
01000000
,  // measure 16
00002000
00000000
00013000
00000100
,  // measure 17
00002000
00000000
00000000
00000000
00003010
00000100
00000010
00000100
,  // measure 18
00000002
00000000
00000013
00001000
,  // measure 19
00020000
00000000
00130000
10000000
,  // measure 20
02000000
00000000
03010000
00001000
,  // measure 21
00000020
00000000
00000031
00000100
,  // measure 22
00002000
00000000
00013000
00100000
,  // measure 23
20000000
00000000
31000000
00100000
,  // measure 24
00020000
00000000
01030000
00001000
,  // measure 25
00020000
00000000
00030010
00010000
,  // measure 26
00011000
00000000
00000000
00000000
,  // measure 27
10010000
00000000
00000000
00000000
,  // measure 28
00011000
00000000
00000000
00000000
,  // measure 29
00001001
00000000
00000110
00000000
,  // measure 30
00001001
00000000
00000000
00000000
,  // measure 31
00011000
00000000
00000000
00000000
,  // measure 32
10010000
00000000
01100000
00000000
,  // measure 33
20020000
30030000
10000000
00010000
,  // measure 34
10010000
00000000
10000000
01000000
00000000
10000000
00000000
01000000
,  // measure 35
00010000
00000000
00001000
00010000
00000000
00001000
00000000
00000000
,  // measure 36
00010000
00001000
00010000
00000000
00000100
00000000
00000010
00000000
,  // measure 37
00000001
00000100
00001000
00000100
,  // measure 38
00000101
00000000
00000001
00000010
00000000
00000001
00000000
00000010
,  // measure 39
00001000
00000000
00010000
00001000
00000000
00010000
00000000
00000000
,  // measure 40
00001000
00010000
00001000
00000000
00100000
00000000
01000000
00000000
,  // measure 41
10000000
00100000
00010000
00100000
,  // measure 42
10100000
00000000
10000000
01000000
00000000
00100000
00000000
01000000
,  // measure 43
00010000
00000000
00001000
00010000
00000000
00001000
00000000
00000000
,  // measure 44
00000010
00000001
00000010
00000000
00000100
00000000
00010000
00000000
,  // measure 45
00001000
00000100
00000001
00000010
,  // measure 46
00000011
00000000
00000001
00000010
00000000
00000100
00000000
00000010
,  // measure 47
00001000
00000000
00010000
00001000
00000000
00010000
00000000
00000000
,  // measure 48
01000000
10000000
01000000
00000000
00100000
00000000
00001000
00000000
,  // measure 49
00010000
00100000
10000000
01000000
,  // measure 50
21000000
00000000
30010000
01000000
,  // measure 51
00002000
00000000
00013000
00000100
,  // measure 52
00002000
00000000
00003010
00000100
,  // measure 53
00000002
00000000
00000013
00001000
,  // measure 54
00020000
00000000
00130000
10000000
,  // measure 55
02000000
00000000
03010000
00001000
,  // measure 56
00000020
00000000
00000031
00000100
,  // measure 57
00002000
00000000
00013000
00001000
,  // measure 58
00011000
00000000
00011000
00000000
00000000
00010000
01000000
00000000
,  // measure 59
10000000
00000000
00010000
00000000
00000000
10000000
00100000
00000000
,  // measure 60
00010000
00000000
00001000
00000000
00000000
00010000
01000000
00000000
,  // measure 61
10000000
00010000
01000000
01001000
,  // measure 62
00011000
00000000
00011000
00000000
00000000
00001000
00000100
00000000
,  // measure 63
00000001
00000000
00001000
00000000
00000000
00000001
00000010
00000000
,  // measure 64
00001000
00000000
00010000
00000000
00000000
00001000
00000100
00000000
,  // measure 65
00000001
00001000
00000100
00010100
,  // measure 66
00022000
00000000
00000000
00000000
,  // measure 67
00000000
00000000
00000000
00033000
,  // measure 68
00001000
00100000
00010000
00000000
00100000
00000000
01000000
00000000
,  // measure 69
10000000
00100000
01000000
00000000
00010000
00000000
00100000
00000000
,  // measure 70
00001000
00010000
00000100
00000000
00001000
00000000
00000010
00000000
,  // measure 71
00000100
00000001
00000010
00000000
00000100
00000000
00010000
00000000
,  // measure 72
00001000
00100000
00001000
00000000
00010000
00000010
00010000
00000000
,  // measure 73
00002000
00000000
00000000
00000000
00103000
00010000
00100000
01000000
,  // measure 74
10000000
00000000
00100000
00010000
00001000
00000000
00010000
00000000
,  // measure 75
00001000
00000000
00000100
00000001
00000010
00000000
00001000
00000000
,  // measure 76
00000010
00000000
00001000
00010000
00100000
00000000
00010000
00000000
,  // measure 77
00100000
00000000
10000000
01000000
00010000
00000000
00001000
00000000
,  // measure 78
00010000
00000100
00000010
00000000
00000001
00000000
00000100
00000000
,  // measure 79
00001000
00010000
00000100
00000000
00001000
00000000
00000010
00000000
,  // measure 80
00010000
00001000
00100000
00000000
01000000
00000000
10000000
00000000
,  // measure 81
00100000
00010000
00100000
00010000
00001000
00010000
00001000
00010000
,  // measure 82
00000010
00000200
00000000
00000301
,  // measure 83
00000010
00002000
00000000
00013000
,  // measure 84
01000000
20000000
00000000
30100000
,  // measure 85
01000000
00010000
10000000
01000000
,  // measure 86
00100000
00002000
00000000
00013000
,  // measure 87
00000100
00000020
00000000
00000031
,  // measure 88
00000100
00002000
00000000
00000000
,  // measure 89
00000000
00000000
00000000
00000000
,  // measure 90
00003000
00000000
00000000
00000000
;
