#TITLE:Test Flight;
#SUBTITLE:;
#ARTIST:黒魔;
#TITLETRANSLIT:;
#SUBTITLETRANSLIT:;
#ARTISTTRANSLIT:Chroma;
#GENRE:VARIETY;
#CREDIT:MUINELIM;
#BANNER:Test Flight.png;
#BACKGROUND:Test Flight-bg.png;
#LYRICSPATH:;
#CDTITLE:;
#MUSIC:Test Flight.ogg;
#OFFSET:0.000000;
#SAMPLESTART:58.085106;
#SAMPLELENGTH:11.469357;
#LASTBEATHINT:335.624756;
#SELECTABLE:YES;
#BPMS:0.000000=94,10.000000=188,232.000000=94,248.000000=188,358.500000=94
;
#STOPS:10.000000=0.319149,231.000000=2.234039,358.500000=2.712769
;
#BGCHANGES:;
#KEYSOUNDS:;
#ATTACKS:;

//---------------dance-single - ----------------
#NOTES:
     dance-single:
     :
     Hard:
     13:
     0.623101,0.822879,0.449660,0.314762,0.179864,582.000000,522.000000,60.000000,42.000000,0.000000,0.000000,0.623101,0.822879,0.449660,0.314762,0.179864,582.000000,522.000000,60.000000,42.000000,0.000000,0.000000:
0000
0000
0000
0000
,
0000
0000
0000
0000
,
0000
0000
0000
0000
0000
0000
1000
0100
,
1000
0100
0010
0001
0010
0100
0000
0100
,
0000
1000
0000
0010
0100
0001
0100
0000
,
0010
1010
0000
1000
0000
0001
0000
1000
,
0100
0010
0100
0010
0000
0011
0000
0001
,
0100
0010
0100
0001
0100
0010
0000
1000
,
1100
0001
0001
0100
,
0010
1000
0010
0100
0001
0010
0011
0011
,
0000
0000
1100
1100
0000
0000
1001
1000
,
0010
0100
0001
0100
0010
0001
0000
0010
,
0000
0010
0000
1000
0100
0010
0100
0000
,
0010
0011
0000
0100
0000
1010
0000
1000
,
0100
0010
0001
0101
0000
1100
0000
1000
,
0010
0100
0010
0110
0000
1001
0000
1000
,
0010
0100
0001
0101
0000
1010
0000
1000
,
0100
0001
0100
0010
0001
0100
0220
0000
,
0330
2002
3003
1001
,
0001
0100
1000
0010
,
0001
0010
0100
0000
1000
0000
0010
0000
,
0001
0100
0000
1000
0010
1000
0010
0100
,
0001
0100
0001
0010
0100
0010
0100
0000
,
1000
0010
0001
0100
,
1000
0100
0010
0000
0001
0000
0100
0000
,
1000
0100
0000
0010
0100
0001
0010
0100
,
1000
0010
0100
0001
0010
0100
0100
0000
,
1000
0100
0010
0000
0001
0100
1000
0000
,
1000
0010
0001
0000
0110
0000
1000
0100
,
0010
0100
0001
0100
0010
0100
1000
0000
,
0010
0001
0000
0001
0100
0010
1010
1010
,
0000
0000
0101
0000
0101
0000
0000
0000
0001
0000
0000
1000
0000
0000
0010
0000
,
0010
0000
0100
0000
0010
1000
0000
0000
0001
0100
0001
0000
0200
0000
0000
0000
,
0000
0000
0000
0000
0310
0000
0010
0000
2000
0000
0000
0000
3100
0000
0000
0100
,
0000
0000
0010
0000
0000
0010
0000
0000
0001
0000
0100
0000
0010
0000
0000
0000
,
1000
0000
0000
1000
0000
0000
0001
0000
0201
0000
0000
0000
0000
0000
0000
0000
,
0000
0000
0310
1000
0100
0010
0011
0000
,
0000
0101
0000
0000
1100
0000
1000
0010
,
0100
0000
1000
0000
0100
0000
0001
0000
0100
0000
0010
0000
1000
0000
0000
1000
,
0000
0001
0021
0000
0000
0000
0130
1000
,
0100
0000
0010
0000
0001
0100
0001
0000
1000
0000
0010
0000
0110
0000
0000
0000
,
0000
0101
0000
0000
1010
1000
0100
0001
,
0000
0100
0010
0001
1000
0010
0210
0000
,
0001
1000
0301
0012
,
0100
1000
0013
2010
,
0100
0001
3010
0210
,
1000
0000
0001
0000
1300
0000
0100
0010
,
1000
0000
0010
0100
0001
0000
1000
0100
,
0010
0000
0001
0010
0100
0000
1000
0010
,
1000
0010
0001
0010
0001
0010
1000
0001
,
0100
1000
0001
0010
0100
0001
0020
0000
,
1000
0100
0001
1000
,
0001
0100
1000
0001
,
1000
0000
0100
0000
0001
0000
0130
0100
,
1000
0010
0001
0010
0100
0001
0010
1000
,
0100
0010
0001
0100
0010
0000
0100
0001
,
0010
0000
0100
0000
1000
0000
0010
0000
0100
0000
0000
0000
0001
0010
0001
0000
,
0100
0000
0010
0000
1000
0100
1000
0000
0010
0000
0100
0000
0110
0000
0000
0000
,
1001
0000
0000
0001
0100
0000
0010
1000
0000
0100
0010
0100
0000
1000
0000
0010
,
0001
0010
0001
0100
0000
0010
1000
0100
0000
0010
0001
0010
0200
0000
2300
0000
,
3001
0000
0001
0100
0000
1000
0000
1000
0000
0001
0010
0100
1000
0010
0100
0000
,
0010
0000
0000
1000
0000
0000
0010
0000
0000
0100
0000
0000
0000
0000
0000
0001
0000
0000
0010
0000
0000
0100
0000
0000
1000
0000
0000
0000
0100
0000
0000
0000
0010
0000
0000
0000
0002
0000
0000
0000
0000
0000
2003
0000
0000
0000
0000
0000
,
3010
0000
0000
0010
0100
0000
0100
0001
,
0000
0001
0010
1000
0000
1000
0000
0100
,
0100
0001
1000
0010
0000
0001
0100
1000
,
0000
0000
0001
0000
0010
0000
0100
0000
0020
0000
0000
0000
1030
0000
1000
0100
,
1000
0010
0001
0010
0000
0100
1000
0100
,
0000
0000
0010
0000
0100
0000
0020
0000
0000
0000
2030
0000
0000
0000
3001
0100
,
0001
0010
1000
0010
0000
0100
0001
0100
,
0000
1000
0010
0021
0000
0130
0100
0010
,
2001
3200
0320
0032
,
0203
2300
3002
0023
,
2030
3200
0320
0032
,
1003
0000
0000
0000
1000
0010
1000
0000
0000
0100
1000
0000
0010
0000
0001
0000
,
0100
0000
0000
0010
0000
0000
1000
0000
1002
0000
0000
0000
0000
0000
0000
0000
,
0000
0000
0000
0000
0103
0010
1000
0001
,
0101
0000
0000
1100
0000
0000
1010
0010
,
0100
0000
0001
0000
0000
1000
0100
0000
1000
0000
1000
0000
0010
0000
0100
0000
,
0001
0000
0000
1000
0000
0000
0010
0000
0210
0000
0000
0000
0000
0000
0000
0000
,
0000
0000
0000
0000
0000
0000
0000
0000
0301
0010
0001
0000
0010
0000
0100
0000
,
1100
0000
0000
1010
0000
0000
0011
0001
,
0001
0200
0000
1300
0100
0010
0100
0001
,
0011
0000
0000
1100
0000
0000
0000
2002
,
0000
0000
0000
3003
0000
1000
0001
1000
,
1010
0000
0000
0101
0000
0000
0000
0220
,
0000
0330
0110
1001
,
0001
0010
0100
0010
1000
0001
0100
0010
,
0100
1000
0010
0001
1000
0100
0001
0010
,
0100
1000
0100
0000
1000
0000
0001
0000
0010
0001
0010
0000
0001
0000
1000
0000
,
0010
0100
0010
0000
1000
0001
1000
0000
0001
0000
1001
0000
1010
0000
0000
0011
,
0000
0000
0000
2200
0000
0000
0000
0000
0000
0000
0000
0000
0000
0000
0000
0000
,
0000
0000
3300
0000
;

//---------------dance-double - ----------------
#NOTES:
     dance-double:
     :
     Hard:
     13:
     0.602759,0.822879,0.419683,0.337245,0.123657,563.000000,507.000000,56.000000,45.000000,0.000000,0.000000,0.602759,0.822879,0.419683,0.337245,0.123657,563.000000,507.000000,56.000000,45.000000,0.000000,0.000000:
// measure 0
00000000
00000000
00000000
00000000
,  // measure 1
00000000
00000000
00000000
00000000
,  // measure 2
00000000
00000000
00000000
00000000
00000000
00000000
10000000
01000000
,  // measure 3
10000000
01000000
00100000
00010000
00100000
00001000
00000000
00001000
,  // measure 4
00000000
00010000
00000000
00000100
00001000
00000100
00000010
00000000
,  // measure 5
00000001
00000101
00000000
00001000
00000000
00010000
00000000
00100000
,  // measure 6
10000000
01000000
00100000
01000000
00000000
10010000
00000000
00010000
,  // measure 7
01000000
00001000
01000000
00100000
10000000
01000000
00000000
00010000
,  // measure 8
00011000
00000010
00000001
00000100
,  // measure 9
00001000
00010000
00100000
01000000
00010000
00100000
00101000
00101000
,  // measure 10
00000000
00000000
00010010
00010010
00000000
00000000
00011000
00001000
,  // measure 11
00100000
01000000
10000000
00100000
00010000
00001000
00000000
00000010
,  // measure 12
00000000
00000010
00000000
00000100
00000010
00000001
00000100
00000000
,  // measure 13
00001000
00001100
00000000
00010000
00000000
00101000
00000000
00001000
,  // measure 14
00010000
00100000
10000000
11000000
00000000
01100000
00000000
10000000
,  // measure 15
01000000
00010000
00001000
00001100
00000000
00000110
00000000
00000001
,  // measure 16
00000010
00001000
00010000
00010100
00000000
01001000
00000000
00001000
,  // measure 17
00010000
00100000
01000000
00100000
10000000
01000000
00020000
00000000
,  // measure 18
00000000
00002000
00033000
00011000
,  // measure 19
00010000
01000000
10000000
00100000
,  // measure 20
00010000
00010000
00001000
00000000
00000010
00000000
00000001
00000000
,  // measure 21
00000100
00000100
00000000
00001000
00000100
00000010
00010000
00001000
,  // measure 22
01000000
00100000
00010000
00001000
00000100
00000010
00001000
00000000
,  // measure 23
00000100
00010000
01000000
00001000
,  // measure 24
00000010
00000010
00010000
00000000
00100000
00000000
00001000
00000000
,  // measure 25
00000100
00000100
00000000
00000010
00000001
00000100
00001000
00010000
,  // measure 26
00100000
10000000
01000000
00010000
00001000
00100000
01000000
00000000
,  // measure 27
10000000
01000000
00100000
00000000
01000000
00010000
00001000
00000000
,  // measure 28
00010000
00001000
00000010
00000000
00000101
00000000
00000001
00000010
,  // measure 29
00000100
00010000
00001000
00100000
01000000
10000000
00100000
00000000
,  // measure 30
00010000
00001000
00000000
00000100
00000001
00000010
00000110
00000110
,  // measure 31
00000000
00000000
00001001
00000000
00001001
00000000
00000000
00000000
00000001
00000000
00000000
00000100
00000000
00000000
00001000
00000000
,  // measure 32
00010000
00100000
10000000
10000000
01000000
01000000
00200000
00000000
,  // measure 33
00000000
00000000
00000000
00000000
00301000
00000000
00010000
00000000
00000020
00000000
00000000
00000000
00000130
00000000
00000000
00000001
,  // measure 34
00000000
00000000
00001000
00000000
00000000
00000010
00000000
00000000
00010000
00000000
00001000
00000000
00100000
00000000
00000000
00000000
,  // measure 35
00010000
00000000
00000000
01000000
00000000
00000000
00100000
00000000
20100000
00000000
00000000
00000000
00000000
00000000
00000000
00000000
,  // measure 36
00000000
00000000
31000000
00100000
00010000
01000000
01001000
00000000
,  // measure 37
00000000
00011000
00000000
00000000
00010100
00000000
00000100
00000010
,  // measure 38
00000001
00000000
00001000
00000000
00000100
00000000
00000010
00000000
00001000
00000000
00010000
00000000
00100000
00000000
00000000
10000000
,  // measure 39
00000000
01000000
01200000
00000000
00000000
00000000
00301000
00010000
,  // measure 40
00000100
00000010
00000001
00000001
00000100
00001000
00011000
00000000
,  // measure 41
00000000
00010010
00000000
00000000
00101000
00100000
01000000
10000000
,  // measure 42
00100000
00010000
00001000
00000100
00000001
00000010
00000210
00000000
,  // measure 43
00000001
00001000
00010300
00021000
,  // measure 44
00000010
00100000
00030100
00012000
,  // measure 45
00100000
00000010
01003000
01200000
,  // measure 46
10000000
00010000
10300000
10000000
,  // measure 47
01000000
00100000
00010000
00001000
,  // measure 48
00000100
00000000
00000010
00000000
00000001
00000000
00000100
00001000
,  // measure 49
00010000
00001000
00000100
00001000
00010000
00001000
00000100
00001000
,  // measure 50
00010000
01000000
00010000
00001000
00000100
00001000
00020000
00000000
,  // measure 51
01000000
00032000
00100000
00023000
,  // measure 52
00000010
00032000
00000010
00023000
,  // measure 53
00000100
00000000
00032000
00000000
01000000
00000000
00013000
00010000
,  // measure 54
00100000
10000000
01000000
00100000
00010000
01000000
00100000
00010000
,  // measure 55
00001000
00000100
00000010
00001000
00000100
00000000
00000010
00001000
,  // measure 56
00010000
00100000
10000000
01000000
00100000
00000000
01000000
01000000
,  // measure 57
00010000
00010000
00001000
00001000
00000010
00000001
00001001
00000000
,  // measure 58
00000110
00000000
00000000
00000010
00010000
00000000
00001000
00100000
00000000
00010000
01000000
00010000
00000000
10000000
00000000
00100000
,  // measure 59
01000000
00100000
01000000
00100000
00000000
00010000
00001000
00010000
00000000
00000100
00001000
00000100
00000020
00000000
00000032
00000000
,  // measure 60
00000103
00000000
00000100
00001000
00000000
00010000
00000000
00010000
00000000
00100000
10000000
00100000
10000000
00100000
01000000
00000000
,  // measure 61
00010000
00000000
00000000
00100000
00000000
00000000
00010000
00000000
00000000
00100000
00000000
00000000
00000000
00000000
00000000
00001000
00000000
00000000
00010000
00000000
00000000
00001000
00000000
00000000
00000010
00000000
00000000
00000000
00000001
00000000
00000000
00000000
00000100
00000000
00000000
00000000
00002000
00000000
00000000
00000000
00000000
00000000
00023000
00000000
00000000
00000000
00000000
00000000
,  // measure 62
00130000
00000000
00000000
00100000
10000000
00000000
10000000
01000000
,  // measure 63
00000000
01000000
00100000
00010000
00000000
00100000
00000000
00001000
,  // measure 64
00001000
00010000
00000100
00000010
00000000
00000001
00000100
00001000
,  // measure 65
00000000
00000100
00001000
00010000
00002000
00000000
01003000
01000000
,  // measure 66
00100000
00100000
10000000
00100000
00000000
00001000
00010000
00001000
,  // measure 67
00000000
00100000
10000000
02000000
00000000
03020000
00000000
00031000
,  // measure 68
00001000
00000100
00000001
00000100
00000000
00010000
00001000
00010000
,  // measure 69
00000000
00000100
00000001
00000020
00000000
00000130
00000100
00010000
,  // measure 70
00002000
00203000
02300000
23000000
,  // measure 71
30200000
00320000
00032000
00003200
,  // measure 72
00000302
00000023
00000230
00020300
,  // measure 73
00031000
00000000
00001000
00001000
00010000
00010000
00100000
10000000
,  // measure 74
01000000
00000000
00000000
00100000
00000000
00000000
00010000
00000000
02010000
00000000
00000000
00000000
00000000
00000000
00000000
00000000
,  // measure 75
00000000
00000000
00000000
00000000
03001000
00010000
00000100
00000010
,  // measure 76
00000011
00000000
00000000
00001010
00000000
00000000
00011000
00010000
,  // measure 77
00001000
00100000
01000000
01000000
10000000
10000000
00100000
00010000
,  // measure 78
00001000
00000000
00000000
00000010
00000000
00000000
00000001
00000000
00000201
00000000
00000000
00000000
00000000
00000000
00000000
00000000
,  // measure 79
00000000
00000000
00000000
00000000
00001300
00001000
00010000
00100000
,  // measure 80
10100000
00000000
00000000
11000000
00000000
00000000
00110000
00010000
,  // measure 81
00010000
02000000
00000000
03001000
00010000
00001000
00000100
00000001
,  // measure 82
00000011
00000000
00000000
00000110
00000000
00000000
00000000
00022000
,  // measure 83
00000000
00000000
00000000
00033000
00000000
00001000
00010000
00100000
,  // measure 84
10100000
00000000
00000000
01100000
00000000
00000000
00000000
00022000
,  // measure 85
00000000
00033000
00010100
01001000
,  // measure 86
00001000
00010000
00100000
00001000
00000010
00010000
00001000
00000100
,  // measure 87
00010000
01000000
00001000
00010000
00100000
10000000
01000000
00010000
,  // measure 88
00001000
00001000
00000010
00000001
00000100
00000100
00001000
00010000
,  // measure 89
00100000
00000000
00100000
00000000
10000000
00000000
01000000
00000000
00010000
00000000
00011000
00000000
00011000
00000000
00000000
01001000
,  // measure 90
00000000
00000000
00000000
00020200
00000000
00000000
00000000
00000000
00000000
00000000
00000000
00000000
00000000
00000000
00000000
00000000
,  // measure 91
00000000
00000000
00030300
00000000
;

//---------------dance-single - ----------------
#NOTES:
     dance-single:
     :
     Beginner:
     4:
     0.167017,0.306893,0.059955,0.104921,0.000000,156.000000,148.000000,8.000000,14.000000,0.000000,0.000000,0.167017,0.306893,0.059955,0.104921,0.000000,156.000000,148.000000,8.000000,14.000000,0.000000,0.000000:
0000
0000
0000
0000
,
0000
0000
0000
0000
,
0000
0000
0000
1000
,
0000
0000
0000
1000
,
0000
0000
0000
0001
,
0000
0000
0000
0001
,
0000
0000
0000
0100
,
0000
0000
0000
0100
,
0000
0000
0000
0010
,
0000
0000
0000
0010
,
0000
0010
0000
1000
,
0000
0100
0000
1000
,
0000
0100
0000
0010
,
0000
0001
0000
0010
,
0000
0001
0001
0000
,
0000
1000
1000
0000
,
0000
0010
0010
0000
,
0100
0000
0010
0100
,
0000
0020
0030
0010
,
0000
0000
0000
1000
,
0000
0000
0000
0001
,
0000
0000
0000
0100
,
0000
0000
0000
0010
,
0000
1000
0000
0001
,
0000
0100
0000
0010
,
0000
0010
0000
0010
,
0000
0010
0000
1000
,
0000
0000
0000
0001
,
0000
0000
0000
1000
,
0000
0001
0000
1000
,
0000
0001
0000
1001
,
0000
1001
2002
0000
,
3003
0000
0000
0000
,
0000
0200
0300
0100
,
0000
0100
0000
0100
,
0100
0000
0001
0000
,
0000
0000
0000
0100
,
0000
1000
0000
0100
,
0000
1000
0000
0010
,
0000
0001
0000
0000
,
0000
0000
0000
0010
,
0000
1000
0000
0010
,
0000
1000
0000
0100
,
0000
0100
0000
0010
,
0000
0010
0000
1000
,
0000
1000
0000
0001
,
0000
0001
0000
0010
,
0000
0100
0000
1000
,
0000
0001
0000
0100
,
0000
0010
0000
1000
,
0000
0001
0001
0002
,
0000
0000
0000
0000
,
0000
0003
0000
2000
,
0000
0000
3000
1000
,
1000
1000
1000
0010
,
0000
0010
0000
0100
,
0000
0100
0000
0001
,
0000
1000
0000
1001
,
0001
0001
0001
0000
,
0100
0100
0100
0000
,
1000
1000
1000
0000
,
0010
0010
0010
0000
,
1001
0000
0001
0000
,
1000
0000
0001
0000
,
0100
0000
0010
0000
,
0100
0000
0100
0000
,
0020
0000
0030
0000
,
0200
0000
0300
0000
,
0002
0000
0003
0000
,
2000
0000
3000
0000
,
2002
0000
0000
0000
,
0000
0000
0000
0000
,
0000
0000
0000
0000
,
3003
0000
0000
0000
,
0010
0000
1000
0000
,
0000
0000
0000
0000
,
0010
0000
0001
0000
,
0010
0000
0001
0000
,
0100
0000
1000
0000
,
0000
0000
0000
0000
,
0100
0000
0001
0000
,
0100
0000
0001
0000
,
0010
0000
1000
0000
,
0100
0000
0000
0000
,
0010
0000
0001
0000
,
0100
0000
0000
0000
,
1000
0000
0100
0000
,
0010
0000
0001
0000
,
0100
0100
0100
0000
,
0010
0010
0010
0110
,
0000
2002
0000
0000
,
3003
0000
0000
0000
;

//---------------dance-single - ----------------
#NOTES:
     dance-single:
     :
     Easy:
     8:
     0.277291,0.409191,0.082438,0.157381,0.007494,259.000000,248.000000,11.000000,21.000000,0.000000,0.000000,0.277291,0.409191,0.082438,0.157381,0.007494,259.000000,248.000000,11.000000,21.000000,0.000000,0.000000:
0000
0000
0000
0000
,
0000
0000
0000
0000
,
0000
0000
0000
1000
,
0100
1000
0000
0001
,
0100
0001
0000
1000
,
0010
1000
0000
0001
,
0010
0001
0000
1000
,
0010
0100
0000
0001
,
0100
0010
0000
1000
,
0001
1000
0001
0110
,
0000
0110
0000
1000
,
0010
0100
0010
1000
,
0010
0100
0000
0001
,
0100
0010
0100
0001
,
0100
0000
0010
0010
0000
0000
1000
0000
,
0010
0000
0100
0100
0000
0000
0001
0000
,
1000
0000
0010
0010
0000
0100
0000
0000
,
0001
1000
0001
1001
,
0000
2002
3003
1000
,
0100
0010
0100
1000
,
0100
0001
0100
1000
,
0100
0020
0000
0000
,
0000
0000
0030
0001
,
0010
0100
0010
0001
,
0010
1000
0010
0001
,
0010
0200
0000
0000
,
0000
0000
0300
1000
,
0000
1000
0000
0001
,
0000
0001
0000
0100
,
0100
0010
0010
1000
,
0001
1000
0001
1000
,
0000
0010
0000
0000
0100
0000
0100
0000
,
0020
0130
0100
2002
,
0000
0000
3003
1000
,
0010
0001
0100
1000
,
0001
0000
0000
0002
0000
0000
0000
0000
,
0000
0000
0003
1000
,
0000
0001
0000
0000
1000
0000
0010
0000
,
0000
0010
0001
1000
,
0000
2000
0000
0000
0000
0000
0000
0000
,
0000
0000
3000
0001
,
0000
1000
0000
0000
0001
0000
0100
0000
,
0000
0100
1001
1000
,
0010
1000
0000
0001
,
0100
0001
0000
1000
,
0100
1000
0000
0001
,
0010
0001
0000
1000
,
0010
1000
0010
0100
,
0001
0100
0001
0010
,
0001
0010
0001
1000
,
0100
1000
0100
0220
,
0000
0000
0000
0000
,
0000
0000
0000
0000
,
0000
0000
0330
0001
,
0100
1000
0010
0001
,
0001
1000
1000
0010
,
0010
0100
0100
0001
,
1000
0100
0010
1001
,
0001
0000
1000
0000
0100
0100
0100
0000
,
1000
0000
0001
0000
0010
0010
0010
0000
,
0001
0100
1000
0010
,
0001
1000
0001
0000
0100
0010
0100
0100
,
0002
0000
0010
0000
,
1000
0000
0010
0000
,
2003
0000
0100
0000
,
0001
0000
0100
0000
,
3001
0100
0100
0000
,
1000
0100
0100
0000
,
0001
0010
0010
0000
,
1000
0000
0000
0010
0000
0000
0000
0000
,
2002
0000
0000
0000
,
0000
0000
0000
0000
,
0000
0000
0000
3003
,
1001
0000
0000
0000
,
0010
0000
0000
0020
0000
0000
0000
0000
,
0000
0000
0000
0030
,
0100
0000
0000
0010
0000
0000
0100
0000
,
0001
0000
0001
0010
,
0100
0000
0000
0200
0000
0000
0000
0000
,
0000
0000
0000
0300
,
0010
0000
0000
0100
0000
0000
0010
0000
,
1000
0000
1000
0100
,
0010
0000
0000
0010
0000
0000
0000
0020
,
0000
0000
0030
0010
,
0100
0000
0000
0100
0000
0000
0000
0200
,
0000
0300
0100
0100
,
0001
0010
0001
0010
,
1000
0010
1000
0010
,
0001
0010
1000
0010
,
0001
0000
0000
0000
1000
0000
0000
0000
0100
0000
0100
0000
0010
0000
0000
0100
,
0000
0000
0000
2002
0000
0000
0000
0000
0000
0000
0000
0000
0000
0000
0000
0000
,
3003
0000
0000
0000
;

//---------------dance-double - ----------------
#NOTES:
     dance-double:
     :
     Easy:
     8:
     0.273008,0.409191,0.082438,0.149887,0.007494,255.000000,244.000000,11.000000,20.000000,0.000000,0.000000,0.273008,0.409191,0.082438,0.149887,0.007494,255.000000,244.000000,11.000000,20.000000,0.000000,0.000000:
00000000
00000000
00000000
00000000
,
00000000
00000000
00000000
00000000
,
00000000
00000000
00000000
00001000
,
01000000
00001000
00000000
00010000
,
00000100
00010000
00000000
00001000
,
00100000
00001000
00000000
00010000
,
00000010
00010000
00000000
00001000
,
00010000
00100000
00000000
00010000
,
00001000
00000010
00000000
00001000
,
00010000
00001000
00010000
00011000
,
00000000
00011000
00000000
00001000
,
00100000
00010000
00100000
01000000
,
00100000
00010000
00000000
00010000
,
00000010
00001000
00000010
00000100
,
00000010
00000000
00001000
00001000
00000000
00000000
00001000
00000000
,
00010000
00000000
00100000
00100000
00000000
00000000
00010000
00000000
,
00001000
00000000
00000010
00000010
00000000
00000010
00000000
00000000
,
00000001
00000100
00001000
00011000
,
00000000
00022000
00033000
00010000
,
01000000
10000000
01000000
00000000
,
01000000
00010000
01000000
00000000
,
00010000
00002000
00000000
00000000
,
00000000
00000000
00003000
00001000
,
00000100
00000001
00000100
00000000
,
00000100
00001000
00000100
00000000
,
00001000
00020000
00000000
00000000
,
00000000
00000000
00030000
00010000
,
00000000
00100000
00000000
10000000
,
00000000
01000000
00000000
00010000
,
00010000
00001000
00001000
00000010
,
00000001
00000010
00000001
00000100
,
00000000
00001000
00000000
00000000
00010000
00000000
00010000
00000000
,
00001000
00010000
00001000
00022000
,
00000000
00000000
00033000
00001000
,
00100000
01000000
10000000
00100000
,
00010000
00000000
00000000
00020000
00000000
00000000
00000000
00000000
,
00000000
00000000
00030000
00001000
,
00000000
00010000
00000000
00000000
00001000
00000000
00000010
00000000
,
00000000
00000001
00000100
00001000
,
00000000
00002000
00000000
00000000
00000000
00000000
00000000
00000000
,
00000000
00000000
00003000
00010000
,
00000000
00001000
00000000
00000000
00010000
00000000
01000000
00000000
,
00000000
10000000
10100000
00010000
,
00100000
01000000
00000000
00100000
,
00010000
00001000
00000000
00010000
,
00001000
00000010
00000000
00000100
,
00000010
00001000
00000000
00010000
,
00001000
00010000
00001000
00100000
,
01000000
00100000
01000000
00010000
,
00001000
00010000
00001000
00000010
,
00000100
00000010
00000100
00002002
,
00000000
00000000
00000000
00000000
,
00000000
00000000
00000000
00000000
,
00000000
00000000
00003003
00000001
,
00000100
00001000
00010000
00100000
,
10000000
00100000
10000000
01000000
,
00100000
01000000
00100000
00001000
,
00010000
00000100
00000010
00001001
,
00000001
00000000
00000100
00000000
00001000
00010000
00001000
00000000
,
00010000
00000000
01000000
00000000
10000000
00010000
10000000
00000000
,
00100000
00010000
00001000
00000010
,
00000001
00000100
00000001
00000000
00000100
00001000
00000100
00001000
,
00020000
00000000
00000010
00000000
,
00000100
00000000
00000010
00000000
,
00032000
00000000
01000000
00000000
,
00100000
00000000
01000000
00000000
,
00013000
00100000
00100000
00000000
,
00010000
00000010
00000010
00000000
,
00010000
01000000
01000000
00000000
,
00010000
00000000
00000000
00000100
00000000
00000000
00000000
00000000
,
00022000
00000000
00000000
00000000
,
00000000
00000000
00000000
00000000
,
00000000
00000000
00000000
00033000
,
00011000
00000000
00000000
00000000
,
00100000
00000000
00000000
00200000
00000000
00000000
00000000
00000000
,
00000000
00000000
00000000
00300000
,
10000000
00000000
00000000
01000000
00000000
00000000
00010000
00000000
,
00001000
00000000
00010000
00001000
,
00000100
00000000
00000000
00000200
00000000
00000000
00000000
00000000
,
00000000
00000000
00000000
00000300
,
00000001
00000000
00000000
00000010
00000000
00000000
00001000
00000000
,
00010000
00000000
00001000
00010000
,
00100000
00000000
00000000
10000000
00000000
00000000
00000000
00020000
,
00000000
00000000
00030000
01000000
,
00001000
00000000
00000000
00010000
00000000
00000000
00000000
00000200
,
00000000
00000300
00000010
00000010
,
00000001
00000100
00000001
00001000
,
00000010
00001000
00010000
00100000
,
00010000
10000000
01000000
10000000
,
00100000
00000000
00000000
00000000
00010000
00000000
00000000
00000000
00001000
00000000
00001000
00000000
00010000
00000000
00000000
00001000
,
00000000
00000000
00000000
00022000
00000000
00000000
00000000
00000000
00000000
00000000
00000000
00000000
00000000
00000000
00000000
00000000
,
00033000
00000000
00000000
00000000
;

//---------------dance-single - ----------------
#NOTES:
     dance-single:
     :
     Medium:
     11:
     0.465720,0.685732,0.269796,0.194853,0.041219,435.000000,399.000000,36.000000,26.000000,0.000000,0.000000,0.465720,0.685732,0.269796,0.194853,0.041219,435.000000,399.000000,36.000000,26.000000,0.000000,0.000000:
0000
0000
0000
0000
,
0000
0000
0000
0000
,
0000
0000
0000
1000
,
0010
1000
0010
0100
,
0001
0100
0001
1000
,
0010
0100
0001
1000
,
0010
0100
0010
0100
0010
0000
1000
0000
,
0001
0010
0100
0001
,
0100
0010
1000
0010
,
0100
0000
1000
0000
0001
0000
0100
0010
,
0000
0000
0010
0100
0000
0000
0001
0000
,
1000
0000
0010
0100
0001
0000
1000
0000
,
0001
0000
0100
0010
1000
0000
0001
0000
,
1000
0000
0001
0010
0100
0000
1000
0000
,
0010
0100
0001
0001
0000
1000
0000
0000
,
0010
0000
1000
1000
0000
0001
0000
0000
,
0100
0000
0001
0001
0000
1001
0000
0000
,
1000
0100
1000
0100
0010
0000
0022
0000
,
0033
2200
3300
1000
,
0010
0100
0001
1000
,
0100
0100
0010
0000
0001
0000
0100
0000
,
0010
0000
1000
0000
0001
0010
0001
0010
,
0100
1000
0100
0000
1000
0000
0010
0000
,
0100
0001
0010
0100
,
1000
1000
0001
0000
0100
0000
0010
0000
,
1000
0000
0001
0000
0010
0100
0010
0100
,
1000
0001
1000
0000
0010
0000
0200
0000
,
0000
0001
0000
0320
,
0000
1000
0000
0130
,
0010
1000
0100
0010
,
0001
0100
0000
0010
1000
0010
1000
0100
,
0000
1000
0001
0000
0100
0000
0010
0000
,
1000
0001
2000
0000
3002
0000
1000
0000
,
0000
0000
0103
0100
0100
0000
0010
0000
,
1000
0100
0000
0001
0010
0000
1000
0000
,
0001
0100
0000
0100
0020
0000
0000
0000
,
0030
0000
1000
0100
0010
0000
0110
0000
,
0000
1100
0000
0000
0011
0000
0001
0100
,
0000
1000
0010
0000
0001
0000
1000
0100
,
0000
0100
0020
0000
0000
0000
0000
0000
,
0030
0000
0001
0100
0010
0000
0110
0000
,
0000
0101
0000
0000
1010
1000
0100
1000
,
0000
0001
0010
0000
1000
0000
0100
0000
,
0100
0010
0010
0001
,
0001
0000
1000
0000
1000
0000
0010
0100
,
0001
0000
0100
0010
1000
0000
0010
0100
,
0001
1000
0100
0010
0100
0000
0010
0000
,
0010
0001
0001
0100
,
0100
0000
1000
0000
1000
0000
0100
0010
,
0100
0000
0001
1000
0001
0000
1000
0010
,
1000
0010
0100
0001
0100
0001
0100
0010
,
0000
1000
0000
0100
0000
0100
0000
0001
,
0000
0001
0000
0010
0000
0100
0010
0100
,
0000
1000
0000
0010
0000
0001
2000
0000
,
3020
0230
0302
1003
,
0100
0001
0010
1000
,
0100
0000
0001
0000
0010
0000
1000
0100
,
0010
0001
1000
0100
0010
0001
1001
0000
,
0110
0000
0000
0010
1000
0000
0100
0000
1000
0000
0001
0010
0000
0010
0000
0000
,
0001
0000
0100
0010
0100
0000
0010
0000
1000
0000
0100
0000
0010
0100
0010
0000
,
0001
0000
1000
0010
0000
0010
0000
0100
0000
0000
0001
0000
0010
0000
0100
0000
,
1000
0100
1000
0000
0010
0000
0100
0000
0002
0000
0000
0000
1000
0000
1003
0000
,
1001
0100
0001
0010
,
1001
0100
1000
0010
,
1001
0100
1001
0010
,
0110
1000
0110
0001
,
1000
0100
0010
0100
0000
1000
0010
0100
,
0000
0001
0100
0010
0000
0110
0000
0001
,
0010
0100
0010
1000
0000
0001
0100
1000
,
0000
1000
0010
0001
0000
1000
0100
0010
,
0220
0000
0000
0000
,
0000
0000
0000
0000
,
0000
0000
0000
0330
,
1001
0000
1000
0001
0100
0010
2000
0000
,
3001
0010
0000
0010
0200
0000
0000
0000
,
0000
0000
0300
0000
1000
0010
0100
0000
,
0110
0000
0000
0101
0000
0000
1010
0000
,
1000
0100
0000
0001
0010
0000
1000
0000
,
0001
0100
0000
0100
0020
0000
0000
0000
,
0000
0000
0030
0000
1000
0100
0010
0000
,
0110
0000
0000
0011
0000
0000
1100
1000
,
0010
1000
0000
0001
0100
0000
0010
0000
,
1010
0000
0000
0101
0000
0000
0000
2002
,
0000
0003
0001
3001
,
0011
0000
0000
1100
0000
0000
0000
2002
,
0000
3000
1000
1003
,
1000
0010
0001
0100
,
1000
0010
0001
0100
,
1000
0010
0100
0000
0001
0010
0100
0000
,
1000
0000
0010
0000
0100
0000
0001
0000
1000
0000
1001
0000
1001
0000
0000
1010
,
0000
0000
0000
0022
0000
0000
0000
0000
0000
0000
0000
0000
0000
0000
0000
0000
,
0000
0000
0033
0000
;

//---------------dance-double - ----------------
#NOTES:
     dance-double:
     :
     Medium:
     11:
     0.449660,0.685732,0.224830,0.187359,0.041219,420.000000,390.000000,30.000000,25.000000,0.000000,0.000000,0.449660,0.685732,0.224830,0.187359,0.041219,420.000000,390.000000,30.000000,25.000000,0.000000,0.000000:
// measure 0
00000000
00000000
00000000
00000000
,  // measure 1
00000000
00000000
00000000
00000000
,  // measure 2
00000000
00000000
00000000
01000000
,  // measure 3
00001000
01000000
00001000
00010000
,  // measure 4
00000100
00010000
00000100
00001000
,  // measure 5
00000010
00010000
00001000
00100000
,  // measure 6
00010000
01000000
00010000
00000000
10000000
01000000
10000000
00000000
,  // measure 7
00010000
01000000
00001000
00010000
,  // measure 8
00000100
00001000
00000010
00010000
,  // measure 9
00001000
00000000
00000100
00000000
00000001
00000000
00000010
00000100
,  // measure 10
00000000
00000000
00000100
00000010
00000000
00000000
00000001
00000000
,  // measure 11
00000100
00000000
00001000
00010000
00001000
00000000
00010000
00000000
,  // measure 12
00100000
00000000
10000000
00010000
10000000
00000000
01000000
00000000
,  // measure 13
00010000
00000000
00001000
00010000
00001000
00000000
00000010
00000000
,  // measure 14
00000001
00001000
00000100
00010000
00000000
00010000
00000000
00000000
,  // measure 15
00001000
00000000
00100000
01000000
00000000
01000000
00000000
00000000
,  // measure 16
10000000
00000000
00100000
00010000
00000000
00010000
00000000
00000000
,  // measure 17
00001000
00010000
00001000
00010000
00000010
00000000
00020020
00000000
,  // measure 18
00030030
00202000
00303000
00001000
,  // measure 19
00010000
00000100
00000010
00000001
,  // measure 20
00000100
00001000
00000100
00000000
00000010
00000000
00001000
00000000
,  // measure 21
00000100
00000000
00010000
00000000
00001000
00100000
00001000
00000000
,  // measure 22
00010000
00000010
00010000
00000000
00001000
00000000
00100000
00000000
,  // measure 23
01000000
10000000
00100000
01000000
,  // measure 24
00010000
00100000
00010000
00000000
10000000
00000000
01000000
00000000
,  // measure 25
00100000
00000000
00001000
00000000
00010000
00000100
00010000
00000000
,  // measure 26
00001000
01000000
00001000
00000000
00010000
00000000
00000200
00000000
,  // measure 27
00000000
00000010
00000000
00002300
,  // measure 28
00000000
00000001
00000000
00003010
,  // measure 29
00010000
00001000
00100000
01000000
,  // measure 30
10000000
00100000
00000000
01000000
00100000
01000000
00100000
00010000
,  // measure 31
00000000
00001000
00010000
00000000
00000100
00000000
00000010
00000000
,  // measure 32
00000001
00000100
00002000
00020000
,  // measure 33
00030000
00000000
00010000
00010000
00013000
00000000
00010000
00000000
,  // measure 34
00100000
01000000
00000000
01000000
00100000
00000000
10000000
00000000
,  // measure 35
01000000
00010000
00000000
00010000
00002000
00000000
00000000
00000000
,  // measure 36
00003000
00000000
00010000
00000100
00001000
00000000
00001100
00000000
,  // measure 37
00000000
00000110
00000000
00000000
00000011
00000000
00000001
00000100
,  // measure 38
00000000
00000100
00001000
00000000
00000100
00000000
00000010
00010000
,  // measure 39
00000000
00010000
00002000
00000000
00000000
00000000
00000000
00000000
,  // measure 40
00003000
00000000
00010000
00100000
01000000
00000000
01100000
00000000
,  // measure 41
00000000
10100000
00000000
00000000
01010000
00010000
00100000
00001000
,  // measure 42
00000000
00010000
00001000
00000000
00010000
00000000
01000000
00000000
,  // measure 43
10000000
00100000
10000000
01000000
,  // measure 44
00010000
00001000
00100000
01000000
,  // measure 45
00010000
00000000
00001000
00000000
00000010
00000000
00000001
00001000
,  // measure 46
00000001
00001000
00000100
00000010
00000100
00000000
00001000
00000000
,  // measure 47
00000010
00000100
00000001
00000010
,  // measure 48
00000001
00000100
00000010
00010000
,  // measure 49
00001000
00000000
00100000
00000000
01000000
00000000
10000000
00010000
,  // measure 50
10000000
00010000
00100000
01000000
00100000
00000000
00010000
01000000
,  // measure 51
00000000
10000000
00000000
01000000
00000000
00100000
00000000
00010000
,  // measure 52
00000000
00001000
00000000
00000100
00000000
00000010
00000100
00000010
,  // measure 53
00000000
00000001
00000000
00000010
00000000
00001000
00000200
00000000
,  // measure 54
00020300
00032000
02003000
03100000
,  // measure 55
10000000
01000000
00010000
00001000
,  // measure 56
00000010
00000000
00000001
00000000
00000100
00000000
00001000
00010000
,  // measure 57
00001000
00010000
00001000
00010000
00001000
00010000
00011000
00000000
,  // measure 58
00011000
00000000
00000000
00010000
00000100
00000000
00001000
00000000
00000010
00000000
00000100
00000001
00000000
00000001
00000000
00000000
,  // measure 59
00001000
00000000
00000010
00000100
00000010
00000000
00010000
00000000
00001000
00000000
01000000
00000000
00100000
01000000
00100000
00000000
,  // measure 60
10000000
00000000
00010000
01000000
00000000
01000000
00000000
00001000
00000000
00000000
00010000
00000000
00000100
00000000
00001000
00000000
,  // measure 61
00000010
00000100
00000010
00000000
00000100
00000000
00001000
00000000
00020000
00000000
00000000
00000000
00001000
00000000
00031000
00000000
,  // measure 62
00011000
01000000
10000000
00100000
,  // measure 63
00010000
00001000
00000100
00000001
,  // measure 64
00000010
00001000
00010000
00100000
,  // measure 65
00010000
00001000
00000010
00001000
,  // measure 66
00010000
00100000
01000000
00100000
00000000
10000000
01000000
00010000
,  // measure 67
00000000
00001000
00000010
00000001
00000000
00000110
00000000
00000010
,  // measure 68
00001000
00010000
00100000
01000000
00000000
00100000
10000000
01000000
,  // measure 69
00000000
00100000
00010000
01000000
00000000
00001000
00010000
00001000
,  // measure 70
00022000
00000000
00000000
00000000
,  // measure 71
00000000
00000000
00000000
00000000
,  // measure 72
00000000
00000000
00000000
00033000
,  // measure 73
00011000
00000000
00010000
00000100
00001000
00000000
00000100
00000000
,  // measure 74
00000010
00001000
00000000
00001000
00020000
00000000
00000000
00000000
,  // measure 75
00000000
00000000
00030000
00000000
00001000
00100000
00010000
00000000
,  // measure 76
00110000
00000000
00000000
01100000
00000000
00000000
11000000
00000000
,  // measure 77
10000000
00100000
00000000
00100000
00010000
00000000
00100000
00000000
,  // measure 78
01000000
00001000
00000000
00001000
00020000
00000000
00000000
00000000
,  // measure 79
00000000
00000000
00030000
00000000
00001000
00000100
00000010
00000000
,  // measure 80
00000110
00000000
00000000
00000101
00000000
00000000
00001010
00001000
,  // measure 81
00000100
00010000
00000000
00001000
00010000
00000000
00001000
00000000
,  // measure 82
01001000
00000000
00000000
00011000
00000000
00000000
00000000
00020200
,  // measure 83
00000000
00030000
00010000
00010300
,  // measure 84
00010010
00000000
00000000
00011000
00000000
00000000
00000000
00202000
,  // measure 85
00000000
00300000
00100000
00103000
,  // measure 86
00001000
00010000
01000000
10000000
,  // measure 87
00100000
00010000
00001000
00000100
,  // measure 88
00000001
00000010
00000100
00000000
00000010
00001000
00010000
00000000
,  // measure 89
00100000
00000000
10000000
00000000
00100000
00000000
00010000
00000000
00001000
00000000
00011000
00000000
00011000
00000000
00000000
00101000
,  // measure 90
00000000
00000000
00000000
00020020
00000000
00000000
00000000
00000000
00000000
00000000
00000000
00000000
00000000
00000000
00000000
00000000
,  // measure 91
00000000
00000000
00030030
00000000
;
