#VERSION:0.83;
#TITLE:Sugar Plum;
#SUBTITLE:;
#ARTIST:Mr. Weq;
#TITLETRANSLIT:;
#SUBTITLETRANSLIT:;
#ARTISTTRANSLIT:;
#GENRE:VARIETY;
#ORIGIN:;
#CREDIT:MILEN;
#BANNER:Sugar Plum.png;
#BACKGROUND:Sugar Plum-bg.png;
#PREVIEWVID:;
#JACKET:Sugar Plum-jacket.png;
#CDIMAGE:;
#DISCIMAGE:;
#LYRICSPATH:;
#CDTITLE:;
#MUSIC:Sugar Plum.mp3;
#OFFSET:-0.088000;
#SAMPLESTART:11.834995;
#SAMPLELENGTH:9.939999;
#SELECTABLE:YES;
#DISPLAYBPM:170.000000;
#BPMS:0.000=170.000,
288.000=340.000,
290.000=170.000;
#STOPS:132.000=0.176,
135.500=0.176,
288.000=0.353;
#DELAYS:;
#WARPS:;
#TIMESIGNATURES:0.000=4=4;
#TICKCOUNTS:0.000=4;
#COMBOS:0.000=1;
#SPEEDS:0.000=1.000=0.000=0;
#SCROLLS:0.000=1.000;
#FAKES:;
#LABELS:0.000=Song Start;
#BGCHANGES:0.000=Sugar Plum.avi=1.000=1=0=0=StretchNoLoop==CrossFade==,
99999=-nosongbg-=1.000=0=0=0 // don't automatically add -songbackground-
;
#KEYSOUNDS:;
#ATTACKS:
;

//---------------dance-single - ----------------
#NOTEDATA:;
#CHARTNAME:;
#STEPSTYPE:dance-single;
#DESCRIPTION:;
#CHARTSTYLE:;
#DIFFICULTY:Challenge;
#METER:16;
#RADARVALUES:0.841005,0.988726,0.694586,0.592939,0.647998,695.000000,613.000000,82.000000,70.000000,0.000000,0.000000,0.000000,0.000000,0.000000,0.841005,0.988726,0.694586,0.592939,0.647998,695.000000,613.000000,82.000000,70.000000,0.000000,0.000000,0.000000,0.000000,0.000000;
#CREDIT:MILEN;
#DISPLAYBPM:170.000000;
#NOTES:
0000
0000
0000
0000
,
0000
0000
0000
0000
,
0000
0000
0000
0000
,
0000
0000
0000
0000
,
0000
2100
0001
0001
,
3001
0012
1000
1000
,
1003
0000
1010
0001
0000
0101
0000
1100
,
0000
0000
0101
0000
1000
0000
0000
0000
1001
0000
0000
0000
0001
1000
0001
1000
,
0010
0100
0010
0100
0020
0000
0000
0000
1030
0000
0100
0000
0110
0000
0000
0000
,
0011
0000
0110
0000
1100
0000
1010
0010
,
0010
0000
0101
0100
0100
0000
1010
0010
,
0010
0000
0101
0100
0010
0010
2000
0000
,
3001
0010
0001
0010
0200
0000
0000
0000
1300
0000
0010
0000
0110
0000
0000
0000
,
0101
0000
0110
0000
1010
0000
1100
0100
,
0100
0000
0011
0010
0010
0000
1100
0100
,
0100
0000
0011
0010
0100
0100
2000
0000
,
3001
0100
0001
0100
0020
0000
0000
0000
1030
0000
0001
0000
0101
0000
0000
0000
,
1010
0000
0011
0000
1100
0000
0110
0010
,
0010
0000
0110
0100
0100
0000
1001
1000
,
1000
0000
1001
0001
0001
0100
0020
0000
,
1030
0100
1000
0100
0020
0000
0000
0000
0031
0000
0100
0000
0110
0000
0000
0000
,
0010
1000
0010
1000
0002
0000
0000
0000
0013
0000
0100
0000
1100
0000
0000
0000
,
1000
0001
1000
0001
0200
0000
0000
0000
0310
0000
1000
0000
1001
0000
0000
0000
,
0001
0010
0001
0010
0200
0000
0000
0000
1300
0010
1000
0010
0200
0000
0000
0000
,
0301
0010
0100
1000
0020
0000
0130
0000
0200
0000
0301
0000
0002
0000
1003
0000
,
2000
3100
0200
0310
0020
0031
0002
0103
,
0110
0000
0000
0010
0010
1000
0100
0100
0010
0001
0000
0000
,
0110
0000
0000
0100
0100
0001
0010
0100
0100
1000
0000
0000
,
0010
0100
0001
1000
0200
0000
0310
0000
0020
0000
0031
0000
0002
0000
0103
0000
,
0200
0310
0020
1030
2000
3001
0002
0013
,
0110
0000
0000
0100
0100
1000
0010
0010
0100
0001
0000
0000
,
0110
0000
0000
0010
0010
0001
0100
0100
0010
1000
0000
0000
,
0001
0100
0010
1000
0001
0000
0010
0000
0100
0000
1000
0000
0010
0000
0100
0000
,
1001
1000
0100
0010
0001
0100
0010
1001
,
0001
0010
0100
1000
0010
0200
0000
0310
,
1000
0000
0100
0000
0001
0000
0100
0000
2000
0000
0000
0000
3010
0100
0010
0000
,
0100
0001
0100
0000
0001
0010
0001
0000
1000
0001
1000
0000
0100
1000
0100
0000
,
1000
0010
1000
0000
0010
0100
0010
0000
0100
0001
0100
0000
0010
1000
0010
0000
,
1000
0100
1000
0100
0010
0000
0100
0000
1000
0100
1000
0100
0001
0000
0100
0000
,
1000
0100
1000
0100
0010
0100
0010
0100
0001
0100
0001
0100
0010
0100
1000
0100
,
0020
0030
0011
0110
1100
0000
1010
0000
,
0101
0000
0011
0000
0210
1000
1300
0000
,
0120
0001
0031
0000
0210
1000
1300
0000
,
0110
0000
0010
0000
0010
0000
0100
0000
0020
0000
0000
0000
0031
0100
0010
1000
,
0200
0300
1100
0110
0011
0000
0101
0000
,
1010
0000
1100
0000
0120
0001
0031
0000
,
0210
1000
1300
0000
0120
0001
0031
0000
,
0110
0000
0100
0000
0100
0000
0010
0000
0200
0000
0000
0000
1300
0010
0100
0001
,
0020
0030
0011
1100
1001
0000
1010
0000
,
0101
0000
0110
0000
1020
0100
0130
0000
,
0201
0010
0310
0000
1020
0100
0130
0000
,
0101
0000
0010
0000
0010
0000
1000
0000
0200
0000
0000
0000
0310
0001
0010
0001
,
2000
0000
0000
0000
0010
0000
0010
0000
3100
0000
0000
0000
0100
1000
0100
1000
,
0002
0000
0000
0000
0100
0000
0100
0000
0013
0000
0000
0000
0010
0100
0010
0100
,
2000
0000
0000
0000
0010
0000
0010
0000
3001
0000
0000
0000
0001
0010
0001
0010
,
0200
0000
0000
0000
1300
0010
0100
0001
2000
0000
0000
0000
3001
0010
0100
1000
,
0010
0000
0000
0010
0100
0000
0000
0100
0001
0000
0000
0001
0010
0000
0000
0010
,
0100
0000
0000
0100
1000
0000
0000
1000
0010
0000
0000
0010
0100
0000
0000
0100
,
0001
0001
0010
0100
0100
1000
0010
0000
0000
0101
0000
0000
,
1000
0000
0000
0000
1000
0000
0000
0000
0100
0000
0000
0000
0010
0000
0000
0000
0010
0000
0000
0000
0001
0000
0000
0000
0100
0000
0000
0000
0000
0000
0000
0000
0000
0000
0000
0000
0010
0000
0000
1000
0000
0000
0010
0000
0000
1000
0000
0000
,
0100
0000
0000
0100
0010
0000
0000
0010
0001
0000
0000
0001
0100
0000
0000
0100
,
0010
0000
0000
0010
1000
0000
0000
1000
0001
0000
0000
0001
0010
0000
0000
0010
,
0100
0100
1000
0010
0010
0100
0001
0000
0000
1100
0000
0000
,
0010
0000
0000
0000
0010
0000
0000
0000
0001
0000
0000
0000
0100
0000
0000
0000
0100
0000
0000
0000
0010
0000
0000
0000
1000
0000
0000
0000
0000
0000
0000
0000
0000
0000
0000
0000
0001
0000
0000
0010
0000
0000
0100
0000
0000
1000
0000
0000
,
0020
0000
0130
0001
0011
0010
0100
1000
,
1020
0000
0130
0000
0201
0000
0310
0000
1000
0000
1000
0000
0100
0010
0100
0010
,
0001
0000
1000
0000
0010
0100
0010
0100
0001
0000
1000
0000
0100
0010
0100
0010
,
0001
0000
1000
0010
0100
0000
0001
0100
0020
0000
0000
0000
1030
0001
0010
0100
,
2000
0000
3010
0100
0101
0001
0010
0100
,
1200
0000
0310
0000
0021
0000
0130
0000
1000
0000
1000
0000
0010
0100
0010
0100
,
0001
0000
1000
0000
0100
0010
0100
0010
0001
0000
1000
0000
0010
0100
0010
0100
,
0001
0000
0010
0100
1000
0000
0001
0010
0200
0000
0000
0000
1300
0010
0100
0002
,
2000
3003
1001
0110
,
2010
0000
3100
0000
0012
0000
0103
0000
0010
0000
0010
0000
1000
0100
1000
0100
,
0010
0000
0100
0000
1000
0010
1000
0010
0100
0000
0010
0000
1000
0100
1000
0100
,
0001
0000
0100
0010
0001
0000
1000
0100
0020
0000
0000
0000
0031
0100
0010
1000
,
0002
0000
0000
0000
0100
0000
0000
0000
1003
0000
0000
0000
1000
0010
0100
0001
,
2000
0000
0000
0000
0010
0000
0000
0000
3001
0000
0000
0000
0001
0010
0100
1000
,
0020
0130
0002
1003
0200
0310
2000
3001
,
0001
0010
0100
0000
1000
0100
0010
0000
0001
0100
0010
1000
0001
0010
0100
2000
,
0002
0000
3003
0000
;

//---------------dance-double - ----------------
#NOTEDATA:;
#CHARTNAME:;
#STEPSTYPE:dance-double;
#DESCRIPTION:;
#CHARTSTYLE:;
#DIFFICULTY:Challenge;
#METER:16;
#RADARVALUES:0.818014,0.852350,0.618351,0.592939,0.605645,676.000000,603.000000,73.000000,70.000000,0.000000,0.000000,0.000000,0.000000,0.000000,0.818014,0.852350,0.618351,0.592939,0.605645,676.000000,603.000000,73.000000,70.000000,0.000000,0.000000,0.000000,0.000000,0.000000;
#CREDIT:MILEN;
#DISPLAYBPM:170.000000;
#NOTES:
// measure 0
00000000
00000000
00000000
00000000
,  // measure 1
00000000
00000000
00000000
00000000
,  // measure 2
00000000
00000000
00000000
00000000
,  // measure 3
00000000
00000000
00000000
00000000
,  // measure 4
00000000
01002000
00010000
00010000
,  // measure 5
00013000
00020010
00001000
00001000
,  // measure 6
00031000
00000000
00011000
01000000
00000000
01010000
00000000
00011000
,  // measure 7
00000000
00000000
00001100
00000000
00000001
00000000
00000000
00000000
00001001
00000000
00000000
00000000
00001000
00000100
00001000
00000100
,  // measure 8
00010000
00001000
00010000
00001000
02000000
00000000
00000000
00000000
03100000
00000000
10000000
00000000
11000000
00000000
00000000
00000000
,  // measure 9
00100000
00000000
01010000
00000000
00001000
00000000
00011000
00010000
,  // measure 10
00010000
00000000
00010010
00000010
00000010
00000000
00000110
00000100
,  // measure 11
00000100
00000000
00000101
00000001
00000010
00001000
00020000
00000000
,  // measure 12
00031000
00010000
00001000
00010000
00000200
00000000
00000000
00000000
00000310
00000000
00000001
00000000
00000101
00000000
00000000
00000000
,  // measure 13
00000010
00000000
00001100
00000000
00010000
00000000
00011000
00001000
,  // measure 14
00001000
00000000
00101000
00100000
00100000
00000000
01100000
01000000
,  // measure 15
01000000
00000000
11000000
10000000
00100000
00010000
00002000
00000000
,  // measure 16
00013000
00000100
00010000
00000100
00000020
00000000
00000000
00000000
00000031
00000000
00000100
00000000
00001100
00000000
00000000
00000000
,  // measure 17
00010000
00000000
01001000
00000000
00100000
00000000
11000000
10000000
,  // measure 18
10000000
00000000
10100000
00100000
00100000
00000000
00110000
00010000
,  // measure 19
00010000
00000000
00011000
00001000
00000100
00000001
00000020
00000000
,  // measure 20
00000130
00010000
00000100
00010000
00002000
00000000
00000000
00000000
00103000
00000000
01000000
00000000
11000000
00000000
00000000
00000000
,  // measure 21
10000000
00100000
10000000
00100000
02000000
00000000
00000000
00000000
03001000
00000000
00010000
00000000
00010100
00000000
00000000
00000000
,  // measure 22
00000100
00000010
00000100
00000010
00000002
00000000
00000000
00000000
00000103
00000000
00001000
00000000
00011000
00000000
00000000
00000000
,  // measure 23
00010000
01000000
00010000
01000000
20000000
00000000
00000000
00000000
30100000
00010000
00100000
00010000
00002000
00000000
00000000
00000000
,  // measure 24
00013000
00000100
00010000
00000100
00000020
00000000
00000031
00000000
00000200
00000000
00001300
00000000
00020000
00000000
00130000
00000000
,  // measure 25
20000000
31000000
00020000
00031000
00000020
00000031
00000200
00001300
,  // measure 26
00011000
00000000
00000000
00001000
00000100
00000010
00010000
00001000
00000100
00000010
00000000
00000000
,  // measure 27
00011000
00000000
00000000
00010000
00100000
01000000
00001000
00010000
00100000
01000000
00000000
00000000
,  // measure 28
00010000
01000000
00010000
01000000
00200000
00000000
10300000
00000000
02000000
00000000
03010000
00000000
00002000
00000000
00003010
00000000
,  // measure 29
00000002
00000103
00002000
00013000
00200000
10300000
02000000
03010000
,  // measure 30
00011000
00000000
00000000
00010000
01000000
00100000
00001000
00010000
01000000
00100000
00000000
00000000
,  // measure 31
00011000
00000000
00000000
00001000
00000010
00000100
00010000
00001000
00000010
00000100
00000000
00000000
,  // measure 32
00001000
00000100
00001000
00000100
00000010
00000000
00000001
00000000
00000100
00000000
00001000
00000000
00010000
00000000
01000000
00000000
,  // measure 33
10010000
00100000
10000000
01000000
00010000
00001000
00000010
00001001
,  // measure 34
00000100
00000001
00000010
00001000
00010000
00200000
00000000
10300000
,  // measure 35
01000000
00000000
00100000
00000000
00001000
00000000
00010000
00000000
00000200
00000000
00000000
00000000
00000310
00000001
00000010
00000000
,  // measure 36
00000100
00000000
00001000
00000000
00010000
00001000
00010000
00000000
00100000
00000000
01000000
00000000
10000000
01000000
10000000
00000000
,  // measure 37
01000000
00000000
00100000
00000000
00010000
00001000
00010000
00000000
00001000
00000000
00000100
00000000
00000010
00000001
00000010
00000000
,  // measure 38
00000001
00000100
00001000
00000000
00000100
00000000
00000010
00000000
00000100
00001000
00010000
00000000
00001000
00000000
00000100
00000000
,  // measure 39
00001000
00010000
00100000
00000000
00010000
00000000
00001000
00000000
00010000
00100000
10000000
00000000
01000000
00100000
01000000
00100000
,  // measure 40
00020000
00030000
01010000
10000000
11000000
00000000
00110000
00000000
,  // measure 41
00001010
00000000
00000101
00000000
00000021
00001000
00001030
00000000
,  // measure 42
00012000
00000010
00003010
00000000
00000021
00001000
00001030
00000000
,  // measure 43
00011000
00000000
00001000
00000000
00010000
00000000
01000000
00000000
20000000
00000000
00000000
00000000
30100000
00010000
00100000
00010000
,  // measure 44
00002000
00003000
00001100
00000001
00000101
00000000
00001010
00000000
,  // measure 45
00110000
00000000
11000000
00000000
10200000
00010000
00310000
00000000
,  // measure 46
00021000
00100000
00130000
00000000
10200000
00010000
00310000
00000000
,  // measure 47
00011000
00000000
00010000
00000000
00001000
00000000
00000100
00000000
00000002
00000000
00000000
00000000
00000013
00001000
00000010
00001000
,  // measure 48
00020000
00030000
00110000
10000000
10010000
00000000
00011000
00000000
,  // measure 49
00001001
00000000
00011000
00000000
02001000
00010000
03010000
00000000
,  // measure 50
00010200
00001000
00001300
00000000
00201000
00010000
00310000
00000000
,  // measure 51
00010010
00000000
00010000
00000000
00001000
00000000
00000100
00000000
00000002
00000000
00000000
00000000
00000013
00000100
00000010
00000100
,  // measure 52
00002000
00000000
00000000
00000000
00000010
00000000
00000010
00000000
00103000
00000000
00000000
00000000
00100000
01000000
00100000
01000000
,  // measure 53
00020000
00000000
00000000
00000000
00100000
00000000
00100000
00000000
00030010
00000000
00000000
00000000
00000010
00000100
00000010
00000100
,  // measure 54
00002000
00000000
00000000
00000000
00000010
00000000
00000010
00000000
00103000
00000000
00000000
00000000
00100000
01000000
00100000
01000000
,  // measure 55
00020000
00000000
00000000
00000000
00130000
00001000
00100000
00001000
00020000
00000000
00000000
00000000
00030100
00001000
00000100
00001000
,  // measure 56
00000001
00000000
00000000
00000001
00000100
00000000
00000000
00000100
00001000
00000000
00000000
00001000
00010000
00000000
00000000
00010000
,  // measure 57
00100000
00000000
00000000
00100000
10000000
00000000
00000000
10000000
01000000
00000000
00000000
01000000
00010000
00000000
00000000
00010000
,  // measure 58
00001000
00000100
00000001
00001000
00000100
00000010
00000001
00000000
00000000
00001100
00000000
00000000
,  // measure 59
00010000
00000000
00000000
00000000
00001000
00000000
00000000
00000000
00100000
00000000
00000000
00000000
01000000
00000000
00000000
00000000
10000000
00000000
00000000
00000000
00100000
00000000
00000000
00000000
00010000
00000000
00000000
00000000
00000000
00000000
00000000
00000000
00000000
00000000
00000000
00000000
00100000
00000000
00000000
01000000
00000000
00000000
00100000
00000000
00000000
01000000
00000000
00000000
,  // measure 60
00010000
00000000
00000000
00010000
10000000
00000000
00000000
10000000
01000000
00000000
00000000
01000000
00010000
00000000
00000000
00010000
,  // measure 61
00001000
00000000
00000000
00001000
00000010
00000000
00000000
00000010
00000001
00000000
00000000
00000001
00000100
00000000
00000000
00000100
,  // measure 62
00001000
00010000
01000000
00100000
00010000
10000000
01000000
00000000
00000000
00110000
00000000
00000000
,  // measure 63
00001000
00000000
00000000
00000000
00010000
00000000
00000000
00000000
00000100
00000000
00000000
00000000
00000010
00000000
00000000
00000000
00000001
00000000
00000000
00000000
00001000
00000000
00000000
00000000
00000010
00000000
00000000
00000000
00000000
00000000
00000000
00000000
00000000
00000000
00000000
00000000
00000100
00000000
00000000
00000001
00000000
00000000
00000100
00000000
00000000
00000001
00000000
00000000
,  // measure 64
00000020
00000000
00001030
00010000
00011000
00001000
00100000
00010000
,  // measure 65
02010000
00000000
03100000
00000000
10200000
00000000
01300000
00000000
00010000
00000000
00010000
00000000
10000000
01000000
10000000
01000000
,  // measure 66
00100000
00000000
00001000
00000000
00010000
00001000
00010000
00001000
00000010
00000000
00000001
00000000
00000100
00000010
00000100
00000010
,  // measure 67
00010000
00000000
00001000
00010000
00000100
00000000
00010000
00001000
02000000
00000000
00000000
00000000
03010000
00100000
01000000
10000000
,  // measure 68
00200000
00000000
01300000
00010000
00110000
00100000
00001000
00010000
,  // measure 69
00010200
00000000
00001300
00000000
00020100
00000000
00031000
00000000
00000010
00000000
00000010
00000000
00000001
00000100
00000001
00000100
,  // measure 70
00000010
00000000
00010000
00000000
00001000
00100000
00001000
00100000
01000000
00000000
10000000
00000000
00100000
01000000
00100000
01000000
,  // measure 71
00010000
00000000
00100000
01000000
10000000
00000000
00010000
00100000
02000000
00000000
00000000
00000000
03010000
00001000
00010000
00002000
,  // measure 72
00020000
00033000
00011000
00001001
,  // measure 73
00000120
00000000
00001030
00000000
00000210
00000000
00000301
00000000
00000010
00000000
00000010
00000000
00001000
00010000
00001000
00010000
,  // measure 74
00100000
00000000
00010000
00000000
00001000
00010000
00001000
00010000
01000000
00000000
00010000
00000000
00001000
00010000
00001000
00010000
,  // measure 75
00100000
00000000
10000000
01000000
00100000
00000000
00010000
01000000
00002000
00000000
00000000
00000000
00013000
00001000
00000100
00000010
,  // measure 76
00002000
00000000
00000000
00000000
00000001
00000000
00000000
00000000
00013000
00000000
00000000
00000000
00001000
00010000
00100000
01000000
,  // measure 77
00020000
00000000
00000000
00000000
10000000
00000000
00000000
00000000
00031000
00000000
00000000
00000000
00010000
00001000
00000100
00000010
,  // measure 78
00002000
00003100
00020000
00031000
02000000
03010000
20000000
30100000
,  // measure 79
00100000
01000000
00010000
00000000
00100000
00001000
00010000
00000000
00000100
00001000
00000100
00001000
00000100
00000010
00000001
00000200
,  // measure 80
00000020
00000000
00000330
00000000
;

//---------------dance-single - ----------------
#NOTEDATA:;
#CHARTNAME:;
#STEPSTYPE:dance-single;
#DESCRIPTION:;
#CHARTSTYLE:;
#DIFFICULTY:Hard;
#METER:13;
#RADARVALUES:0.690955,0.750068,0.533645,0.186352,0.160941,571.000000,508.000000,63.000000,22.000000,0.000000,0.000000,0.000000,0.000000,0.000000,0.690955,0.750068,0.533645,0.186352,0.160941,571.000000,508.000000,63.000000,22.000000,0.000000,0.000000,0.000000,0.000000,0.000000;
#CREDIT:MILEN;
#DISPLAYBPM:170.000000;
#NOTES:
0000
0000
0000
0000
,
0000
0000
0000
0000
,
0000
0000
0000
0000
,
0000
0000
0000
0000
,
0000
0001
0100
0010
,
1000
0001
0010
0100
,
1000
0000
0010
0110
0000
0101
0000
1010
,
0000
1001
0001
0000
0100
0000
1000
0000
,
0010
0000
0110
0000
0100
0010
0001
0000
,
0101
0000
1010
0000
1001
0000
0001
0001
,
0001
0000
0100
0100
0100
0000
0010
0010
,
0010
0000
1000
1000
0100
0010
0002
0000
,
1003
0010
0110
0000
0100
0010
1000
0000
,
1100
0000
0011
0000
1001
0000
1000
1000
,
1000
0000
0100
0100
0100
0000
0010
0010
,
0010
0000
0001
0001
0100
0010
2000
0000
,
3001
0010
0110
0000
0100
0010
0001
0000
,
0101
0000
1010
0000
0110
0000
1000
1000
,
1000
0000
0010
0010
0010
0000
0001
0001
,
0001
0000
0100
0100
1000
0010
0200
0000
,
0301
1000
1001
0000
0001
0100
0110
0000
,
1000
0010
0100
0000
0001
0010
0110
0000
,
1000
0100
0010
0000
0001
1000
1010
0000
,
1000
0001
0010
0000
0001
1000
1100
0000
,
1000
0001
0100
0100
0010
1000
0100
0100
,
0010
0001
0100
0100
0010
1000
0100
0010
,
0002
0000
0000
0103
0010
1000
0010
0100
0001
1000
0000
0000
,
1010
0000
0000
0010
0100
0001
0100
0010
1000
0100
0000
0000
,
0100
0010
0100
0000
0010
0000
0010
0000
0100
0000
1000
0000
0010
0000
0010
0000
,
0100
0001
0010
0010
0100
1000
0010
0100
,
0002
0000
0000
0013
0100
1000
0100
0010
0001
1000
0000
0000
,
1100
0000
0000
0100
0010
0001
0010
0100
1000
0010
0000
0000
,
0010
0100
0010
0000
1000
0000
0100
0000
0010
0000
0001
0000
1000
0000
0100
0000
,
0100
0001
0010
0100
1000
0001
0010
0010
,
1000
0100
0010
0001
0100
0020
0000
1030
,
0001
0010
0100
1000
1001
0000
0001
0100
,
0010
1000
0001
0010
0100
1000
0010
0100
,
0001
1000
0100
0010
0001
0100
0010
1000
,
0010
0001
0010
0100
0001
0100
1000
0100
,
0010
1000
0001
0010
0100
1000
0010
0100
,
1001
0000
0010
0010
0010
0000
1010
0000
,
1100
0000
0101
0000
1000
1000
1000
0000
,
0010
0010
0010
0000
0001
0001
0001
0000
,
0100
0100
1000
0001
0200
0000
0310
1000
,
1001
0000
0100
0100
0100
0000
0101
0000
,
0011
0000
1010
0000
0001
0001
0001
0000
,
0100
0100
0100
0000
1000
1000
1000
0000
,
0010
0010
0001
1000
0020
0000
0130
0001
,
1001
0000
0110
0110
0110
0000
1010
0000
,
0011
0000
1100
0000
0001
0001
0011
0000
,
1000
1000
1010
0000
0001
0001
0101
0000
,
1000
1000
0010
0100
0002
0000
0013
0100
,
1100
0000
1000
0100
0010
0000
0100
0010
,
0011
0000
0001
0010
0100
0000
1000
0010
,
0110
0000
0001
0100
0010
0000
1000
0100
,
0110
0000
0001
0010
0200
0000
1300
1000
,
0010
0100
1000
0100
0010
0100
1000
0100
,
0001
0100
1000
0100
0001
0100
0010
1000
,
0001
0010
0100
1000
0001
0010
0100
0000
0000
0110
0000
0000
,
1000
0000
0000
0000
0100
0000
0000
0000
0010
0000
0000
0000
0001
0000
0000
0000
1000
0000
0000
0000
0100
0000
0000
0000
0020
0000
0000
0000
0000
0000
0000
0000
0000
0000
0000
0000
0031
0000
0000
0100
0000
0000
0001
0000
0000
0000
0000
0000
,
0100
0010
0001
0010
0100
0010
0001
0010
,
1000
0010
0001
0010
1000
0010
0100
0001
,
0010
0100
1000
0010
0100
0001
1000
0000
0000
0110
0000
0000
,
0100
0000
0000
0000
0010
0000
0000
0000
0001
0000
0000
0000
1000
0000
0000
0000
0010
0000
0000
0000
0100
0000
0000
0000
0001
0000
0000
0000
0000
0000
0000
0000
0000
0000
0000
0000
0001
0000
0000
0100
0000
0000
0001
0000
0000
0000
0000
0000
,
2000
0000
3010
0100
0101
0000
0011
0000
,
1100
1000
0010
0100
0001
0001
0010
0100
,
1000
1000
0010
0100
0001
0001
0010
0100
,
1000
1000
0010
0010
0200
0000
0301
1000
,
1020
0000
0130
0001
0011
0000
1010
0000
,
0101
0001
0010
0100
1000
1000
0010
0100
,
0001
0001
0010
0100
1000
1000
0010
0100
,
0001
0001
0010
0010
0200
0000
1300
0010
,
0220
0330
0110
1001
,
1000
0100
0010
0001
0100
0100
1000
0001
,
0010
0010
1000
0001
0100
0100
1000
0001
,
0010
0010
0100
0100
0002
0000
1003
0100
,
0120
0000
1000
0000
0031
0000
0001
0100
,
0120
0000
0001
0000
1030
0000
1000
0100
,
0110
0010
0001
0100
0110
0010
1000
0100
,
0010
0000
0010
0000
0001
0000
0001
0000
1000
0010
1000
0000
0001
0010
0001
0000
,
2002
0000
3003
0000
;

//---------------dance-double - ----------------
#NOTEDATA:;
#CHARTNAME:;
#STEPSTYPE:dance-double;
#DESCRIPTION:;
#CHARTSTYLE:;
#DIFFICULTY:Hard;
#METER:13;
#RADARVALUES:0.666754,0.681880,0.415057,0.211764,0.135529,551.000000,502.000000,49.000000,25.000000,0.000000,0.000000,0.000000,0.000000,0.000000,0.666754,0.681880,0.415057,0.211764,0.135529,551.000000,502.000000,49.000000,25.000000,0.000000,0.000000,0.000000,0.000000,0.000000;
#CREDIT:MILEN;
#DISPLAYBPM:170.000000;
#NOTES:
00000000
00000000
00000000
00000000
,
00000000
00000000
00000000
00000000
,
00000000
00000000
00000000
00000000
,
00000000
00000000
00000000
00000000
,
00000000
00001000
01000000
00010000
,
00100000
00001000
00010000
00000100
,
00001000
00000000
00000010
00010010
00000000
00101000
00000000
00010100
,
00000000
01001000
01000000
00000000
00010000
00000000
00100000
00000000
,
00001000
00000000
00011000
00000000
00010000
00001000
00000010
00000000
,
00000011
00000000
00001010
00000000
00011000
00000000
00001000
00010000
,
01000000
00000000
00010000
01000000
10000000
00000000
01000000
10000000
,
00100000
00000000
10000000
00100000
00010000
00001000
00200000
00000000
,
01300000
00100000
00101000
00000000
00001000
00010000
00100000
00000000
,
10100000
00000000
00110000
00000000
00011000
00000000
00010000
00001000
,
00000100
00000000
00001000
00000100
00000001
00000000
00000100
00000001
,
00000010
00000000
00000001
00000010
00001000
00010000
00000020
00000000
,
00000130
00000010
00010010
00000000
00010000
00001000
00000100
00000000
,
00000101
00000000
00000011
00000000
00001010
00000000
00001000
00010000
,
00100000
00000000
00010000
00100000
10000000
00000000
00100000
10000000
,
01000000
00000000
10000000
01000000
00010000
00001000
00000020
00000000
,
00000031
00000100
00000110
00000000
00000010
00010000
00001000
00000000
,
00100000
00001000
00010000
00000000
00000100
00010000
00001000
00000000
,
01000000
00001000
00010000
00000000
00100000
10000000
01000000
00000000
,
00010000
00001000
00000010
00000000
00000001
00000100
00002000
00000000
,
00013000
00010000
00001000
00010000
00100000
10000000
01000000
00010000
,
00001000
00010000
00100000
10000000
01000000
00010000
00001000
00010000
,
00200000
00000000
00000000
10300000
01000000
10000000
01000000
00010000
00001000
00000100
00000000
00000000
,
00000101
00000000
00000000
00000001
00000010
00000001
00000010
00001000
00010000
00100000
00000000
00000000
,
00010000
00010000
00001000
00000100
00000001
00000010
00001000
00010000
,
00001000
00000100
00000001
00000010
00001000
00010000
00001000
00000100
,
00000002
00000000
00000000
00000013
00000100
00000010
00000100
00010000
00001000
01000000
00000000
00000000
,
01100000
00000000
00000000
00100000
01000000
00100000
01000000
00001000
00010000
00000200
00000000
00000000
,
00000310
00000010
00000001
00000100
00001000
00010000
00100000
10000000
,
00010000
10000000
01000000
00010000
00001000
00000010
00000001
00001000
,
00000001
00000100
00001000
00010000
00100000
20000000
00000000
31000000
,
00100000
00010000
01000000
00001000
00011000
00000000
00010000
00000100
,
00000010
00000001
00001000
00000100
00000010
00001000
00010000
01000000
,
00100000
00010000
10000000
01000000
00100000
00001000
00010000
00000100
,
00000010
00000001
00000100
00001000
00010000
01000000
10000000
00100000
,
00010000
00001000
00000100
00000001
00000010
00001000
00010000
00100000
,
20000000
00000000
31000000
00100000
00110000
00000000
01001000
00000000
,
00010010
00000000
00001100
00000000
00000100
00000010
00000001
00000000
,
00000010
00000001
00000100
00000000
00000001
00000100
00001000
00000000
,
00000100
00001000
00010000
00001000
00000020
00000000
00001030
00000010
,
00000002
00000000
00000013
00000100
00001100
00000000
00010010
00000000
,
01001000
00000000
00110000
00000000
00100000
01000000
10000000
00000000
,
01000000
10000000
00100000
00000000
10000000
00100000
00010000
00000000
,
00100000
00010000
00001000
00010000
02000000
00000000
13000000
01000000
,
00010000
00000000
01000000
00100000
00110000
00000000
00011000
00000000
,
00001100
00000000
00000101
00000000
00000001
00000010
00001000
00000000
,
00000010
00001000
00010000
00000000
00001000
00010000
00100000
00000000
,
00010000
00100000
10000000
01000000
00200000
00000000
00301000
00010000
,
00010010
00000000
00000010
00001000
00000100
00000000
00000010
00000001
,
00000100
00000000
00001000
00010000
01000000
00000000
10000000
00100000
,
00010000
00000000
00001000
00000100
00000001
00000000
00000010
00001000
,
00010000
00000000
00100000
00010000
00002000
00000000
00003010
00000010
,
00000001
00000100
00001000
00010000
00100000
10000000
01000000
00010000
,
00001000
00000010
00000001
00000100
00001000
00010000
00100000
10000000
,
01000000
00100000
01000000
00100000
00001000
00010000
00000010
00000000
00000000
00000110
00000000
00000000
,
00000100
00000000
00000010
00000000
00000100
00000000
00000010
00000000
00010000
00000000
00001000
00000000
00200000
00000000
00000000
00000000
00000000
00000000
01300000
00000000
00000000
01000000
00000000
00000000
,
10000000
00100000
00010000
00001000
00000100
00000001
00000010
00001000
,
00010000
00100000
10000000
01000000
00010000
00001000
00000010
00000001
,
00000100
00001000
00000100
00001000
00010000
00100000
10000000
00000000
00000000
11000000
00000000
00000000
,
01000000
00000000
00010000
00000000
01000000
00000000
00010000
00000000
00001000
00000000
00000010
00000000
00000001
00000000
00000000
00000000
00000000
00000000
00000100
00000000
00000000
00000100
00000000
00000000
,
00000020
00000000
00010030
00001000
00011000
00000000
01010000
00000000
,
11000000
10000000
00100000
00010000
00001000
00001000
00100000
01000000
,
00010000
00010000
00001000
00100000
01000000
01000000
00010000
00001000
,
00000010
00000010
00000001
00000100
00002000
00000000
00013000
00001000
,
00101000
00000000
00100000
00001000
00011000
00000000
00001100
00000000
,
00000101
00000001
00000010
00001000
00010000
00010000
00000010
00000100
,
00001000
00001000
00010000
00000010
00000100
00000100
00001000
00010000
,
00100000
00100000
10000000
01000000
00020000
00000000
00031000
00010000
,
00022000
00033000
00011000
00011000
,
00010000
01000000
10000000
00100000
00010000
00010000
00001000
00000100
,
00000001
00000001
00000010
00001000
00010000
00010000
00100000
10000000
,
01000000
01000000
00010000
00001000
00000020
00000000
00000031
00000100
,
00002100
00000000
00010000
00000000
01003000
00000000
10000000
00100000
,
00120000
00000000
00001000
00000000
00030010
00000000
00000001
00000100
,
00011000
00010000
00100000
10000000
01000000
00100000
00010000
01000000
,
00100000
00010000
00001000
00000100
00000001
00000010
00001000
00010000
,
00022000
00000000
00033000
00000000
;

//---------------dance-single - ----------------
#NOTEDATA:;
#CHARTNAME:;
#STEPSTYPE:dance-single;
#DESCRIPTION:;
#CHARTSTYLE:;
#DIFFICULTY:Beginner;
#METER:4;
#RADARVALUES:0.174251,0.238658,0.008471,0.076235,0.000000,144.000000,143.000000,1.000000,9.000000,0.000000,0.000000,0.000000,0.000000,0.000000,0.174251,0.238658,0.008471,0.076235,0.000000,144.000000,143.000000,1.000000,9.000000,0.000000,0.000000,0.000000,0.000000,0.000000;
#CREDIT:MILEN;
#DISPLAYBPM:170.000000;
#NOTES:
0000
0000
0000
0000
,
0000
0000
0000
0000
,
0000
0000
0000
0000
,
0000
0000
0000
0000
,
0000
1000
0000
1000
,
0000
0001
0000
0001
,
0000
1000
0000
0001
,
0000
1000
0000
0001
,
0000
0100
0000
0100
,
0000
0100
0000
0010
,
0000
0100
0000
0010
,
0000
0100
0100
0100
,
0000
0000
0000
0010
,
0000
0010
0000
0100
,
0000
0010
0000
0100
,
0000
0010
0010
0010
,
0000
0000
0000
1000
,
0000
1000
0000
0001
,
0000
1000
0000
0001
,
0000
1000
1000
1000
,
0000
0000
0000
0001
,
0000
0000
0000
0100
,
0000
0000
0000
1000
,
0000
0000
0010
0010
,
0000
0001
0000
1000
,
0000
0001
0000
1000
,
0000
0020
0000
0030
,
0000
0200
0000
0300
,
0000
0001
0000
1000
,
0000
0001
0000
1000
,
0000
0200
0000
0300
,
0000
0020
0000
0030
,
0000
0001
0000
0001
,
0000
1000
0000
0000
0000
1000
0000
0000
,
0001
0000
1000
0000
,
0010
0000
0100
0000
,
0010
0000
1000
0000
,
0001
0000
0100
0000
,
0010
0000
1000
0000
,
0001
0000
0010
0000
,
0100
0000
1000
0000
,
0100
0000
1000
0000
,
1000
0000
0100
0000
,
1000
1000
1000
0000
,
0000
0000
0001
0000
,
0010
0000
0001
0000
,
0001
0000
0010
0000
,
0001
0001
0001
0000
,
0000
0000
0100
0000
,
0010
0000
0100
0000
,
0100
0000
0010
0000
,
0100
0100
0100
0000
,
0000
0000
0001
0000
,
0000
0000
0010
0000
,
0000
0000
1000
0000
,
0000
0100
0100
0000
,
0001
0000
1000
0000
,
0001
0000
1000
0000
,
0200
0000
0300
0000
,
0020
0000
0030
0000
,
0001
0000
1000
0000
,
0001
0000
1000
0000
,
0020
0000
0030
0000
,
0200
0000
0300
0000
,
0001
0000
0100
0000
,
1000
0000
0010
0000
,
0001
0000
0100
0000
,
1000
1000
1000
0000
,
0000
0000
0100
0000
,
0001
0000
0010
0000
,
1000
0000
0100
0000
,
0001
0001
0001
0000
,
1001
0000
0000
0000
,
1000
0000
0010
0000
,
0001
0000
0100
0000
,
1000
1000
1000
0000
,
0000
0001
0001
0000
,
0000
0010
0010
0000
,
0000
1000
1000
0000
,
0000
0100
0100
0010
,
0200
0000
0300
0000
;

//---------------dance-single - ----------------
#NOTEDATA:;
#CHARTNAME:;
#STEPSTYPE:dance-single;
#DESCRIPTION:;
#CHARTSTYLE:;
#DIFFICULTY:Easy;
#METER:7;
#RADARVALUES:0.318251,0.409128,0.152470,0.118588,0.000000,263.000000,245.000000,18.000000,14.000000,0.000000,0.000000,0.000000,0.000000,0.000000,0.318251,0.409128,0.152470,0.118588,0.000000,263.000000,245.000000,18.000000,14.000000,0.000000,0.000000,0.000000,0.000000,0.000000;
#CREDIT:MILEN;
#DISPLAYBPM:170.000000;
#NOTES:
0000
0000
0000
0000
,
0000
0000
0000
0000
,
0000
0000
0000
0000
,
0000
0000
0000
0000
,
0000
1000
0000
0001
,
0000
0100
0000
0010
,
0000
1000
0001
0100
,
0010
1000
1000
0001
,
0001
1001
1000
0100
,
0010
0001
0001
0100
,
0000
1000
0000
0010
,
0000
0001
1000
1001
,
0100
0100
0001
0010
,
0100
1000
1000
0010
,
0000
0001
0000
0100
,
0000
1000
0001
1001
,
0010
0010
1000
0010
,
0100
0001
0001
0010
,
0000
1000
0000
0100
,
0000
0001
1000
1001
,
0010
0010
0001
0100
,
0000
0100
1000
0010
,
0000
0010
0001
0100
,
0000
0100
1000
0020
,
0030
0100
0000
0001
,
0000
1000
0000
0010
,
0000
0100
0100
0110
,
0000
0010
0010
0110
,
0000
1000
0000
0010
,
0000
0001
0000
0100
,
0000
1000
1000
1001
,
0000
0001
0001
1001
,
0000
0010
0100
0010
,
0010
0100
0000
0010
0000
0100
0000
0100
,
0001
0001
2000
3000
,
1000
1000
0002
0003
,
0200
0300
0020
0030
,
2000
3000
0002
0003
,
0020
0030
0200
0300
,
2000
3000
0020
0130
,
0010
1000
0100
0010
,
0001
0001
0100
0000
,
1000
0000
0010
0000
,
0001
1000
1001
0100
,
0100
0001
0010
0100
,
1000
1000
0010
0000
,
0001
0000
0100
0000
,
1000
0001
1001
0100
,
0100
1000
0010
0100
,
0001
0001
0010
0000
,
1000
0000
0100
0000
,
0001
1000
1001
0010
,
0010
0001
0100
0000
,
0100
1000
0010
0000
,
0010
0001
0100
0000
,
0100
1000
0010
0200
,
0301
0001
0010
0010
,
0100
0100
1000
1000
,
0010
0000
0001
0000
,
0100
0000
1000
0001
,
1000
1000
0100
0100
,
0010
0010
0001
0001
,
0100
0000
1000
0000
,
0010
0000
0001
1000
,
0001
0010
0100
1000
,
0001
0010
0100
0001
,
0100
1000
0100
0001
,
0100
1000
0010
0000
,
0110
1000
0100
0010
,
0001
1000
0100
0010
,
1000
0010
0001
0010
,
1000
0010
0001
0100
,
0110
0000
0010
0100
,
1000
0010
0001
0010
,
1000
0100
0001
0100
,
1000
0010
0100
0001
,
1001
1000
0100
0000
,
1001
0001
0010
0000
,
1001
1000
0010
0010
,
1001
0001
0100
0100
,
0220
0000
0330
0000
;

//---------------dance-double - ----------------
#NOTEDATA:;
#CHARTNAME:;
#STEPSTYPE:dance-double;
#DESCRIPTION:;
#CHARTSTYLE:;
#DIFFICULTY:Easy;
#METER:7;
#RADARVALUES:0.303730,0.340940,0.135529,0.160941,0.004235,251.000000,235.000000,16.000000,19.000000,0.000000,0.000000,0.000000,0.000000,0.000000,0.303730,0.340940,0.135529,0.160941,0.004235,251.000000,235.000000,16.000000,19.000000,0.000000,0.000000,0.000000,0.000000,0.000000;
#CREDIT:MILEN;
#DISPLAYBPM:170.000000;
#NOTES:
00000000
00000000
00000000
00000000
,
00000000
00000000
00000000
00000000
,
00000000
00000000
00000000
00000000
,
00000000
00000000
00000000
00000000
,
00000000
00001000
00000000
00010000
,
00000000
00001000
00000000
00010000
,
00000000
00001000
00010000
00001000
,
00010000
00001000
00001000
00010000
,
00010000
00011000
00001000
00100000
,
00010000
01000000
01000000
10000000
,
00000000
01000000
00000000
00100000
,
00000000
00010000
00001000
00011000
,
00010000
00001000
00010000
00000010
,
00001000
00000100
00000100
00000001
,
00000000
00000100
00000000
00000010
,
00000000
00001000
00010000
00011000
,
00001000
00010000
00100000
01000000
,
00010000
00100000
00100000
10000000
,
00000000
00100000
00000000
01000000
,
00000000
00010000
00001000
00011000
,
00010000
00001000
00000100
00000010
,
00000000
00001000
00000100
00000010
,
00000000
00000001
00000100
00001000
,
00000000
00010000
00100000
20000000
,
30000000
01000000
00000000
00100000
,
00000000
00010000
00000000
01000000
,
00000000
00001000
00010000
00002000
,
00003000
00010000
00001000
00020000
,
00030000
00000010
00000000
00001000
,
00000000
00000100
00000000
00000010
,
00000000
00001000
00010000
00002000
,
00003000
00010000
00001000
00020000
,
00030000
00001000
00001000
00001000
,
00001000
00010000
00000000
00010000
00000000
00010000
00000000
00010000
,
00001000
00010000
00002000
00003000
,
00010000
00001000
00020000
00030000
,
02000000
03000000
20000000
30000000
,
00200000
00300000
00020000
00030000
,
00002000
00003000
00000200
00000300
,
00000002
00000003
00000020
00001030
,
00011000
00010000
00000100
00001000
,
00000010
00000010
00000001
00000000
,
00000010
00000000
00000100
00000000
,
00001000
00010000
00011000
00001000
,
00010000
00001000
01000000
00010000
,
00100000
00100000
10000000
00000000
,
00100000
00000000
01000000
00000000
,
00010000
00001000
00011000
00010000
,
00001000
00000100
00000010
00001000
,
00000100
00000100
00000001
00000000
,
00000100
00000000
00000010
00000000
,
00001000
00010000
00011000
00001000
,
00010000
00100000
01000000
00000000
,
00010000
00100000
01000000
00000000
,
10000000
00100000
00010000
00000000
,
00001000
00000000
00000000
00000000
00000000
00000000
00000000
00000000
00000000
00000000
00000000
00000000
00000000
00000000
00000000
00000000
00000000
00000000
00000000
00000000
00000000
00000000
00000000
00000000
00000000
00000000
00000000
00000000
00000000
00000000
00000000
00000000
00000000
00000000
00000000
00000000
00000000
00000000
00000000
00000000
00000000
00000000
00000000
00000000
00000000
00000000
00000000
00000000
00000100
00000000
00000000
00000000
00000000
00000000
00000000
00000000
00000000
00000000
00000000
00000000
00000000
00000000
00000000
00000000
00000000
00000000
00000000
00000000
00000000
00000000
00000000
00000000
00000000
00000000
00000000
00000000
00000000
00000000
00000000
00000000
00000000
00000000
00000000
00000000
00000000
00000000
00000000
00000000
00000000
00000000
00000000
00000000
00000000
00000000
00000000
00000000
00000001
00000000
00000000
00000000
00000000
00000000
00000000
00000000
00000000
00000000
00000000
00000000
00000000
00000000
00000000
00000000
00000000
00000000
00000000
00000000
00000000
00000000
00000000
00000000
00000000
00000000
00000000
00000000
00000000
00000000
00000000
00000000
00000000
00000000
00000000
00000000
00000000
00000000
00000000
00000000
00000000
00000000
00000000
00000000
00000000
00000000
00000000
00000000
00000000
00000020
00000000
00000000
00000000
00000000
00000000
00000000
00000000
00000000
00000000
00000000
00000000
00000000
00000000
00000000
00000000
00000000
00000000
00000000
00000000
00000000
00000000
00000000
00000000
00000000
00000000
00000000
00000000
00000000
00000000
00000000
00000000
00000000
00000000
00000000
00000000
00000000
00000000
00000000
00000000
00000000
00000000
00000000
00000000
00000000
00000000
00000000
,
00000130
00000000
00010000
00000000
,
00001000
00000000
00100000
00000000
,
01000000
00000000
10000000
00000000
,
00100000
00000000
00010000
00001000
,
00100000
00000000
01000000
00000000
,
00010000
00000000
00001000
00000000
,
00000010
00000000
00000001
00000000
,
00000100
00000000
00001000
00010000
,
00011000
00001000
00100000
01000000
,
10000000
00010000
00100000
01000000
,
00100000
00001000
00100000
01000000
,
00100000
00001000
00020000
00000000
,
00031000
00011000
00010000
00000100
,
00000010
00000001
00001000
00000100
,
00000010
00000100
00010000
00000100
,
00000010
00000100
00010000
00001000
,
00011000
00000000
00010000
00001000
,
00010000
01000000
10000000
00100000
,
00010000
00001000
00000100
00000001
,
00000010
00001000
00010000
00001000
,
00011000
00010000
01000000
00000000
,
00011000
00001000
00000100
00000000
,
00011000
00010000
00100000
00000000
,
00011000
00001000
00000010
00000000
,
00002002
00000000
00003003
00000000
;

//---------------dance-single - ----------------
#NOTEDATA:;
#CHARTNAME:;
#STEPSTYPE:dance-single;
#DESCRIPTION:;
#CHARTSTYLE:;
#DIFFICULTY:Medium;
#METER:9;
#RADARVALUES:0.457410,0.511410,0.228705,0.101647,0.000000,378.000000,351.000000,27.000000,12.000000,0.000000,0.000000,0.000000,0.000000,0.000000,0.457410,0.511410,0.228705,0.101647,0.000000,378.000000,351.000000,27.000000,12.000000,0.000000,0.000000,0.000000,0.000000,0.000000;
#CREDIT:MILEN;
#DISPLAYBPM:170.000000;
#NOTES:
0000
0000
0000
0000
,
0000
0000
0000
0000
,
0000
0000
0000
0000
,
0000
0000
0000
0000
,
0000
1000
1000
0001
,
0001
0100
0100
0010
,
0010
0000
1000
0001
0000
0001
0000
0100
,
0010
0110
1001
0110
,
0010
0100
0020
0000
1030
0000
0100
0000
,
0010
0000
0001
0000
0100
0000
0010
1000
,
0010
0000
0100
0001
0100
0000
0010
1000
,
0010
0100
0001
1001
,
0000
0100
0100
0000
0001
0000
0010
0000
,
0100
0000
1000
0000
0010
0000
0100
0001
,
0100
0000
0010
1000
0010
0000
0100
0001
,
0100
0010
1000
1001
,
0000
0010
0010
0000
1000
0000
0010
0000
,
0100
0000
0001
0000
0100
0000
0010
1000
,
0100
0000
0010
0001
0100
0000
0010
1000
,
0100
0010
0100
0110
,
0000
0001
1000
0000
1000
0010
1000
0000
,
1000
0000
0000
0000
0001
0010
0001
0000
,
0001
0000
0000
0000
1000
0100
1000
0000
,
1000
0000
0000
0000
0001
0100
0002
0000
,
2003
3100
0010
0001
,
0010
1000
0010
0001
,
0010
0100
0100
1001
,
0000
0010
0010
1001
,
0010
0100
0010
0000
0100
0000
1000
0000
,
0100
0001
0100
1000
,
0100
0010
0010
1001
,
0000
0100
0100
1001
,
0100
0010
0100
0000
0001
0000
1000
0001
,
1000
0001
0000
1000
0000
0001
1000
0001
,
0100
0000
0010
0000
0100
0010
0000
0010
,
0200
0302
1003
1000
,
0100
0010
0001
0100
,
1000
0001
0010
1000
,
0100
0010
0001
0100
,
1000
0000
0001
0000
0010
0000
1000
0001
,
1000
0001
0100
0010
,
1000
0000
0100
0000
0010
0001
0010
0000
,
0100
1000
0100
0000
0010
0001
0010
0000
,
0100
0000
1000
0000
1001
0000
0000
0100
,
0100
1000
0010
0100
,
0001
0000
0010
0000
0100
1000
0100
0000
,
0010
0001
0010
0000
0100
1000
0100
0000
,
0010
0000
0001
0000
1001
0000
0000
0010
,
0010
0001
0010
0100
,
1000
0000
0100
0000
0010
0001
0100
0000
,
0010
1000
0100
0000
0010
0001
0100
0000
,
0010
0000
0100
0000
0110
0000
0000
1000
,
0001
0100
1000
0110
,
1000
0100
0001
0110
,
0001
0010
1000
0110
,
1000
0010
0002
2003
,
3001
0010
0100
0001
,
0100
1000
0100
0001
,
0100
0010
0001
0011
,
0010
0100
1000
1010
,
1000
0100
0010
1000
,
0010
0001
0010
1000
,
0010
0100
1000
1100
,
0100
0010
0001
0101
,
0110
1000
0001
0100
,
1000
0000
0010
0000
0001
0100
0010
0000
,
1000
0010
0100
0000
0001
0100
0010
0000
,
1000
0010
0100
0001
1000
0000
0020
0000
,
0130
0001
1000
0100
,
0001
0000
0010
0000
1000
0100
0010
0000
,
0001
0010
0100
0000
1000
0100
0010
0000
,
0001
0010
0100
1000
0001
0000
0200
0000
,
0020
0330
0110
1001
,
0001
0100
0010
0000
1000
0010
0100
0000
,
0001
0010
0100
0000
1000
0100
0010
0000
,
0001
1000
0010
0100
0001
0000
1000
0000
,
1001
0000
0010
0001
0100
0000
0100
0000
,
1001
0000
0010
1000
0100
0000
0100
0000
,
1001
0000
0010
0001
0100
0000
0010
1000
,
0100
0000
0001
0010
0100
1000
0010
0000
,
0220
0000
0330
0000
;

//---------------dance-double - ----------------
#NOTEDATA:;
#CHARTNAME:;
#STEPSTYPE:dance-double;
#DESCRIPTION:;
#CHARTSTYLE:;
#DIFFICULTY:Medium;
#METER:10;
#RADARVALUES:0.458620,0.511410,0.211764,0.093176,0.000000,379.000000,354.000000,25.000000,11.000000,0.000000,0.000000,0.000000,0.000000,0.000000,0.458620,0.511410,0.211764,0.093176,0.000000,379.000000,354.000000,25.000000,11.000000,0.000000,0.000000,0.000000,0.000000,0.000000;
#CREDIT:MILEN;
#DISPLAYBPM:170.000000;
#NOTES:
00000000
00000000
00000000
00000000
,
00000000
00000000
00000000
00000000
,
00000000
00000000
00000000
00000000
,
00000000
00000000
00000000
00000000
,
00000000
00001000
00100000
00010000
,
01000000
00001000
00010000
00000100
,
00001000
00000000
00000010
00010000
00000000
00010000
00000000
00001000
,
00100000
00110000
10010000
11000000
,
01000000
00010000
00002000
00000000
00003010
00000000
00000001
00000000
,
00000100
00000000
00000010
00000000
00010000
00000000
00001000
00010000
,
00100000
00000000
00010000
00001000
00100000
00000000
00001000
00010000
,
00100000
10000000
01000000
01100000
,
00000000
00010000
00010000
00000000
01000000
00000000
10000000
00000000
,
00100000
00000000
01000000
00000000
00001000
00000000
00010000
00001000
,
00000100
00000000
00001000
00010000
00000100
00000000
00010000
00001000
,
00000100
00000001
00000010
00000110
,
00000000
00001000
00001000
00000000
00000100
00000000
00000001
00000000
,
00000010
00000000
00000100
00000000
00010000
00000000
00001000
00010000
,
01000000
00000000
00010000
00001000
01000000
00000000
00001000
00010000
,
01000000
10000000
00100000
01100000
,
00000000
00010000
00010000
00000000
10000000
01000000
00100000
00000000
,
00010000
00000000
00000000
00000000
00100000
00010000
00001000
00000000
,
00010000
00000000
00000000
00000000
00001000
00000100
00000010
00000000
,
00000001
00000000
00000000
00000000
00000100
00001000
00020000
00000000
,
00032000
01003000
00100000
00010000
,
00100000
10000000
00100000
00010000
,
00001000
00000100
00000001
00000011
,
00000000
00000010
00001000
00011000
,
00001000
00000100
00000010
00000000
00000100
00000000
00001000
00000000
,
00000100
00000001
00000100
00001000
,
00010000
00100000
10000000
11000000
,
00000000
01000000
00010000
00011000
,
00001000
00010000
00100000
00000000
00010000
00000000
00001000
00010000
,
00001000
00000010
00000000
00001000
00000000
00010000
00001000
00010000
,
01000000
00000000
00010000
00000000
00001000
00010000
00000000
00010000
,
00000200
00000320
00000031
00000001
,
00000100
00001000
00010000
00000100
,
00001000
00010000
00100000
00001000
,
00010000
00100000
10000000
01000000
,
00100000
00000000
00001000
00000000
00010000
00000000
00000100
00000010
,
00000100
00000010
00000001
00000100
,
00000010
00000000
00010000
00000000
00001000
00010000
01000000
00000000
,
00010000
00001000
01000000
00000000
00001000
00010000
01000000
00000000
,
10000000
00000000
00100000
00000000
01100000
00000000
00000000
00010000
,
00010000
00100000
10000000
01000000
,
00100000
00000000
00001000
00000000
00010000
00001000
00000010
00000000
,
00001000
00010000
00000010
00000000
00010000
00001000
00000010
00000000
,
00000001
00000000
00000100
00000000
00000110
00000000
00000000
00001000
,
00001000
00000010
00000001
00000100
,
00000010
00000000
00010000
00000000
00001000
00010000
00100000
00000000
,
00010000
00001000
00100000
00000000
00001000
00010000
00100000
00000000
,
10000000
00000000
01000000
00000000
01100000
00000000
00000000
00010000
,
00010000
00000000
10000000
00100000
01000000
00000000
00010000
00000000
,
00000000
00000000
01000000
00010000
00001000
00000000
00010000
00000000
,
00000000
00000000
00001000
00000010
00000100
00000000
00000001
00000000
,
00000000
00000000
00000010
00001000
00020000
00000000
00032000
00000000
,
01003000
00100000
00010000
00100000
,
10000000
01000000
00010000
01000000
,
10000000
00100000
00010000
00011000
,
00001000
00000100
00000001
00001001
,
00000010
00000100
00001000
00000100
,
00000001
00000010
00001000
00000010
,
00000001
00000100
00001000
00011000
,
00010000
00100000
10000000
10010000
,
01100000
00100000
10000000
01000000
,
00010000
00000000
00001000
00000000
00100000
01000000
10000000
00000000
,
00010000
00100000
01000000
00000000
00010000
00001000
00000010
00000000
,
00000001
00000100
00001000
00010000
00100000
00000000
00010000
00001000
,
00000100
00000001
00000010
00001000
,
00010000
00000000
00000100
00000010
00000001
00000000
00001000
00000100
,
00000010
00000000
00001000
00010000
01000000
00000000
10000000
00100000
,
00010000
00001000
00000100
00000000
00001000
00010000
00100000
00000000
,
00022000
00033000
00011000
00011000
,
00010000
01000000
10000000
00000000
10000000
00100000
00010000
00000000
,
00001000
00000100
00000001
00000000
00000001
00000010
00001000
00000000
,
00010000
00001000
00010000
00001000
00010000
00000000
00001000
00000000
,
00011000
00000000
00010000
01000000
10000000
00000000
00100000
00000000
,
00011000
00000000
00001000
00000100
00000001
00000000
00000010
00000000
,
00011000
00000000
00010000
00100000
10000000
00000000
01000000
00010000
,
00001000
00000000
00000010
00000001
00000100
00001000
00010000
00000000
,
00022000
00000000
00033000
00000000
;
