#TITLE:Street Show Down;
#SUBTITLE:;
#ARTIST:BanYa;
#TITLETRANSLIT:;
#SUBTITLETRANSLIT:;
#ARTISTTRANSLIT:;
#GENRE:VARIETY;
#CREDIT:MUINELIM;
#BANNER:Street Show Down.png;
#BACKGROUND:Street Show Down-bg.png;
#LYRICSPATH:;
#CDTITLE:;
#MUSIC:Street Show Down.ogg;
#OFFSET:-0.749000;
#SAMPLESTART:62.684486;
#SAMPLELENGTH:11.592907;
#SELECTABLE:YES;
#BPMS:0.000000=124,76.000000=62,78.000000=124;
#STOPS:
;
#BGCHANGES:;
#KEYSOUNDS:;
#ATTACKS:;

//---------------dance-single - ----------------
#NOTES:
     dance-single:
     :
     Beginner:
     3:
     0.106362,0.147355,0.000000,0.010341,0.000000,72.000000,72.000000,0.000000,1.000000,0.000000,0.000000,0.106362,0.147355,0.000000,0.010341,0.000000,72.000000,72.000000,0.000000,1.000000,0.000000,0.000000:
0000
0000
0000
0000
,
0000
0000
0000
0000
,
0000
0000
0000
0000
,
0000
0000
0000
0000
,
1000
0000
1000
0000
,
1000
0000
0000
0000
,
0001
0000
0001
0000
,
0001
0000
0000
0000
,
1000
0000
0000
0000
,
0010
0000
0000
0000
,
0001
0000
0000
0000
,
0100
0000
0000
0000
,
1000
0000
0000
0000
,
0010
0000
0000
0000
,
0001
0000
0000
0000
,
0100
0000
0000
0100
,
0100
0000
1000
0000
,
0100
0000
0000
0000
,
0010
0000
0001
0000
,
0010
0000
0010
0000
,
0001
0000
1000
0000
,
0000
0000
0010
0000
,
1000
0000
0001
0000
,
0000
0000
0100
0000
,
0001
0000
1000
0000
,
0000
0000
0100
0000
,
1000
0000
0001
0000
,
0000
0000
0100
0000
,
0010
0000
1000
0000
,
0000
0000
0010
0000
,
0100
0000
0001
0000
,
1000
0000
0010
0010
,
0000
0000
0010
0000
,
0000
0000
0001
0001
,
0000
0000
0001
0000
,
0000
0000
0100
0100
,
0000
0000
0100
0000
,
0000
0000
1000
1000
,
0000
1000
1000
0000
,
0010
0000
0001
0000
,
1000
0000
0001
0001
,
0000
0000
1000
0000
,
0001
0000
1000
1000
,
0000
0000
0010
0000
,
0100
0000
0010
0010
,
0010
0000
0100
0000
,
0010
0000
1000
0000
,
0001
0002
0003
0000
;

//---------------dance-single - ----------------
#NOTES:
     dance-single:
     :
     Easy:
     5:
     0.205337,0.270151,0.093067,0.031022,0.000000,139.000000,130.000000,9.000000,3.000000,0.000000,0.000000,0.205337,0.270151,0.093067,0.031022,0.000000,139.000000,130.000000,9.000000,3.000000,0.000000,0.000000:
0000
0000
0000
0000
,
0000
0000
0000
0000
,
0000
0000
0000
0000
,
0000
0000
0000
0000
,
1000
0000
0001
0000
,
1000
1000
0000
1000
,
0001
0000
1000
0000
,
0001
0001
0000
1000
,
0001
0000
0100
0000
,
1000
0000
0010
0000
,
0001
0000
0100
0000
,
1000
0000
0010
0000
,
1000
0000
0100
0000
,
0001
0000
0010
0000
,
1000
0000
0100
0000
,
0001
0000
0010
0010
,
0010
0001
0100
0010
,
1000
0000
0000
0000
,
0100
1000
0010
0100
,
0002
0000
1003
1000
,
0100
0010
0001
1000
,
0100
0100
0001
0010
,
0100
0000
1000
0000
0010
0000
0100
0100
,
0000
0010
1000
0001
,
0100
0000
0001
1000
,
0010
0000
1000
0001
,
0100
0010
0100
0100
,
0100
0001
1000
0000
0010
0000
0100
0000
,
0001
1000
0010
0010
,
0000
0001
0000
0100
,
0000
1000
1001
1001
,
0110
0110
1000
0000
,
0010
0000
0001
0001
,
0100
0000
0001
0000
,
0010
0000
1000
1000
,
0100
0000
1000
0000
,
0100
0000
0001
0001
,
0010
0000
0001
0000
,
0100
0000
1000
1000
,
0010
0000
1000
1000
,
0100
0010
0001
0110
,
0000
0001
0001
0010
,
0100
1000
0110
0000
,
1000
1000
0010
0001
,
0100
1000
0110
0000
,
0001
0001
0010
1000
,
0100
0001
0110
1000
,
0001
2002
3003
0000
;

//---------------dance-single - ----------------
#NOTES:
     dance-single:
     :
     Medium:
     9:
     0.347153,0.392948,0.196474,0.051704,0.005170,235.000000,216.000000,19.000000,5.000000,0.000000,0.000000,0.347153,0.392948,0.196474,0.051704,0.005170,235.000000,216.000000,19.000000,5.000000,0.000000,0.000000:
0000
0000
0000
0000
,
0000
0000
0000
0000
,
0000
0000
0000
0000
,
0000
0000
0000
0000
,
1000
0000
0001
0000
1000
1000
1000
0000
,
0001
0000
1001
0000
0000
0100
0100
0000
,
0001
0000
1000
0000
0001
0001
0001
0000
,
1000
0000
1001
0000
0000
0010
0010
0000
,
1000
0100
0001
0010
,
1000
0000
0100
0000
0001
0000
0010
0100
,
0010
0001
0100
1000
,
0010
0000
0001
0000
0100
0000
1000
0001
,
1000
0010
0001
0100
,
1000
0000
0010
0000
0001
0000
0100
0010
,
0100
0001
0010
1000
,
0200
0000
0020
0330
,
0110
0000
0001
0000
0000
0001
0010
0100
,
1000
1000
0000
0000
0010
0000
0001
0000
,
0100
1000
0010
0000
0001
0000
1000
0000
,
2002
3003
1000
0010
,
0100
0001
0100
0000
0010
0000
1000
0000
,
0100
0000
0010
0000
0001
0000
0100
0010
,
0000
1000
0010
0000
0011
0000
1000
0100
,
0010
1000
0010
0001
0100
0000
0100
0000
,
1000
0010
0100
0000
0010
0000
0010
0000
,
0001
0100
0010
0000
1000
0000
0001
0000
,
1000
0100
0010
0000
0010
0001
0010
0001
,
0100
1000
0100
0000
0010
0000
0110
0000
,
1000
0001
0100
0000
1000
0000
0010
0000
,
0000
1000
1000
0000
0001
0000
0110
0000
,
1000
0010
0001
0000
0101
0000
1100
0000
,
1010
0000
0011
0000
1000
0100
0010
0000
,
1000
0010
0100
0001
1000
0000
1001
0000
,
0000
0010
0010
0000
0001
0010
0100
0000
,
0001
0100
0010
1000
0001
0000
1001
0000
,
0000
0100
0100
0000
1000
0010
0100
0000
,
1000
0100
0010
0001
1000
0000
0110
0000
,
0000
0001
1000
0000
0001
0100
0010
0000
,
0001
0010
0100
1000
0001
0000
0101
0000
,
1000
0000
1010
0000
0001
0010
0100
0000
,
1000
0010
0001
0100
1000
0000
1100
0000
,
0000
0010
0010
0000
1000
0100
0010
0000
,
0001
0100
1000
0010
0001
0000
0011
0000
,
0000
0100
0100
0000
0001
1000
0010
0000
,
0001
0100
1000
0010
0001
0000
0110
0000
,
0000
1000
1000
0000
0001
0100
0010
0000
,
1000
0100
0001
0010
1000
0000
0001
0000
,
0100
0000
0000
0010
0200
0000
0000
0000
0300
0000
0000
0000
0000
0000
0000
0000
;

//---------------dance-single - ----------------
#NOTES:
     dance-single:
     :
     Hard:
     11:
     0.446129,0.466625,0.320563,0.144770,0.062044,302.000000,271.000000,31.000000,14.000000,0.000000,0.000000,0.446129,0.466625,0.320563,0.144770,0.062044,302.000000,271.000000,31.000000,14.000000,0.000000,0.000000:
0000
0000
0000
0000
,
0000
0000
0000
0000
,
0000
0000
0000
0000
,
0000
0000
0000
0000
,
1000
0100
0010
0000
0001
0100
0010
1000
,
1100
0000
0101
0000
0000
1000
1000
0000
,
0001
0010
0100
0000
1000
0010
0100
0001
,
0011
0000
1010
0000
0001
0100
1000
0000
,
0010
0100
0001
0100
1000
0100
0010
0000
,
0100
0010
1000
0010
0001
0010
0100
0000
,
0001
1000
0100
0010
1000
0010
0001
0000
,
1000
0001
0010
0100
0001
0100
1000
0000
,
0001
0100
0002
0000
1003
0100
2000
0000
,
3001
0010
0002
0000
1003
0010
2000
0000
,
3001
0010
0100
1000
0010
0100
0001
1000
,
0200
0000
0020
0330
,
0110
0000
1001
0000
0000
0001
0100
1000
,
0010
0000
0101
0000
0000
0000
0000
0000
0100
0010
1000
0000
0001
0000
0000
0000
,
1000
0010
0100
0001
1000
0100
0010
0000
,
0220
0000
0000
0330
1000
0010
0001
0000
,
0001
0000
0100
0000
1000
0000
0000
0000
0010
0000
0000
0100
0001
0000
0100
0000
,
0010
0000
0100
0000
0001
0000
0000
0000
0100
0000
0000
0010
1000
0000
0010
0000
,
0100
0000
0010
0000
1000
0000
0000
0000
0100
0010
0000
0010
0100
0000
1000
0000
,
0001
0100
0020
0000
1030
0100
0010
0000
,
0001
0010
0100
0000
1100
0000
0001
0000
,
1010
0000
0001
0000
1000
0010
0100
0000
,
0001
0100
0010
0000
1000
1000
0001
0001
,
0100
0010
0100
0000
0010
0000
0010
0000
1000
0000
0100
0000
0001
0000
0000
0000
,
0001
0010
1000
0000
0002
0000
2000
0003
,
0000
3010
0010
0000
0011
0000
0100
0000
,
1010
0000
0000
0000
0001
0000
0000
0000
1000
0100
0000
0000
0100
0001
0000
0000
,
0001
0010
0000
0000
0010
0100
0000
0000
1000
0000
0010
0000
0100
0000
0000
0000
,
1000
0100
0010
0001
0101
0000
1100
0000
,
0001
1000
1001
0000
0001
0100
0010
0000
,
0001
0010
0100
1000
1010
0000
0011
0000
,
1000
0001
1001
0000
1000
0010
0100
0000
,
1000
0010
0001
0100
1100
0000
0011
0000
,
0100
0010
0110
0000
1000
0010
0001
0010
,
0100
0001
0100
1000
0100
0010
1000
0100
,
0010
0001
1001
0000
0100
0010
1000
0000
,
0001
0100
1000
0010
0011
0000
0110
0000
,
1000
0001
0200
0000
0310
0100
0001
0000
,
1000
0010
0001
0100
1100
0000
0110
0000
,
0001
1000
0020
0000
0130
0001
0100
0010
,
1000
0010
0100
0001
0011
0100
1100
0000
,
1010
0010
0101
0000
1000
0100
0001
1000
,
0010
0000
0001
0000
0100
0000
0100
0000
0010
1000
0000
0000
1000
0001
0000
0000
,
0101
0100
0020
0000
0030
0000
0000
0000
;

//---------------dance-double - ----------------
#NOTES:
     dance-double:
     :
     Easy:
     5:
     0.202383,0.270151,0.113748,0.062044,0.000000,137.000000,126.000000,11.000000,6.000000,0.000000,0.000000,0.202383,0.270151,0.113748,0.062044,0.000000,137.000000,126.000000,11.000000,6.000000,0.000000,0.000000:
// measure 0
00000000
00000000
00000000
00000000
,  // measure 1
00000000
00000000
00000000
00000000
,  // measure 2
00000000
00000000
00000000
00000000
,  // measure 3
00000000
00000000
00000000
00000000
,  // measure 4
00001000
00000000
01000000
00000000
,  // measure 5
00001000
00001000
00000000
00010000
,  // measure 6
00010000
00000000
00000010
00000000
,  // measure 7
00010000
00010000
00000000
00001000
,  // measure 8
00001000
00000000
00010000
00000000
,  // measure 9
01000000
00000000
10000000
00000000
,  // measure 10
00100000
00000000
00010000
00000000
,  // measure 11
00001000
00000000
00000010
00000000
,  // measure 12
00000001
00000000
00000100
00000000
,  // measure 13
00001000
00000000
00010000
00000000
,  // measure 14
00100000
00000000
10000000
00000000
,  // measure 15
01000000
00010000
00001000
00010000
,  // measure 16
00001000
00000010
00000000
00000011
,  // measure 17
00000100
00000000
00000000
00000110
,  // measure 18
00001000
00010000
01100000
00000000
,  // measure 19
20020000
30030000
10000000
00100000
,  // measure 20
00010000
00100000
00010000
00001000
,  // measure 21
00000000
00011000
00010000
00001000
,  // measure 22
00000010
00000000
00000001
00000101
,  // measure 23
00001000
00000000
00000100
00010000
,  // measure 24
00001000
00000000
00100000
00001000
,  // measure 25
00010000
00000000
00000010
00010000
,  // measure 26
00001000
01000000
00001000
00010000
,  // measure 27
00022000
00033000
00001000
00100000
,  // measure 28
01000000
10000000
00110000
00000000
,  // measure 29
00000000
00101000
00001000
00010000
,  // measure 30
00001000
00000010
00000001
00000100
,  // measure 31
00001000
00011000
01000000
00000000
,  // measure 32
00001000
00000000
01000000
00001000
,  // measure 33
00010000
00000000
00000010
00000000
,  // measure 34
00010000
00000000
00000010
00010000
,  // measure 35
00001000
00000000
00100000
00000000
,  // measure 36
00001000
00000000
00100000
00001000
,  // measure 37
00010000
00000000
00000100
00000000
,  // measure 38
00010000
00000000
00000100
00010000
,  // measure 39
00001000
00000000
00010000
00100000
,  // measure 40
10000000
01000000
00010000
00001000
,  // measure 41
00000000
00010000
00001000
00000010
,  // measure 42
00000001
00000100
00001000
00010000
,  // measure 43
00000000
00001000
00010000
01000000
,  // measure 44
10000000
00100000
00010000
00001000
,  // measure 45
00000000
00010000
00001000
00000100
,  // measure 46
00000001
00000010
00001000
00010000
,  // measure 47
00001000
00022000
00033000
00000000
;

//---------------dance-double - ----------------
#NOTES:
     dance-double:
     :
     Medium:
     9:
     0.338289,0.368388,0.186133,0.062044,0.000000,229.000000,211.000000,18.000000,6.000000,0.000000,0.000000,0.338289,0.368388,0.186133,0.062044,0.000000,229.000000,211.000000,18.000000,6.000000,0.000000,0.000000:
// measure 0
00000000
00000000
00000000
00000000
,  // measure 1
00000000
00000000
00000000
00000000
,  // measure 2
00000000
00000000
00000000
00000000
,  // measure 3
00000000
00000000
00000000
00000000
,  // measure 4
00001000
00010000
01000000
00010000
,  // measure 5
00001000
00000000
00011000
00000000
00000000
00010000
00001000
00000000
,  // measure 6
00010000
00001000
00000010
00001000
,  // measure 7
00010000
00000000
00011000
00000000
00000000
00001000
00010000
00000000
,  // measure 8
00000100
00000010
00000001
00001000
,  // measure 9
00000100
00000000
00000010
00000000
00001000
00000000
00010000
00001000
,  // measure 10
00100000
01000000
10000000
00010000
,  // measure 11
00100000
00000000
01000000
00000000
00010000
00000000
00001000
00010000
,  // measure 12
00000010
00000100
00000001
00001000
,  // measure 13
00000010
00000000
00000100
00000000
00001000
00000000
00010000
00001000
,  // measure 14
01000000
00100000
10000000
00010000
,  // measure 15
02000000
00000000
00200000
03300000
,  // measure 16
00100000
10000000
01000000
00000000
00000000
00010000
00001000
00000000
,  // measure 17
00011000
00000010
00000000
00000000
00000000
00000000
00000110
00000000
,  // measure 18
00000001
00000100
00001000
00000000
00010000
00000000
00001000
00000000
,  // measure 19
00022000
00033000
00010000
00100000
,  // measure 20
10000000
01000000
10000000
00000000
00100000
00000000
00010000
00000000
,  // measure 21
00001000
00000000
00100000
00000000
01000000
00000000
00010000
00001000
,  // measure 22
00010000
00000000
00000100
00000000
00000110
00000000
00000001
00000100
,  // measure 23
00001000
00010000
00001000
00010000
01000000
00000000
10000000
00000000
,  // measure 24
00100000
01000000
00100000
00000000
00010000
00000000
00001000
00000000
,  // measure 25
00000100
00000010
00000100
00000000
00000001
00000000
00000010
00000000
,  // measure 26
00001000
00010000
00001000
00000000
00100000
00010000
00100000
00000000
,  // measure 27
01000000
10000000
01000000
00000000
00010000
00000000
00011000
00000000
,  // measure 28
00001000
00100000
01000000
00000000
00010000
00000000
00001000
00000000
,  // measure 29
00000010
00000001
00000010
00000000
00000100
00000000
00000010
00000000
,  // measure 30
00000001
00000100
00001000
00000000
00011000
00000000
01000000
00000000
,  // measure 31
00011000
00000000
00000100
00000000
00000010
00000100
00001000
00000000
,  // measure 32
00000100
00010000
00001000
00010000
01000000
00000000
11000000
00000000
,  // measure 33
00000000
10000000
00010000
00000000
01000000
00100000
00010000
00000000
,  // measure 34
00100000
00010000
00001000
00010000
00000010
00000000
00001010
00000000
,  // measure 35
00000000
00001000
00000001
00000000
00000100
00001000
00010000
00000000
,  // measure 36
01000000
00010000
00001000
00010000
00000100
00000000
00000110
00000000
,  // measure 37
00000000
00000001
00000100
00000000
00001000
00010000
00100000
00000000
,  // measure 38
00010000
00001000
00010000
01000000
10000000
00000000
11000000
00000000
,  // measure 39
00100000
00000000
00101000
00000000
00001000
00010000
00000100
00000000
,  // measure 40
00001000
00000100
00000010
00000001
00000100
00000000
00001010
00000000
,  // measure 41
00000000
00000010
00000010
00000000
00010000
00001000
01000000
00000000
,  // measure 42
00010000
01000000
00100000
10000000
01000000
00000000
00110000
00000000
,  // measure 43
00000000
00100000
00001000
00000000
00010000
00100000
00010000
00000000
,  // measure 44
00001000
00000010
00001000
00000000
00010000
00000000
01100000
00000000
,  // measure 45
00000000
10000000
01000000
00000000
00010000
00001000
00000010
00000000
,  // measure 46
00001000
00010000
00100000
10000000
01000000
00000000
00010000
00000000
,  // measure 47
00001000
00000220
00000330
00000000
;

//---------------dance-double - ----------------
#NOTES:
     dance-double:
     :
     Hard:
     12:
     0.413629,0.466625,0.248177,0.237837,0.072385,280.000000,256.000000,24.000000,23.000000,0.000000,0.000000,0.413629,0.466625,0.248177,0.237837,0.072385,280.000000,256.000000,24.000000,23.000000,0.000000,0.000000:
// measure 0
00000000
00000000
00000000
00000000
,  // measure 1
00000000
00000000
00000000
00000000
,  // measure 2
00000000
00000000
00000000
00000000
,  // measure 3
00000000
00000000
00000000
00000000
,  // measure 4
00010000
00001000
00100000
00010000
01000000
00010000
01000000
00100000
,  // measure 5
10000000
00000000
00000000
00000000
11000000
00000000
00000000
00000000
00000000
00000000
01000000
00010000
01000000
00000000
00000000
00000000
,  // measure 6
00001000
00010000
00000010
00001000
00000100
00001000
00000100
00000010
,  // measure 7
00000001
00000000
00000000
00000000
00000101
00000000
00000000
00000000
00000000
00000000
00000100
00001000
00000100
00000000
00000000
00000000
,  // measure 8
00002000
00103000
00020000
00030010
,  // measure 9
00002000
01003000
00020000
00030100
,  // measure 10
00002000
00013000
00200000
01300000
,  // measure 11
00020000
00031000
00000020
00000130
,  // measure 12
00000002
00000013
00002000
00013000
,  // measure 13
00200000
10300000
02000000
03010000
,  // measure 14
00002000
00003100
00000002
00000013
,  // measure 15
00002000
00000000
00023000
00000000
00032000
00000000
00013000
00100000
,  // measure 16
10000000
00000000
01000000
00000000
00110000
00000000
00000000
00000000
00000000
00000000
00100000
00001000
00010000
00000000
00000100
00000000
,  // measure 17
00001000
00000000
00000100
00000000
00000010
00000000
00000000
00000001
00000000
00000000
00000100
00000000
00001000
00000000
00000000
00000000
,  // measure 18
00010000
00001000
01000000
00000000
00001000
00010000
00000100
00000000
,  // measure 19
00022000
00000000
00000000
00033000
00010000
00000100
00001000
00000010
,  // measure 20
00000100
00000001
00000100
00000010
00001000
00000010
00010000
00001000
,  // measure 21
00100000
00010000
00100000
01000000
10000000
01000000
00100000
00010000
,  // measure 22
01000000
00100000
10000000
00010000
01000000
00001000
00010000
00000100
,  // measure 23
00001000
00000010
00010000
00001000
00100000
00000000
00110000
00000000
,  // measure 24
00001000
00011000
00001010
00000011
,  // measure 25
00000101
00001100
00000010
00001010
,  // measure 26
00010000
00000000
00000000
00000000
00011000
00000000
00000000
00000000
00010000
00001000
00010000
00000000
00100000
00000000
10000000
00000000
,  // measure 27
01000000
10000000
01000000
00000000
00010000
00000000
00001000
00000000
00100000
00000000
00000000
00100000
01000000
00000000
00000000
01000000
,  // measure 28
00010000
00001000
00000010
00000001
00000100
00000000
00001010
00000000
,  // measure 29
00000000
00010000
00000000
00100000
,  // measure 30
00000000
10000000
11000000
01010000
,  // measure 31
00011000
00000000
00010010
00000000
00000010
00001000
00000100
00001000
,  // measure 32
00000100
00000010
00000001
00000100
00001000
00000000
00011000
00000000
,  // measure 33
00000000
00000000
00100000
00010000
00100000
00000000
00000000
00000000
00100000
00000000
00010000
00000000
01000000
00000000
00010000
00000000
,  // measure 34
01000000
00100000
10000000
01000000
00010000
00000000
00011000
00000000
,  // measure 35
00000000
00000000
00000010
00001000
00000010
00000000
00000000
00000000
00000010
00000000
00001000
00000000
00000100
00000000
00000001
00000000
,  // measure 36
00000100
00001000
00000100
00000010
00000001
00000000
00000101
00000000
,  // measure 37
00000000
00000000
00000100
00001000
00000100
00000000
00000000
00000000
00001000
00000000
00010000
00000000
00100000
00000000
00010000
00000000
,  // measure 38
00001000
00010000
01000000
10000000
00200000
00000000
00320000
00000000
,  // measure 39
00001000
00001000
00031000
00000000
00001000
00010000
00100000
10000000
,  // measure 40
01000000
00100000
01000000
00010000
00001000
00000000
00011000
00000000
,  // measure 41
00000000
00000000
00010000
00000100
00010000
00000000
00000000
00000000
00010000
00000000
00001000
00000000
00000010
00000000
00000001
00000000
,  // measure 42
00000100
00000010
00000100
00001000
00010000
00000000
00011000
00000000
,  // measure 43
00000000
00000000
00001000
01000000
00001000
00000000
00000000
00000000
00001000
00000000
00010000
00000000
00100000
00000000
10000000
00000000
,  // measure 44
01000000
00100000
00010000
01000000
00001000
00000000
00011000
00000000
,  // measure 45
00000000
00000000
00010000
00001000
00010000
00000000
00000000
00000000
00001000
00000000
00000010
00000000
00000001
00000000
00001000
00000000
,  // measure 46
00000100
00000001
00000100
00000010
00001000
00010000
01000000
10000000
,  // measure 47
00010000
00100000
02200000
00000000
03300000
00000000
00000000
00000000
;
