#VERSION:0.83;
#TITLE:十露盤2000;
#SUBTITLE:;
#ARTIST:Linda AI-CUE;
#TITLETRANSLIT:Soroban2000;
#SUBTITLETRANSLIT:;
#ARTISTTRANSLIT:;
#GENRE:VARIETY;
#ORIGIN:;
#CREDIT:MILEN;
#BANNER:Soroban2000.png;
#BACKGROUND:Soroban2000-bg.png;
#PREVIEWVID:;
#JACKET:Soroban2000-jacket.png;
#CDIMAGE:;
#DISCIMAGE:;
#LYRICSPATH:;
#CDTITLE:;
#MUSIC:Soroban2000.ogg;
#OFFSET:-0.300000;
#SAMPLESTART:65.725342;
#SAMPLELENGTH:11.378455;
#SELECTABLE:YES;
#BPMS:0.000=170.000,
33.000=85.000,
35.000=170.000,
67.000=96.000,
69.000=192.000,
87.000=96.000,
93.000=192.000,
127.000=96.000,
131.000=170.000,
163.000=85.000,
165.000=104.000,
167.000=208.000,
202.000=104.000,
210.000=110.000,
212.000=220.000,
246.500=110.000,
258.500=120.000,
260.500=240.000,
327.000=120.000,
335.500=170.000,
355.500=85.000,
357.500=170.000,
361.500=85.000,
362.500=170.000,
377.000=85.000;
#STOPS:34.000=0.353,
34.500=0.706,
69.000=0.156,
69.500=0.156,
70.000=0.156,
70.500=0.156,
93.000=0.156,
93.500=0.156,
94.000=0.156,
94.500=0.156,
167.000=0.144,
167.500=0.144,
213.000=0.136,
213.500=0.136,
214.000=0.136,
260.500=0.125,
261.000=0.125,
261.500=0.125,
377.000=2.471;
#DELAYS:;
#WARPS:;
#TIMESIGNATURES:0.000=4=4;
#TICKCOUNTS:0.000=4;
#COMBOS:0.000=1;
#SPEEDS:0.000=1.000=0.000=0;
#SCROLLS:0.000=1.000;
#FAKES:;
#LABELS:0.000=Song Start;
#BGCHANGES:;
#KEYSOUNDS:;
#ATTACKS:
;

//---------------dance-single - ----------------
#NOTEDATA:;
#CHARTNAME:;
#STEPSTYPE:dance-single;
#DESCRIPTION:;
#CHARTSTYLE:;
#DIFFICULTY:Hard;
#METER:15;
#RADARVALUES:0.670949,0.752423,0.057983,0.413130,0.311660,648.000000,640.000000,8.000000,57.000000,0.000000,0.000000,0.000000,0.000000,0.000000,0.670949,0.752423,0.057983,0.413130,0.311660,648.000000,640.000000,8.000000,57.000000,0.000000,0.000000,0.000000,0.000000,0.000000;
#CREDIT:MILEN;
#NOTES:
0000
0000
0000
0000
,
0000
0000
0000
0000
,
0000
0000
0000
0000
,
0000
0000
0000
0000
,
0000
0000
0000
0000
,
2000
3200
0320
0032
,
0203
0320
2030
3001
,
0001
0100
0010
1000
0001
0010
0100
1000
,
0010
0100
0010
0200
0000
0000
0000
0000
0010
0000
0310
0000
0110
0000
0100
0000
,
0001
0000
1000
0000
0000
0000
1000
0000
0100
1000
0100
0010
0000
0000
0010
0000
,
0001
0000
0100
0000
0010
0000
1000
0000
0001
0010
0001
0000
0100
0010
0100
0000
,
0010
1000
0100
0000
0000
0000
0100
0000
1000
0000
0010
0100
0000
0000
0100
0000
,
0001
0000
0010
0000
0001
0100
0001
0000
1000
0010
1000
0010
0100
0000
0001
0000
,
1000
0000
0100
0000
0000
0000
0100
0000
0010
0000
0001
1000
0000
0000
1000
0000
,
0010
0000
0100
0000
0000
0000
0100
0000
0001
0010
0001
0000
1000
0010
1000
0000
,
0010
0100
0001
0000
0000
0000
0001
0000
1000
0000
0010
0100
0000
0000
0100
0000
,
0001
0000
1000
0000
0100
0010
0100
0000
0010
0100
0010
0000
0002
0000
1000
0000
,
0000
0000
1000
1000
1000
1003
1000
0010
,
1000
0010
1000
0010
1000
0000
0001
0100
,
0001
0100
0001
0100
0001
0000
1000
0100
,
1000
0100
1000
0100
1000
0000
0001
0010
,
0001
0000
0010
0000
0001
0100
0001
0000
1000
0010
1000
0000
0020
0000
0000
0000
,
0000
0000
0100
0000
0000
0000
0000
0001
,
0000
0000
1000
1000
1000
1030
1000
0100
,
1000
0000
0100
0000
1000
0000
0100
0000
0010
0000
0001
0010
0001
0000
0010
0000
,
0001
0010
0001
0100
0110
0000
0010
1000
,
0010
1000
0001
0100
0001
0100
0010
1000
,
0001
0000
0100
0000
0010
0100
0001
0000
0100
0010
1000
0000
0001
0000
0100
0000
,
0001
0000
0100
0000
0001
0000
0100
0000
0010
0000
1000
0010
1000
0000
0010
0000
,
1000
0010
1000
0100
0110
0000
0010
0001
,
0010
0001
1000
0100
1000
0100
0010
0001
,
1000
0000
0100
0000
0010
0001
1000
0000
0100
1000
0001
0000
0200
0000
0000
0000
,
0310
0000
0000
0000
0000
0000
1000
0000
0000
0000
0000
0000
0000
0000
0000
0000
0000
0000
0000
0000
0000
0000
0000
0000
0000
0000
0000
0000
0000
0000
0000
0000
0000
0000
0000
0000
0000
0000
0000
0000
0000
0000
0000
0000
0000
0000
0000
0000
2002
0000
0000
0000
0000
0000
0000
0000
0000
0000
0000
0000
0000
0000
0000
0000
0000
0000
0000
0000
0000
0000
0000
0000
0000
0000
0000
0000
0000
0000
0000
0000
0000
0000
0000
0000
0000
0000
0000
0000
0000
0000
0000
0000
0000
0000
0000
0000
0000
0000
0000
0000
0000
0000
0000
0000
0000
0000
0000
0000
0000
0000
0000
0000
3003
0000
0000
0000
0000
0000
0000
0000
0000
0000
0000
0000
0000
0000
0000
0000
0000
0000
0000
0000
0000
0000
0000
0000
0000
0000
0000
0000
0000
0000
0000
0000
0001
0000
0000
0000
0000
0000
0000
0000
0000
0000
0000
0000
0000
0000
0000
0000
0000
0000
0000
0000
0000
0000
0000
0000
0010
0000
0000
0000
0000
0000
0000
0000
0000
0000
0000
0000
0000
0000
0000
0000
0000
0000
0000
0000
0000
0000
0000
0000
,
0100
0000
0010
0000
0000
0000
0010
0000
0001
0100
0001
0100
0010
0000
1000
0000
,
0100
0000
0010
0000
0100
0000
1000
0000
0010
0100
0010
0100
0001
0000
1000
0100
,
0010
0100
0000
0100
1000
0010
0000
0010
,
0100
0000
0001
0000
1000
0000
0100
0000
0010
0001
0010
0001
0100
0000
0010
1000
,
0001
0010
0000
0010
0100
1000
0000
1000
,
0010
0000
0100
0000
0001
0000
1000
0000
0100
0010
0100
0010
0001
0000
1000
0010
,
0100
0000
0001
0000
0000
0000
0001
0000
0010
0000
0100
1000
0000
0000
1000
0000
,
0010
0000
0100
0001
0010
0000
0001
0000
1000
0010
0100
0002
0000
0000
0000
0000
,
0000
0000
0000
0010
0000
0000
1000
1003
,
1000
0001
1000
0001
1000
1000
0010
0100
,
0010
1000
0001
0000
0001
0001
0100
0010
,
0100
0001
1000
0000
1000
1000
0010
0100
,
0001
0100
0010
1000
0010
0100
0001
0010
,
0100
1000
0100
0000
1000
0010
0100
0000
0001
0000
0001
0000
0010
0000
0100
0000
,
0010
0001
1000
0000
1000
1000
0100
0010
,
0100
1000
0001
0000
0001
0001
0010
0100
,
1000
0100
0010
0001
0100
0010
1000
0001
,
0100
0000
0010
0000
0100
0000
0000
0000
0010
0000
0100
0000
0001
0000
0000
0000
2000
0000
0000
0000
0000
0000
3010
0100
0000
0000
0000
0000
0100
0001
0000
0000
,
0022
0000
0000
0000
,
0000
0000
0000
0033
0000
2200
0000
0300
,
0010
0010
0010
0010
3010
0010
0100
0001
,
0100
0010
1000
0001
0000
0100
0010
1000
,
0010
0100
0001
1000
0000
0010
1000
0100
,
1000
0001
0010
0001
0100
0010
1000
0001
,
0010
0000
0100
1000
0100
0000
0010
0100
1000
0000
0010
0000
0100
0000
0001
0000
,
0010
0100
0010
0001
0000
0100
0010
1000
,
0100
0010
0100
1000
0000
0010
0100
0001
,
1000
0100
0010
0001
1000
0010
0100
0001
,
1000
0000
0010
0100
0010
0000
1000
0100
0010
0001
0000
0100
0100
0000
0010
0000
,
0100
2002
0000
0000
0000
0000
0000
0000
,
3003
0000
0000
0000
,
0000
0000
0000
0120
,
0000
1000
1000
1030
1000
0001
0010
0100
,
1000
0010
0100
0001
1000
0000
0100
0010
,
0001
0100
0010
1000
0001
0000
0100
0001
,
0010
0000
0100
1000
0010
0000
1000
0100
,
0010
0100
1000
0001
0100
0000
0010
1000
,
0100
0010
0001
0100
0010
0000
0100
0001
,
0010
0100
1000
0010
0100
0000
0001
0100
,
0010
0000
1000
0010
0100
0000
0001
1000
,
0100
0010
0001
1000
0010
0100
0002
0000
,
0013
0000
0000
0000
2000
0000
0000
0000
3100
0000
0000
0000
0100
0010
0100
0000
,
1000
0000
0001
0000
0010
0100
0010
0000
0001
0000
1000
0000
0010
0000
0100
0000
,
0001
0100
0010
0001
0010
0100
0001
0010
,
0100
0000
1000
0000
0010
0100
0001
0000
0200
0000
0000
0000
0310
0000
1000
0000
,
0100
0010
1000
0010
0100
1000
0010
0100
,
1000
0000
0100
0000
0010
1000
0100
0000
2000
0000
0000
0000
3001
0010
0100
0000
,
0020
0000
0000
0000
0031
0100
0010
0000
2000
0000
0000
0000
3001
0010
0001
0000
,
1000
0000
0100
0000
1000
0010
0100
0000
0001
0100
0010
0000
0200
0000
0000
0001
,
0000
0000
0000
0000
0000
0000
0000
0310
2000
0000
0000
0000
0002
0000
0000
0000
,
0000
0000
0000
0000
0000
3003
0000
0200
,
0000
0302
0000
0023
0000
2030
0000
3002
,
0000
0203
0000
2300
0000
3020
0000
0032
,
0000
2003
0000
3200
0000
0302
0000
0023
,
0000
0230
0000
2300
0000
3002
0000
0103
,
0100
0010
1000
0010
0000
0000
1000
0000
0100
0000
0010
0001
0100
0001
2000
0000
,
0000
0000
0000
0000
0000
0000
3100
0000
0100
0010
0001
0010
0000
0000
0001
0000
,
0100
0000
0010
1000
0010
0100
0002
0000
0000
0000
1003
0010
1000
0010
0100
0001
,
0100
0001
2000
0000
0000
0000
3200
0000
0000
0000
0302
0000
0000
0000
2003
0000
,
0000
3020
0000
0032
0000
0203
0000
0310
,
0010
1000
0010
1000
0001
0000
0100
0001
0100
0001
1000
0000
0100
1000
0100
0010
,
0100
0010
0001
0100
0020
0000
0030
0000
0000
0000
0000
0000
0000
0000
0000
0000
;

//---------------dance-double - ----------------
#NOTEDATA:;
#CHARTNAME:;
#STEPSTYPE:dance-double;
#DESCRIPTION:;
#CHARTSTYLE:;
#DIFFICULTY:Hard;
#METER:15;
#RADARVALUES:0.642992,0.752423,0.065231,0.413130,0.217437,621.000000,612.000000,9.000000,57.000000,0.000000,0.000000,0.000000,0.000000,0.000000,0.642992,0.752423,0.065231,0.413130,0.217437,621.000000,612.000000,9.000000,57.000000,0.000000,0.000000,0.000000,0.000000,0.000000;
#CREDIT:MILEN;
#NOTES:
00000000
00000000
00000000
00000000
,
00000000
00000000
00000000
00000000
,
00000000
00000000
00000000
00000000
,
00000000
00000000
00000000
00000000
,
00000000
00000000
00000000
00000000
,
20000000
32000000
03020000
00032000
,
00003020
00000032
00000203
00000310
,
00000010
00010000
00001000
00100000
00010000
01000000
00001000
00010000
,
00000100
00000010
00000100
00000020
00000000
00000000
00000000
00000000
00000001
00000000
00000031
00000000
00001001
00000000
00001000
00000000
,
00000100
00000000
00010000
00000000
00000000
00000000
00010000
00000000
00001000
00100000
00001000
01000000
00000000
00000000
01000000
00000000
,
00100000
00000000
10000000
00000000
00010000
00000000
00100000
00000000
01000000
00100000
01000000
00000000
10000000
00100000
01000000
00000000
,
00010000
01000000
00100000
00000000
00000000
00000000
00100000
00000000
10000000
00000000
01000000
00010000
00000000
00000000
00010000
00000000
,
00001000
00000000
00000010
00000000
00000001
00000100
00000010
00000000
00001000
00000100
00000010
00000000
00000001
00000000
00000100
00000000
,
00001000
00000000
00010000
00000000
00000000
00000000
00010000
00000000
00100000
00000000
10000000
01000000
00000000
00000000
01000000
00000000
,
00100000
00000000
00010000
00000000
00000000
00000000
00010000
00000000
01000000
00001000
00010000
00000000
00000100
00010000
00001000
00000000
,
00010000
00000100
00001000
00000000
00000000
00000000
00001000
00000000
00000100
00000000
00000010
00000001
00000000
00000000
00000001
00000000
,
00000100
00000000
00001000
00000000
00010000
00000100
00010000
00000000
00001000
01000000
00001000
00000000
00020000
00000000
00001000
00000000
,
00000000
00000000
00001000
00001000
00001000
00031000
00001000
00100000
,
00001000
00100000
00001000
00100000
00001000
00000000
00010000
00000010
,
00010000
00000010
00010000
00000010
00010000
00000000
00001000
01000000
,
00001000
01000000
00001000
01000000
00001000
00000000
00010000
00000100
,
00010000
00000100
00001000
00000010
00000100
00000001
00000020
00000000
,
00000000
00000000
00002030
00000000
00000000
00000000
00000000
00100000
,
00000000
00000000
00010000
00010000
00010000
00013000
00001000
00100000
,
00001000
00100000
00001000
00100000
01000000
10000000
00100000
00010000
,
00001000
00010000
00100000
00010000
00011000
00000000
00001000
00100000
,
00001000
00100000
01000000
00010000
01000000
00010000
00001000
00100000
,
01000000
00010000
00001000
00000010
00000010
00000100
00010000
00000010
,
00010000
00000010
00010000
00000010
00000100
00000001
00000010
00001000
,
00010000
00001000
00000010
00001000
00011000
00000000
00010000
00000010
,
00010000
00000010
00000100
00001000
00000100
00001000
00010000
00000010
,
00000100
00001000
00010000
00100000
00100000
10000000
02000000
00000000
,
03100000
00010000
00000000
00000000
00000000
00000000
00000000
00000000
00022000
00000000
00000000
00000000
00000000
00000000
00000000
00000000
00000000
00000000
00000000
00000000
00033000
00000000
00000000
00000000
00010000
00000000
00000000
00000000
00001000
00000000
00000000
00000000
,
00000010
00000000
00000001
00000000
00000000
00000000
00000001
00000000
00001000
00000100
00001000
00000100
00010000
00000000
00001000
00000000
,
00100000
00000000
01000000
00000000
10000000
00000000
00100000
00000000
01000000
00010000
01000000
00010000
10000000
00000000
00010000
00100000
,
01000000
00010000
00000000
00010000
00001000
00000010
00000000
00000010
,
00000100
00000000
00001000
00000000
00000001
00000000
00000010
00000000
00000100
00010000
00000100
00010000
00001000
00000000
00100000
00001000
,
00010000
01000000
00000000
01000000
10000000
00100000
00000000
00100000
,
00010000
00000000
00100000
00000000
01000000
00000000
00010000
00000000
00100000
00001000
00100000
00001000
00010000
00000000
00001000
00000100
,
00000010
00000000
00000100
00000000
00000000
00000000
00000100
00000000
00000001
00000000
00000010
00001000
00000000
00000000
00001000
00000000
,
00010000
00000000
00100000
10000000
01000000
00000000
10000000
00000000
01000000
00100000
01000000
00020000
00000000
00000000
00000000
00000000
,
00000000
00000000
00000000
00000100
00000000
00000000
00001000
00031000
,
00010000
00001000
00010000
00001000
00100000
00010000
01000000
00100000
,
01000000
00001000
00010000
00000000
00000100
00001000
00000010
00000100
,
00000010
00010000
00001000
00000000
00100000
00010000
01000000
00001000
,
00010000
00000100
00001000
00000010
00010000
00001000
00100000
01000000
,
10000000
00100000
00010000
00001000
00000100
00000001
00000100
00000010
,
00010000
00001000
01000000
00000000
00100000
10000000
00100000
01000000
,
00001000
00010000
00000010
00000000
00001000
00000100
00000010
00000001
,
00000100
00000010
00010000
00001000
01000000
00100000
10000000
01000000
,
00100000
00000000
00000000
00000000
00010000
00000000
00000000
00000000
01000000
00000000
00000000
00000000
00001000
00000000
00000000
00000000
00020000
00000000
00000000
00000000
00000000
00000000
00030100
00001000
00000000
00000000
00000000
00000000
00001000
00000010
00000000
00000000
,
00000220
00000000
00000000
00000000
,
00000000
00000000
00000000
00000330
00000000
00002002
00000000
00003000
,
00001000
00001000
00001000
00001000
00001003
00001000
00000001
00000100
,
00000010
00010000
00001000
00100000
00000000
00010000
10000000
00100000
,
01000000
00001000
00010000
00000100
00000000
00000010
00000001
00000100
,
00000010
00010000
00001000
01000000
00100000
10000000
00010000
00100000
,
01000000
10000000
00100000
00010000
00001000
00100000
00010000
01000000
,
00001000
00010000
00100000
00001000
00000000
00000010
00001000
00000100
,
00010000
00001000
00000010
00010000
00000000
00100000
00010000
01000000
,
00100000
10000000
00010000
00100000
01000000
00010000
00001000
00000010
,
00000100
00000000
00001000
00000000
00000001
00000000
00000010
00000000
00001000
00000000
00000000
00010000
00001000
00000000
00100000
00000000
,
01000000
20020000
00000000
00000000
00000000
00000000
00000000
00000000
,
30030000
00000000
00000000
00000000
,
00000000
00000000
00000000
01200000
,
00000000
10000000
10000000
10300000
10000000
00010000
01000000
00100000
,
10000000
01000000
00010000
00001000
00000010
00000000
00000100
00000010
,
00000001
00000100
00001000
00010000
00100000
00000000
10000000
01000000
,
00010000
00000000
00001000
00000010
00000001
00000000
00000001
00000100
,
00001000
00000000
00010000
00100000
10000000
00000000
00010000
00100000
,
01000000
00010000
00001000
00000010
00000100
00000000
00001000
00000100
,
00000010
00001000
00010000
01000000
00100000
00000000
00010000
01000000
,
00001000
00000000
00010000
00000010
00001000
00000000
00000001
00000100
,
00001000
00010000
00100000
10000000
01000000
00010000
00022000
00000000
,
00000000
00000000
00000000
00000000
00000000
00000000
00000000
00000000
00033000
00000000
00000000
00000000
00001000
01000000
00001000
00000000
,
00010000
00000100
00010000
00000000
00001000
00100000
00001000
00000000
00010000
00000010
00010000
00000000
00001000
00000000
00100000
00000000
,
00010000
01000000
00100000
10000000
00010000
00100000
01000000
10000000
,
00100000
01000000
00001000
00010000
00000200
00000000
00000310
00000001
,
00001000
00000010
00010000
00001000
00100000
01000000
10000000
00010000
,
01000000
00100000
10000000
00010000
00200000
00000000
01300000
10000000
,
00100000
00010000
00001000
00000100
00000001
00000010
00001000
00010000
,
00100000
00000000
00010000
00000000
00001000
00000000
00000010
00000000
00001000
00000000
00010000
00000000
02000000
00000000
00000000
10000000
,
00000000
00000000
00000000
00000000
00000000
00000000
00000000
03100000
00020000
00000000
00000000
00000000
00002000
00000000
00000000
00000000
,
00000000
00000000
00000000
00000000
00000000
00033000
00000000
00000020
,
00000000
00000032
00000000
00000203
00000000
00002300
00000000
00023000
,
00000000
00230000
00000000
20300000
00000000
32000000
00000000
03020000
,
00000000
00030200
00000000
00002300
00000000
00203000
00000000
00320000
,
00000000
00030020
00000000
00002030
00000000
00023000
00000000
01030000
,
01000000
00100000
10000000
00100000
00000000
00000000
10000000
00000000
01000000
00000000
00010000
00001000
00010000
00001000
00000020
00000000
,
00000000
00000000
00000000
00000000
00000000
00000000
00000031
00000000
00000001
00001000
00000100
00001000
00000000
00000000
00000010
00000000
,
00010000
00000000
00001000
00100000
00001000
00100000
02000000
00000000
00000000
00000000
13000000
00100000
10000000
00100000
00010000
00001000
,
00010000
00001000
00000020
00000000
00000000
00000000
00000032
00000000
00000000
00000000
00000203
00000000
00000000
00000000
00020300
00000000
,
00000000
02030000
00000000
03200000
00000000
20300000
00000000
31000000
,
01000000
00100000
00010000
00000000
00100000
00000000
01000000
00010000
00001000
00000000
00010000
00000000
00000100
00000000
00001000
00000100
,
00001000
00000100
00000010
00000002
00002000
00000000
00003003
00000000
00000000
00000000
00000000
00000000
00000000
00000000
00000000
00000000
;

//---------------dance-single - ----------------
#NOTEDATA:;
#CHARTNAME:;
#STEPSTYPE:dance-single;
#DESCRIPTION:;
#CHARTSTYLE:;
#DIFFICULTY:Beginner;
#METER:5;
#RADARVALUES:0.152206,0.204934,0.043487,0.115966,0.000000,147.000000,141.000000,6.000000,16.000000,0.000000,0.000000,0.000000,0.000000,0.000000,0.152206,0.204934,0.043487,0.115966,0.000000,147.000000,141.000000,6.000000,16.000000,0.000000,0.000000,0.000000,0.000000,0.000000;
#CREDIT:MILEN;
#NOTES:
0000
0000
0000
0000
,
0000
0000
0000
0000
,
0000
0000
0000
0000
,
0000
0000
0000
0000
,
0000
0000
0000
0000
,
2000
0000
3000
0000
,
0002
0000
0003
0000
,
1000
0000
0001
0000
,
2002
3003
0000
0100
,
0100
0000
0100
0000
,
0100
0000
0000
0010
,
0010
0000
0010
0000
,
0010
0000
0000
1000
,
1000
0000
1000
0000
,
1000
0000
0000
0001
,
0001
0000
0001
0000
,
0001
0000
0100
0020
,
0030
0000
0000
0010
,
0000
1000
0000
0010
,
0000
0000
0000
0100
,
0000
0001
0000
0100
,
0000
0000
0010
0010
,
0000
0110
0000
0000
,
0000
0000
0000
1000
,
0000
0100
0000
1000
,
0000
0000
0000
0001
,
0000
0010
0000
0001
,
0000
0000
0000
1000
,
0000
0010
0000
1000
,
0000
0000
0000
0001
,
0000
0100
0000
0001
,
0000
0000
1000
1000
,
0000
1001
0000
0001
,
0000
0100
0000
1000
,
0000
0000
0000
1000
,
0000
0010
0000
0001
,
0000
0000
0000
0001
,
0000
0010
0000
1000
,
0000
0000
0000
1000
,
0000
0100
0000
0001
,
0000
1000
1000
2000
,
3000
0000
0000
0000
,
0000
0000
0010
0000
,
1000
0000
0100
0000
,
0000
0000
0010
0000
,
0001
0000
0100
0000
,
0000
0000
0010
0000
,
1000
0000
0001
0000
,
0000
0000
0100
0000
,
0001
0000
1000
0000
,
0010
0010
0010
0000
,
0020
0000
0000
0030
,
0000
0000
0000
0000
,
0000
0000
0000
0000
0000
1000
0000
0000
,
0000
0100
0000
0000
0000
0010
0000
0000
,
0000
0000
0000
0000
0000
0001
0000
0000
,
0000
0010
0000
0000
0000
0100
0000
0000
,
0000
0000
0000
0000
0000
1000
0000
0000
,
0000
0010
0000
0000
0000
0100
0000
0000
,
0000
0000
0000
0000
0000
0001
0000
0000
,
0000
0100
0000
0000
0000
0010
0000
0000
,
0000
1000
0000
1000
0000
1000
0000
0000
,
0000
2000
0000
0000
0000
3000
0000
0000
,
0000
0000
0000
0000
,
0000
0000
0000
0000
,
0000
0000
0000
0010
,
0000
0010
0000
1000
,
0000
1000
0000
0010
,
0000
1000
0000
0010
,
0000
0000
0000
0100
,
0000
0100
0000
0001
,
0000
0001
0000
0100
,
0000
0001
0000
0100
,
0000
0000
0000
2002
,
0000
0000
0000
3003
,
0000
0000
0000
0001
,
0000
0001
0000
1000
,
0000
1000
0000
0010
,
0000
0010
0000
0100
,
0000
0100
0000
0001
,
0000
0010
0000
0100
,
0000
1000
1000
1000
,
0000
0000
1001
0000
,
0000
0000
0000
0000
0000
0000
0000
0002
,
0000
0000
0000
0003
0000
0000
0000
0200
,
0000
0000
0000
0300
0000
0000
0000
2000
,
0000
0000
0000
3000
0000
0000
0000
0020
,
0000
0000
0000
0030
0000
0000
0000
0001
,
0000
0000
0000
0001
0000
0000
0000
0001
,
0000
0000
0000
1000
0000
0000
0000
1000
,
0000
0000
0000
1000
0000
0000
0000
0000
,
0000
0020
0000
0000
0000
0030
0000
0000
,
0000
0200
0000
0000
0000
0300
0000
0000
,
0000
0001
0000
0001
0000
1000
0000
1000
,
0000
1001
0000
0000
;

//---------------dance-single - ----------------
#NOTEDATA:;
#CHARTNAME:;
#STEPSTYPE:dance-single;
#DESCRIPTION:;
#CHARTSTYLE:;
#DIFFICULTY:Easy;
#METER:9;
#RADARVALUES:0.228827,0.342463,0.079727,0.173950,0.000000,221.000000,210.000000,11.000000,24.000000,0.000000,0.000000,0.000000,0.000000,0.000000,0.228827,0.342463,0.079727,0.173950,0.000000,221.000000,210.000000,11.000000,24.000000,0.000000,0.000000,0.000000,0.000000,0.000000;
#CREDIT:MILEN;
#NOTES:
0000
0000
0000
0000
,
0000
0000
0000
0000
,
0000
0000
0000
0000
,
0000
0000
0000
0000
,
0000
0000
0000
0000
,
2000
0000
0000
3000
,
0002
0000
0000
0003
,
1000
0001
1000
0001
,
0100
0200
0000
0000
0300
0000
0010
0000
,
1000
0010
0000
1000
,
0100
1000
0000
0001
,
0010
0001
0000
0100
,
0001
0100
0000
0010
,
0100
0010
0000
1000
,
0001
1000
0000
0010
,
0100
0010
0100
0001
,
1000
0000
0001
0000
1000
2000
0000
0000
,
0000
3000
0000
0001
,
0000
0100
0000
0010
,
0000
1000
0000
0001
,
0000
0100
0000
0010
,
0010
1000
0001
2002
,
3003
1001
0000
0000
,
0000
0000
0000
1000
,
0000
0100
0000
1000
,
0000
0100
0000
0010
,
0000
0001
0000
0010
,
0000
0001
0000
1000
,
0000
0010
0000
0100
,
0000
0001
0000
0100
,
0000
0010
0000
1000
,
0001
0100
0100
0220
,
0330
0110
0000
0010
,
1000
0100
1000
0010
,
1000
0100
0000
0010
,
0001
0100
0001
0010
,
0001
0100
0000
1000
,
0001
1000
0010
1000
,
0001
0100
0000
0001
,
1000
0001
0100
0001
,
1000
0000
0010
0000
0100
0200
0000
0000
,
0000
0000
0000
0300
,
0000
0000
0001
0000
,
0100
0000
1000
0000
,
0010
0000
0001
0000
,
0100
0000
1000
0010
,
0100
0100
0001
0000
,
0010
0000
1000
0000
,
0100
0000
0001
0000
,
0010
0000
1000
0100
,
0010
0010
1001
0000
,
2002
0000
0000
3003
,
0000
0000
0000
0000
,
0000
0000
0000
0000
0000
0010
0000
0000
,
0000
0001
0000
0000
0000
0100
0000
0000
,
0000
1000
0000
0000
0000
0010
0000
0000
,
0000
0001
0000
0000
0000
0100
0000
0100
,
0000
1000
0000
0001
0000
0010
0000
0000
,
0000
1000
0000
0000
0000
0100
0000
0000
,
0000
0001
0000
0000
0000
0010
0000
0000
,
0000
1000
0000
0000
0000
0100
0000
0100
,
0000
0001
0000
1000
0000
0110
0000
0000
,
0000
0220
0000
0000
0000
0330
0000
0000
,
0000
0000
0000
0000
,
0000
0000
0000
0000
,
0000
0000
0000
1000
,
0000
0010
0000
0001
,
0000
1000
0000
0001
,
0000
0100
0000
1000
,
0000
0001
0000
1000
,
0000
0010
0000
0001
,
0000
0100
0000
1000
,
0000
0010
0000
0001
,
0000
0100
0100
0200
,
0000
0000
0300
0010
,
0010
0010
0010
0001
,
0100
0010
0000
0010
,
1000
0100
0000
1000
,
0010
0100
0000
0100
,
0001
0010
0000
0001
,
1000
0010
0100
0001
,
1000
0010
0100
0220
,
0000
0330
1001
0000
,
0000
0000
0000
0000
0000
0000
0000
2000
,
0000
0000
0000
0000
0000
3000
0000
0020
,
0000
0000
0000
0000
0000
0030
0000
0002
,
0000
0000
0000
0000
0000
0003
0000
0200
,
0000
0000
0000
0000
0000
0300
0000
1000
,
0000
0001
0000
1000
0000
0010
0010
0010
,
0000
0000
0000
0001
0000
1000
0000
0001
,
0000
0100
0100
0100
0000
0000
0000
0000
,
0000
2000
0000
0000
0000
0000
0000
3000
,
0000
0002
0000
0000
0000
0000
0000
0003
,
0000
0100
0010
1000
0000
0010
0100
0001
,
0000
2002
3003
0000
;

//---------------dance-double - ----------------
#NOTEDATA:;
#CHARTNAME:;
#STEPSTYPE:dance-double;
#DESCRIPTION:;
#CHARTSTYLE:;
#DIFFICULTY:Easy;
#METER:9;
#RADARVALUES:0.212260,0.342463,0.094223,0.173950,0.000000,205.000000,192.000000,13.000000,24.000000,0.000000,0.000000,0.000000,0.000000,0.000000,0.212260,0.342463,0.094223,0.173950,0.000000,205.000000,192.000000,13.000000,24.000000,0.000000,0.000000,0.000000,0.000000,0.000000;
#CREDIT:MILEN;
#NOTES:
00000000
00000000
00000000
00000000
,
00000000
00000000
00000000
00000000
,
00000000
00000000
00000000
00000000
,
00000000
00000000
00000000
00000000
,
00000000
00000000
00000000
00000000
,
00002000
00000000
00000000
00003000
,
00020000
00000000
00000000
00030000
,
00001000
00010000
00001000
00010000
,
00000010
00000020
00000000
00000000
00000030
00000000
00000100
00000000
,
00000001
00000010
00000000
00000010
,
00001000
00010000
00000000
00001000
,
00010000
00100000
00000000
00100000
,
10000000
01000000
00000000
01000000
,
00010000
00001000
00000000
00010000
,
00001000
00000100
00000000
00000100
,
00000001
00000010
00000100
00010000
,
00001000
00000000
00100000
00000000
01000000
02000000
00000000
00000000
,
00000000
03000000
00000000
10000000
,
00000000
00100000
00000000
00010000
,
00000000
00001000
00000000
00000100
,
00000000
00000001
00000000
00000010
,
00000000
00001000
00000000
00022000
,
00033000
00011000
00000000
00000000
,
00000000
00000000
00000000
00001000
,
00000000
00000010
00000000
00000001
,
00000000
00000100
00000000
00001000
,
00000000
00010000
00000000
00100000
,
00000000
10000000
00000000
01000000
,
00000000
00010000
00000000
00001000
,
00000000
00000100
00000000
00000001
,
00000000
00000010
00000000
00001000
,
00000000
00010000
00000000
00022000
,
00033000
00011000
00000000
00001000
,
00010000
00100000
00010000
00001000
,
00010000
00100000
00000000
00010000
,
00001000
00000010
00001000
00010000
,
00001000
00000010
00000000
00001000
,
00010000
01000000
00010000
00001000
,
00010000
01000000
00000000
00010000
,
00001000
00000100
00001000
00010000
,
00001000
00000000
00000100
00000000
00000001
00000002
00000000
00000000
,
00000000
00000000
00000000
00000003
,
00000000
00000000
00000001
00000000
,
00000010
00000000
00000100
00000000
,
00001000
00000000
00010000
00000000
,
00100000
00000000
01000000
00000000
,
10000000
00000000
10000000
00000000
,
01000000
00000000
00100000
00000000
,
00010000
00000000
00001000
00000000
,
00000100
00000000
00000010
00000000
,
00000001
00000000
00001001
00000000
,
00002002
00000000
00000000
00003003
,
00000000
00000000
00000000
00000000
,
00000000
00000000
00000000
00000000
00000000
10000000
00000000
00000000
,
00000000
00100000
00000000
00000000
00000000
01000000
00000000
00000000
,
00000000
00010000
00000000
00000000
00000000
00001000
00000000
00000000
,
00000000
00000010
00000000
00000000
00000000
00000100
00000000
00000000
,
00000000
00000001
00000000
00000000
00000000
00000001
00000000
00000000
,
00000000
00000100
00000000
00000000
00000000
00000010
00000000
00000000
,
00000000
00001000
00000000
00000000
00000000
00010000
00000000
00000000
,
00000000
01000000
00000000
00000000
00000000
00100000
00000000
00000000
,
00000000
10000000
00000000
00000000
00000000
10010000
00000000
00000000
,
00000000
20020000
00000000
00000000
00000000
30030000
00000000
00000000
,
00000000
00000000
00000000
00000000
,
00000000
00000000
00000000
00000000
,
00000000
00000000
00000000
00001000
,
00000000
00010000
00000000
00100000
,
00000000
00001000
00000000
00000010
,
00000000
00010000
00000000
00001000
,
00000000
00000100
00000000
00010000
,
00000000
01000000
00000000
00001000
,
00000000
00100000
00000000
00010000
,
00000000
00000010
00000000
00001000
,
00000000
00010000
00010000
00020000
,
00000000
00000000
00030000
00001000
,
00001000
00001000
00001000
00010000
,
00000000
01000000
00000000
10000000
,
00000000
00010000
00000000
00001000
,
00000000
00000001
00000000
00000010
,
00000000
00001000
00000000
00010000
,
00001000
01000000
00001000
00010000
,
00000100
00010000
00001000
00022000
,
00000000
00033000
00011000
00000000
,
00000000
00000000
00000000
00000000
00000000
00000000
00000000
02000000
,
00000000
00000000
00000000
00000000
00000000
03000000
00000000
00020000
,
00000000
00000000
00000000
00000000
00000000
00030000
00000000
00002000
,
00000000
00000000
00000000
00000000
00000000
00003000
00000000
00000200
,
00000000
00000000
00000000
00000000
00000000
00000300
00000000
00000001
,
00000000
00000010
00000000
00000100
00000000
00001000
00000000
00011000
,
00000000
00000000
00000000
10000000
00000000
01000000
00000000
00100000
,
00000000
00010000
00000000
00011000
00000000
00000000
00000000
00000000
,
00000000
00000020
00000000
00000000
00000000
00000000
00000000
00000030
,
00000000
00000200
00000000
00000000
00000000
00000000
00000000
00000300
,
00000000
00000001
00000010
00001000
00000000
00010000
01000000
10000000
,
00000000
20020000
30030000
00000000
;

//---------------dance-single - ----------------
#NOTEDATA:;
#CHARTNAME:;
#STEPSTYPE:dance-single;
#DESCRIPTION:;
#CHARTSTYLE:;
#DIFFICULTY:Medium;
#METER:13;
#RADARVALUES:0.501141,0.616434,0.144958,0.202941,0.021744,484.000000,464.000000,20.000000,28.000000,0.000000,0.000000,0.000000,0.000000,0.000000,0.501141,0.616434,0.144958,0.202941,0.021744,484.000000,464.000000,20.000000,28.000000,0.000000,0.000000,0.000000,0.000000,0.000000;
#CREDIT:MILEN;
#NOTES:
0000
0000
0000
0000
,
0000
0000
0000
0000
,
0000
0000
0000
0000
,
0000
0000
0000
0000
,
0000
0000
0000
0000
,
2000
0100
0001
3010
,
0002
0010
1000
0103
,
1000
0001
0100
0000
0001
1000
0010
0000
,
0100
0010
0210
0000
0301
0001
0001
1000
,
0100
1000
0000
0100
1000
0010
0000
0100
,
0010
1000
0100
0010
0001
0000
1000
0001
,
0100
0001
0000
0100
0001
0010
0000
0100
,
0010
0001
0100
0010
1000
0000
0001
0010
,
0100
0010
0000
0001
0100
0010
0000
1000
,
0010
0100
0001
1000
0100
0000
1000
0010
,
0100
0010
0000
1000
0100
0010
0000
0001
,
0010
0100
1000
0010
0100
0001
2001
0000
,
0000
0000
3010
0010
0010
0010
0100
0000
,
0001
0010
1000
0100
,
0001
0010
1000
0100
,
0001
0010
1000
0100
,
0001
0000
0010
0100
0010
0200
0020
0000
,
0330
0110
0000
0000
,
0000
0000
1000
1000
1000
1000
0001
0000
,
0100
1000
0010
0001
,
0100
1000
0010
0001
,
0100
1000
0010
0001
,
0100
0000
1000
0001
1000
0001
1000
0000
,
0100
0001
0010
1000
,
0100
0001
0010
1000
,
0100
0001
0010
1000
,
0100
0000
0001
1000
0001
2000
0002
0000
,
3003
0000
1001
0000
0000
0000
0001
0100
,
0010
1000
0000
0001
0100
1000
0000
0001
,
0010
1000
0000
0100
0010
0001
0100
1000
,
0001
0010
0000
1000
0100
0010
0000
0001
,
0010
0100
0000
1000
0010
0100
0001
1000
,
0010
0001
0000
1000
0100
0010
0000
0001
,
0010
0100
0000
0001
0010
1000
0001
0100
,
0010
0001
0000
1000
0100
0010
0000
0001
,
0100
1000
0001
0010
1000
0100
0220
0000
,
0000
0000
0000
0330
0000
0000
1000
1000
,
2000
0000
0000
0000
3001
0100
0010
0000
,
0100
0000
0001
0000
0010
0001
0100
0000
,
0010
0000
0100
0000
0001
0010
0100
0000
,
0010
0100
1000
0000
0010
0100
0001
1000
,
0100
0000
0110
0000
1000
0010
0100
0000
,
0010
0000
1000
0000
0100
1000
0010
0000
,
0100
0000
0010
0000
1000
0100
0010
0000
,
0100
0010
0001
0000
0100
0010
1000
0001
,
0100
0010
1000
0001
0101
0000
0000
0000
,
2020
0000
0000
3030
,
0000
0000
0000
0000
,
1000
1000
0001
0001
0001
1000
0010
0100
,
0010
1000
0000
0001
0000
1000
0100
0010
,
0100
1000
0000
0010
0000
0100
0001
0010
,
0000
0100
1000
0010
0000
0100
0001
1000
,
0100
0010
0000
0110
0000
0001
0010
0100
,
0010
0001
0000
1000
0000
0001
0100
0010
,
0100
0001
0000
0010
0000
0100
0010
0001
,
0000
1000
0100
0010
0000
0001
0100
0010
,
1000
0100
0010
0001
1000
1100
0000
0000
,
0000
0022
0000
0000
0000
0033
0000
0000
,
0000
0000
0000
0000
,
0000
0000
0000
0000
,
0000
0010
0010
0010
0100
0100
0001
0010
,
0001
0000
0010
1000
0010
0000
1000
0100
,
1000
0000
0100
0001
0100
0000
0001
0000
,
0011
0000
1000
0000
1010
0000
0001
0010
,
0100
1000
0010
0100
0001
0000
1000
0100
,
1000
0000
0100
0001
0100
0000
0001
0010
,
0001
0000
0010
1000
0010
0000
1000
0000
,
1100
0000
0001
0000
0101
0000
1000
0010
,
0100
0001
0010
0100
1000
0000
0220
0000
,
0000
0000
0000
0000
0330
0000
0010
1000
,
0001
0100
0010
1000
0001
0000
0010
0001
,
0100
0000
0010
1000
0100
0000
0010
0001
,
0100
0000
0010
1000
0100
0001
0100
1000
,
0010
0000
0100
0001
0010
0000
0100
1000
,
0010
0000
0100
0001
0010
0000
0100
1000
,
0010
0001
0010
1000
0100
0000
0010
0001
,
0100
1000
0001
0010
1000
0100
0220
0000
,
0000
0330
1001
0000
,
0000
0000
0000
0000
0000
0000
0000
2000
,
0000
0010
0000
0001
0000
3100
0000
0002
,
0000
0010
0000
1000
0000
0103
0000
0020
,
0000
0001
0000
0100
0000
1030
0000
0200
,
0000
1000
0000
0010
0000
0301
0000
0001
,
0010
1000
0100
0001
0010
1000
0100
0220
,
0000
0330
0000
0100
0001
0010
1000
0100
,
0001
0000
0010
0000
1000
0000
1001
0000
0000
0000
1000
0010
1000
0000
0001
0010
,
0001
0200
0000
0001
0000
0010
0000
1300
,
0000
0020
0000
1000
0000
0100
0000
0031
,
0000
0000
0001
0100
0001
0000
0001
0000
1000
0100
1000
0000
1000
0000
0001
0100
,
0010
0000
1000
0100
0020
0000
0000
0000
0030
0000
0000
0000
0000
0000
0000
0000
;

//---------------dance-double - ----------------
#NOTEDATA:;
#CHARTNAME:;
#STEPSTYPE:dance-double;
#DESCRIPTION:;
#CHARTSTYLE:;
#DIFFICULTY:Medium;
#METER:13;
#RADARVALUES:0.490786,0.582188,0.108719,0.217437,0.014496,474.000000,459.000000,15.000000,30.000000,0.000000,0.000000,0.000000,0.000000,0.000000,0.490786,0.582188,0.108719,0.217437,0.014496,474.000000,459.000000,15.000000,30.000000,0.000000,0.000000,0.000000,0.000000,0.000000;
#CREDIT:MILEN;
#NOTES:
// measure 0
00000000
00000000
00000000
00000000
,  // measure 1
00000000
00000000
00000000
00000000
,  // measure 2
00000000
00000000
00000000
00000000
,  // measure 3
00000000
00000000
00000000
00000000
,  // measure 4
00000000
00000000
00000000
00000000
,  // measure 5
00002000
00100000
00010000
01003000
,  // measure 6
00020000
00000100
00001000
00030010
,  // measure 7
00001000
01000000
00001000
00000000
00010000
00000100
00010000
00000000
,  // measure 8
00001000
00010000
00011000
00000000
01000000
01000000
01000000
00010000
,  // measure 9
00100000
00001000
00000000
00100000
00010000
10000000
00000000
00010000
,  // measure 10
00100000
00001000
00010000
00000100
00000010
00000000
00000100
00001000
,  // measure 11
00000010
00010000
00000000
00000010
00001000
00000001
00000000
00001000
,  // measure 12
00000010
00010000
00001000
01000000
00100000
00000000
10000000
01000000
,  // measure 13
00010000
00001000
00000000
00010000
00000100
00001000
00000000
00000100
,  // measure 14
00000010
00000001
00001000
00000010
00000100
00000000
00000001
00000100
,  // measure 15
00001000
00010000
00000000
00001000
01000000
00010000
00000000
01000000
,  // measure 16
00100000
10000000
00010000
00100000
01000000
10000000
10010000
00000000
,  // measure 17
00000000
00000000
00001000
00001000
00001000
00001000
00010000
00000000
,  // measure 18
01000000
10000000
00100000
00010000
,  // measure 19
00001000
00000100
00000001
00000010
,  // measure 20
00001000
00010000
01000000
10000000
,  // measure 21
00100000
00000000
00010000
00001000
00010000
00001000
00020000
00000000
,  // measure 22
00000000
00031000
00000000
00000000
,  // measure 23
00000000
00000000
00010000
00010000
00010000
00010000
00001000
00000000
,  // measure 24
00000010
00000001
00000100
00001000
,  // measure 25
00010000
00100000
10000000
01000000
,  // measure 26
00010000
00001000
00000010
00000001
,  // measure 27
00000100
00000000
00001000
00010000
00001000
00010000
00001000
00000000
,  // measure 28
00000010
00000001
00000100
00001000
,  // measure 29
00010000
00100000
10000000
01000000
,  // measure 30
00010000
00001000
00000010
00000001
,  // measure 31
00000100
00000000
00001000
00010000
00001000
00010000
00002000
00000000
,  // measure 32
00000000
00000000
00013000
00000000
00000000
00000000
00010000
00001000
,  // measure 33
00000100
00000001
00000000
00001000
00000100
00000010
00000000
00000001
,  // measure 34
00000100
00001000
00000000
00010000
00001000
00000100
00001000
00010000
,  // measure 35
01000000
10000000
00000000
00010000
00100000
01000000
00000000
10000000
,  // measure 36
00100000
00010000
00000000
00001000
00010000
00100000
00010000
00001000
,  // measure 37
00000010
00000001
00000000
00000100
00001000
00010000
00000000
00001000
,  // measure 38
00010000
00100000
00000000
10000000
01000000
00100000
00010000
00001000
,  // measure 39
00010000
01000000
00000000
00001000
00010000
00100000
00000000
00001000
,  // measure 40
00000010
00010000
00001000
00000100
00000001
00000010
00000220
00000000
,  // measure 41
00000000
00000000
00000000
00000330
00000000
00000000
00001000
00001000
,  // measure 42
00002000
00000000
00000000
00000000
00003001
00000100
00001000
00000000
,  // measure 43
00010000
00000000
00001000
00000000
00000100
00001000
00010000
00000000
,  // measure 44
01000000
00000000
00010000
00000000
00001000
00010000
01000000
00000000
,  // measure 45
10000000
00100000
01000000
00000000
10000000
01000000
00100000
10000000
,  // measure 46
01000000
00000000
10010000
00000000
10000000
01000000
00010000
00000000
,  // measure 47
00001000
00000000
00010000
00000000
01000000
00010000
00001000
00000000
,  // measure 48
00000100
00000000
00001000
00000000
00010000
00001000
00000100
00000000
,  // measure 49
00000010
00001000
00000100
00000000
00000001
00000100
00000010
00000001
,  // measure 50
00000100
00001000
00010000
00000000
00010010
00000000
00000000
00000000
,  // measure 51
00202000
00000000
00000000
00303000
,  // measure 52
00000000
00000000
00000000
00000000
,  // measure 53
00010000
00010000
00001000
00001000
00001000
01000000
00010000
01000000
,  // measure 54
00010000
01000000
00000000
00100000
00000000
10000000
01000000
10000000
,  // measure 55
01000000
10000000
00000000
00100000
00000000
00010000
00001000
00100000
,  // measure 56
00000000
00001000
00010000
00000010
00000000
00010000
00001000
00000010
,  // measure 57
00000001
00000100
00000000
00001010
00000000
00000001
00000010
00000001
,  // measure 58
00000010
00000001
00000000
00000100
00000000
00000010
00001000
00000010
,  // measure 59
00001000
00000010
00000000
00010000
00000000
00000100
00001000
00000010
,  // measure 60
00000000
00010000
00001000
00100000
00000000
01000000
10000000
00010000
,  // measure 61
00100000
01000000
00010000
00001000
00000000
00101000
00000000
00000000
,  // measure 62
00000000
00020020
00000000
00000000
00000000
00030030
00000000
00000000
,  // measure 63
00000000
00000000
00000000
00000000
,  // measure 64
00000000
00000000
00000000
00000000
,  // measure 65
00000000
00001000
00001000
00001000
00010000
00010000
01000000
10000000
,  // measure 66
01000000
00000000
10000000
00100000
10000000
00000000
00100000
00010000
,  // measure 67
00100000
00000000
00010000
00001000
00010000
00000000
00001000
00000000
,  // measure 68
00000100
00000000
00000001
00000000
00001001
00000000
00001000
00000100
,  // measure 69
00000010
00000001
00001000
00000100
00000010
00000000
00000010
00000001
,  // measure 70
00000010
00000000
00000001
00000100
00000001
00000000
00000100
00001000
,  // measure 71
00000100
00000000
00001000
00010000
00001000
00000000
00010000
00000000
,  // measure 72
00100000
00000000
10000000
00000000
10010000
00000000
00010000
00100000
,  // measure 73
01000000
10000000
00010000
00100000
01000000
00020000
00002000
00000000
,  // measure 74
00000000
00000000
00000000
00000000
00030000
00000000
00003100
00000001
,  // measure 75
00000100
00000001
00000100
00000001
00000010
00000000
00000010
00001000
,  // measure 76
00010000
00000000
00001000
00010000
00100000
00000000
00010000
00100000
,  // measure 77
10000000
00000000
00100000
10000000
01000000
00100000
01000000
10000000
,  // measure 78
00100000
00000000
00100000
00010000
00001000
00000000
00010000
00001000
,  // measure 79
00000010
00000000
00001000
00000010
00000001
00000000
00000010
00000001
,  // measure 80
00000100
00000010
00000100
00000001
00000010
00000000
00001000
00010000
,  // measure 81
01000000
00010000
00001000
00000100
00001000
00010000
00022000
00000000
,  // measure 82
00000000
00033000
00011000
00000000
,  // measure 83
00000000
00000000
00000000
00000000
00000000
00000000
00000000
02000000
,  // measure 84
00000000
00100000
00000000
00010000
00000000
03001000
00000000
00200000
,  // measure 85
00000000
01000000
00000000
00010000
00000000
00301000
00000000
00000200
,  // measure 86
00000000
00000010
00000000
00001000
00000000
00010300
00000000
00000020
,  // measure 87
00000000
00000100
00000000
00001000
00000000
00010030
00000000
00010000
,  // measure 88
00001000
00000100
00000001
00000010
00001000
00010000
00000000
00022000
,  // measure 89
00000000
00033000
00000000
00001000
00010000
00100000
10000000
01000000
,  // measure 90
00010000
00000000
00001000
00000000
00000000
00000000
00011000
00000000
00000000
00000000
00010000
00000100
00010000
00000000
00001000
01000000
,  // measure 91
00001000
00020000
00000000
00230000
00000000
20300000
00000000
32000000
,  // measure 92
00000000
03020000
00000000
00032000
00000000
00003020
00000000
00000032
,  // measure 93
00000000
00000103
00001000
00010000
01000000
00010000
00001000
00000100
,  // measure 94
00001000
00010000
00001000
00010000
00002000
00000000
00000000
00000000
00003000
00000000
00000000
00000000
00000000
00000000
00000000
00000000
;
