#TITLE:So;
#SUBTITLE:;
#ARTIST:Typhoon;
#TITLETRANSLIT:;
#SUBTITLETRANSLIT:;
#ARTISTTRANSLIT:;
#GENRE:K-POP;
#CREDIT:;
#BANNER:So.png;
#BACKGROUND:So-bg.png;
#LYRICSPATH:;
#CDTITLE:;
#MUSIC:So.mp3;
#OFFSET:0.133000;
#SAMPLESTART:64.193306;
#SAMPLELENGTH:11.980000;
#SELECTABLE:YES;
#BPMS:0.000000=138
;
#STOPS:
;
#KEYSOUNDS:;
#ATTACKS:;

//---------------dance-single - ----------------
#NOTES:
     dance-single:
     :
     Beginner:
     3:
     0.114550,0.197493,0.009899,0.029698,0.000000,81.000000,80.000000,1.000000,3.000000,0.000000,0.000000,0.114550,0.197493,0.009899,0.029698,0.000000,81.000000,80.000000,1.000000,3.000000,0.000000,0.000000:
0000
0000
0000
0000
,
0000
0000
0000
0000
,
0000
0000
0000
0000
,
0000
0000
0000
0000
,
0000
0000
0000
0000
,
1000
0000
0000
0000
,
0001
0000
0000
0000
,
1000
0000
0001
0000
,
1000
0000
0000
0000
,
0010
0000
0010
0000
,
0010
0000
0010
0000
,
0010
0010
0010
0010
,
0020
0000
0000
0030
,
0010
0000
0000
0000
,
1000
0000
0000
0000
,
0001
0000
0000
0000
,
0100
0000
0000
0000
,
0010
0000
0000
0000
,
1000
0000
0000
0000
,
0001
0000
0000
0000
,
0100
0000
0000
0000
,
0010
0000
1000
0000
,
1000
0000
0000
0000
,
0100
0000
0001
0000
,
0001
0000
0000
0000
,
0010
0000
0000
0000
,
1000
0000
0000
0000
,
0100
0000
0000
0000
,
0001
0000
0000
0000
,
0010
0000
0010
0000
,
0010
0000
0010
0000
,
0100
0000
0100
0000
,
0100
0000
0100
0000
,
0001
0000
0001
0000
,
1000
0000
1000
0000
,
0010
0000
0000
0000
,
0010
0010
0010
0010
,
0010
0000
0000
0000
,
0100
0000
0000
0000
,
0001
0000
0000
0000
,
1000
0000
0000
0000
,
0010
0000
0100
0000
,
0001
0000
1000
0000
,
0010
0000
0100
0000
,
0002
0000
0003
0000
,
1000
0000
0000
0000
,
0100
0000
0000
0000
,
0010
0000
0000
0000
,
0001
0000
0000
0000
,
1000
0000
0100
0000
,
0010
0000
0001
0000
,
1000
0000
0100
0000
,
0020
0000
0030
0000
,
0001
0000
1000
0000
,
0001
0000
1000
0000
,
0001
0000
0100
0100
,
0100
0000
0000
0000
,
0110
0000
0000
0000
;

//---------------dance-single - ----------------
#NOTES:
     dance-single:
     :
     Easy:
     4:
     0.155562,0.253920,0.069296,0.158391,0.000000,110.000000,103.000000,7.000000,16.000000,0.000000,0.000000,0.155562,0.253920,0.069296,0.158391,0.000000,110.000000,103.000000,7.000000,16.000000,0.000000,0.000000:
0000
0000
0000
0000
,
0000
0000
0000
0000
,
0000
0000
0000
0000
,
0000
0000
0000
0000
,
0000
0000
0000
0000
,
1000
0000
1000
0000
,
0001
0000
0001
0000
,
1000
0000
0001
0000
,
1001
0000
0010
0010
,
0100
0000
0100
0000
,
0100
0000
0100
0000
,
0100
0100
0100
0100
,
0001
1000
0020
0030
,
0110
0000
0000
0000
,
1000
0000
0000
0000
,
0001
0000
0000
0000
,
0100
0000
0000
0000
,
0010
0000
0000
0000
,
1000
0000
0000
0000
,
0001
0000
0000
0000
,
0100
0000
0000
0000
,
0010
0000
0010
0000
,
1000
0000
1000
0000
,
0100
0000
0100
0000
,
0001
0000
0001
0000
,
0010
0000
1000
0000
,
0100
0000
0001
0000
,
0010
0000
0010
0010
,
0200
0000
0000
0300
,
0010
0000
1000
0000
,
0001
0000
0100
0000
,
0010
0000
1000
0000
,
0100
0000
0010
0000
,
0001
0000
0100
0000
,
0010
0000
1000
0000
,
0001
0000
0010
0000
,
0100
0000
1000
0000
,
0020
0000
0030
0010
,
0020
0030
0010
0000
,
0200
0300
0100
0100
,
0200
0000
0300
0000
,
0001
0000
1000
0000
,
0001
0000
1000
0000
,
0001
1000
0001
1000
,
0002
0003
0000
0100
,
0200
0300
0100
0100
,
0200
0300
0100
0000
,
0020
0030
0010
0010
,
0020
0000
0030
0000
,
1000
0000
0001
0000
,
1000
0000
0001
0000
,
1000
0001
1000
0001
,
2000
3000
0000
0000
,
1001
0000
0100
0000
,
1001
0000
0100
0000
,
2002
0000
0000
3003
,
0220
0000
0000
0330
,
0110
0000
0000
0000
;

//---------------dance-single - ----------------
#NOTES:
     dance-single:
     :
     Medium:
     6:
     0.282841,0.451414,0.346480,0.197988,0.000000,200.000000,165.000000,35.000000,20.000000,0.000000,0.000000,0.282841,0.451414,0.346480,0.197988,0.000000,200.000000,165.000000,35.000000,20.000000,0.000000,0.000000:
0000
0000
0000
0000
,
0000
0000
0000
0000
,
0000
0000
0000
0000
,
0000
0000
0000
0000
,
0000
0000
0000
0000
,
1000
0000
0001
0000
,
1000
0000
0001
0000
,
1000
0001
1000
0001
,
2000
0000
0001
3001
,
1001
0000
1001
0000
,
1001
0000
1001
0000
,
1001
0001
1000
0001
,
0100
0100
0200
0300
,
0010
1000
0010
0000
,
0100
0001
0100
0000
,
0001
0010
0001
0000
,
1000
0100
1000
0000
,
0001
1000
0001
0000
,
0100
0010
0100
0000
,
0001
1000
0001
0100
,
0010
0100
0010
0010
,
1001
1000
0100
0100
,
1001
0001
0010
0010
,
0110
1000
0001
0001
,
0110
0001
1000
1000
,
0020
0030
0002
0003
,
0200
0300
2000
3000
,
0010
0100
0010
1000
,
1002
0000
0100
0103
,
0001
0010
0100
0010
,
0001
0010
1000
0010
,
0001
0010
0100
1000
,
0100
0001
0100
1000
,
0100
0100
0010
0010
,
0001
0100
1000
0010
,
0110
0000
1001
0000
,
0001
1000
0010
0100
,
0102
0000
1000
1003
,
2100
0000
0002
3003
,
0012
0000
1000
1003
,
2010
0000
0000
3001
,
1001
0100
0010
0100
,
1001
0010
0100
0010
,
1000
0100
0010
0002
,
2000
0000
0003
3001
,
0012
0000
0100
0103
,
2100
0000
0020
3030
,
2010
0000
0100
3100
,
0102
0000
0000
0013
,
0110
1000
0001
1000
,
0110
0001
1000
0001
,
0110
1000
0110
0001
,
0101
1100
1010
0011
,
1001
0000
1001
0000
,
1001
0000
1001
0000
,
1001
0001
0100
1000
,
0020
0000
0000
0000
,
0130
0000
0000
0000
;

//---------------dance-single - ----------------
#NOTES:
     dance-single:
     :
     Hard:
     8:
     0.377592,0.451414,0.326681,0.306882,0.000000,267.000000,234.000000,33.000000,31.000000,0.000000,0.000000,0.377592,0.451414,0.326681,0.306882,0.000000,267.000000,234.000000,33.000000,31.000000,0.000000,0.000000:
// measure 0
0000
0000
0000
0000
,  // measure 1
0000
0000
0000
0000
,  // measure 2
0000
0000
0000
0000
,  // measure 3
0000
0000
0000
0000
,  // measure 4
0000
0000
0000
0000
,  // measure 5
1000
0000
0001
0000
,  // measure 6
1000
0001
2000
3000
,  // measure 7
1001
0000
1001
0000
,  // measure 8
0001
0000
0001
0000
1000
0001
0100
0010
,  // measure 9
1000
0000
1100
0000
,  // measure 10
0001
0000
0011
0000
,  // measure 11
1000
1010
0001
0101
,  // measure 12
1000
0000
1000
0000
0010
0100
0001
1000
,  // measure 13
0200
0000
1300
0010
1000
0000
0100
0000
,  // measure 14
0010
0001
0100
0010
,  // measure 15
2000
0000
3001
0000
1000
0010
0100
0001
,  // measure 16
0100
0000
0010
0000
1000
0000
0001
0010
,  // measure 17
0200
0000
1300
0010
0100
0000
0010
1000
,  // measure 18
0100
0000
0010
0001
0100
0000
0010
0100
,  // measure 19
0020
2030
3002
0203
,  // measure 20
0010
1000
0010
0301
,  // measure 21
0001
0010
0100
1000
0100
0000
1000
0000
,  // measure 22
0010
0100
0001
0100
0010
0000
1000
0000
,  // measure 23
0100
0010
0001
0010
0100
0000
0010
0000
,  // measure 24
1000
0001
0010
0100
0010
0000
0001
0000
,  // measure 25
0100
1100
0010
0011
,  // measure 26
1000
1010
0001
0101
,  // measure 27
2002
0000
3003
0010
0010
0000
1000
0001
,  // measure 28
0100
1000
0100
0000
0010
0001
0010
0000
,  // measure 29
0001
0100
0010
1010
,  // measure 30
1000
0100
0010
0011
,  // measure 31
1000
0010
0100
0101
,  // measure 32
0001
0010
0100
1100
,  // measure 33
1000
0010
0100
0001
1000
0010
0010
0000
,  // measure 34
0001
0100
0010
1000
0001
0100
0100
0000
,  // measure 35
1000
0000
0001
0000
,  // measure 36
0101
1100
1010
0011
,  // measure 37
2002
0000
3003
0000
0001
0010
0100
1000
,  // measure 38
0010
0000
0100
0010
1000
0000
0000
0000
,  // measure 39
1002
0000
0000
1003
1000
0100
0010
0100
,  // measure 40
0001
0101
1000
1100
,  // measure 41
0002
0000
0000
0010
0013
0000
0001
1000
,  // measure 42
0020
0000
0000
0100
0130
0000
0010
1000
,  // measure 43
0200
0320
0032
2003
,  // measure 44
3020
0100
0001
1030
,  // measure 45
2002
0000
3003
0000
1000
0010
0100
0001
,  // measure 46
0010
0000
0100
0010
0001
0000
0000
0000
,  // measure 47
2001
0000
0000
3001
0001
0100
0010
0100
,  // measure 48
1000
1100
0001
0101
,  // measure 49
2000
0000
0000
0010
3010
0000
1000
0001
,  // measure 50
0020
0000
0000
0100
0130
0000
0100
1000
,  // measure 51
0020
0230
0302
2003
,  // measure 52
3200
0010
0001
1300
,  // measure 53
1010
0000
0011
0000
,  // measure 54
1100
0000
0101
0000
,  // measure 55
1001
0010
0100
0001
1000
0100
0010
0001
,  // measure 56
0200
0000
0000
0300
,  // measure 57
0110
0000
0000
0000
;

//---------------dance-double - ----------------
#NOTES:
     dance-double:
     :
     Easy:
     4:
     0.155562,0.225707,0.069296,0.168290,0.000000,110.000000,103.000000,7.000000,17.000000,0.000000,0.000000,0.155562,0.225707,0.069296,0.168290,0.000000,110.000000,103.000000,7.000000,17.000000,0.000000,0.000000:
00000000
00000000
00000000
00000000
,
00000000
00000000
00000000
00000000
,
00000000
00000000
00000000
00000000
,
00000000
00000000
00000000
00000000
,
00000000
00000000
00000000
00000000
,
00001000
00000000
00001000
00000000
,
00010000
00000000
00010000
00000000
,
00001000
00000000
00010000
00000000
,
00011000
00000000
00001000
00010000
,
00001000
00000000
00010000
00000000
,
00001000
00000000
00010000
00000000
,
00001000
00010000
00001000
00010000
,
00001000
00010000
00002000
00000000
,
00013000
00000000
00000000
00000000
,
00001000
00000000
00000000
00000000
,
00000010
00000000
00000000
00000000
,
00000001
00000000
00000000
00000000
,
00000100
00000000
00000000
00000000
,
00001000
00000000
00000000
00000000
,
00010000
00000000
00000000
00000000
,
00100000
00000000
00000000
00000000
,
10000000
00000000
10000000
00000000
,
01000000
00000000
01000000
00000000
,
00100000
00000000
00100000
00000000
,
00001000
00000000
00001000
00000000
,
00010000
00000000
00000100
00000000
,
00000010
00000000
00000001
00000000
,
00000100
00000000
00001000
00010000
,
00022000
00000000
00000000
00033000
,
00001000
00000000
01000000
00000000
,
00001000
00000000
00010000
00000000
,
00000100
00000000
00010000
00000000
,
00001000
00000000
00100000
00000000
,
00001000
00000000
00010000
00000000
,
00000010
00000000
00010000
00000000
,
00001000
00000000
00100000
00000000
,
01000000
00000000
10000000
00000000
,
00200000
00000000
00300000
01000000
,
00200000
00300000
01000000
00000000
,
00020000
00030000
10000000
00010000
,
20000000
00000000
30000000
00000000
,
01000000
00000000
00010000
00000000
,
00001000
00000000
00000100
00000000
,
00000001
00001000
00000001
00001000
,
00000002
00000003
00000000
00000010
,
00000200
00000300
00000010
00000100
,
00000020
00000030
00000100
00000000
,
00002000
00003000
00000001
00001000
,
00000002
00000000
00000003
00000000
,
00000010
00000000
00001000
00000000
,
00010000
00000000
00100000
00000000
,
10000000
00010000
10000000
00010000
,
20000000
30000000
00000000
00000000
,
10010000
00000000
00010000
00000000
,
00011000
00000000
00001000
00000000
,
00002002
00000000
00000000
00003003
,
00000220
00000000
00000000
00000330
,
00000110
00000000
00000000
00000000
;

//---------------dance-double - ----------------
#NOTES:
     dance-double:
     :
     Medium:
     6:
     0.272941,0.338560,0.287083,0.207888,0.000000,193.000000,164.000000,29.000000,21.000000,0.000000,0.000000,0.272941,0.338560,0.287083,0.207888,0.000000,193.000000,164.000000,29.000000,21.000000,0.000000,0.000000:
00000000
00000000
00000000
00000000
,
00000000
00000000
00000000
00000000
,
00000000
00000000
00000000
00000000
,
00000000
00000000
00000000
00000000
,
00000000
00000000
00000000
00000000
,
00001000
00000000
00010000
00000000
,
00001000
00000000
00010000
00000000
,
00001000
00010000
00001000
00010000
,
00002000
00000000
00010000
00013000
,
00011000
00000000
00011000
00000000
,
00011000
00000000
00011000
00000000
,
00011000
00010000
00001000
00010000
,
01000000
10000000
20020000
30030000
,
00010000
01000000
00001000
00000000
,
00010000
00001000
01000000
00000000
,
00001000
00010000
00000010
00000000
,
00001000
00000010
00010000
00000000
,
00001000
00100000
00010000
00000000
,
00100000
00001000
00010000
00000000
,
00000100
00010000
00001000
00000000
,
00010000
00000100
00001000
00001000
,
00001001
00000001
00000100
00001000
,
00011000
00010000
00100000
10000000
,
10010000
00010000
01000000
00001000
,
00011000
00010000
00000010
00000100
,
00000002
00000003
00000020
00000030
,
00002000
00003000
00020000
00030000
,
00100000
10000000
01000000
00010000
,
00012000
00000000
00010000
00013000
,
00010000
00001000
00000010
00001000
,
00010000
00001000
00000100
00001000
,
00010000
00100000
00010000
00001000
,
00010000
01000000
00010000
00001000
,
00000010
00000001
00000100
00001000
,
00010000
00100000
10000000
01000000
,
00010000
00000000
00001000
00000000
,
00000010
00000001
00000100
00001000
,
00021000
00000000
01030000
00010000
,
00012000
00000000
00000200
00003300
,
00021000
00000000
00130000
00010000
,
00012000
00000000
00000000
00003010
,
00000011
00000001
00000100
00001000
,
00011000
00010000
00100000
10000000
,
01000000
00100000
00010000
02000000
,
00002000
00000000
03000000
00013000
,
00012000
00000000
00003100
00001000
,
00021000
00000000
02000000
03030000
,
00012000
00000000
00003010
00001000
,
00021000
00000000
00000000
00130000
,
10100000
10000000
01000000
00010000
,
00011000
00001000
00000010
00000001
,
00000100
00000010
00001000
00000100
,
00010000
01000000
10000000
00100000
,
00110000
00000000
00011000
00000000
,
00001010
00000000
00011000
00000000
,
01010000
10000000
00100000
00010000
,
00002000
00000000
00000000
00003000
,
00001001
00000000
00000000
00000000
;

//---------------dance-double - ----------------
#NOTES:
     dance-double:
     :
     Hard:
     8:
     0.360622,0.423200,0.257385,0.306882,0.000000,255.000000,229.000000,26.000000,31.000000,0.000000,0.000000,0.360622,0.423200,0.257385,0.306882,0.000000,255.000000,229.000000,26.000000,31.000000,0.000000,0.000000:
00000000
00000000
00000000
00000000
,
00000000
00000000
00000000
00000000
,
00000000
00000000
00000000
00000000
,
00000000
00000000
00000000
00000000
,
00000000
00000000
00000000
00000000
,
00011000
00000000
00000000
00001000
01000000
00000000
00001000
00010000
,
00001000
00000000
00000000
00010000
00000100
00000000
00010000
00001000
,
00010000
00100000
00011000
00000010
,
00022000
00000000
00000000
00033000
00001000
00010000
00001000
00010000
,
00100000
00000000
10000000
00000000
,
01000000
00000000
00010000
00000000
,
00001000
00000010
00000001
00000100
,
00001000
00010000
00001000
00010000
00022000
00000000
00033000
00000000
,
00001000
00100000
00010000
01000000
,
00100000
10000000
00010000
01000000
,
00001000
00010000
00000010
00000100
,
00000001
00000000
00001000
00000000
00000100
00000000
00010000
00001000
,
00020000
00030010
00010000
00001000
,
00100000
00000000
00010000
00000000
01000000
00000000
00001000
00010000
,
00002000
00103000
00020000
00030100
,
00022000
00000000
00000000
00000000
00033000
00000000
00010000
00000100
,
00001000
00000000
00000100
00000010
00000000
00000001
00000100
00000010
,
00010000
00000000
00001000
00100000
00000000
00010000
00100000
01000000
,
10000000
00000000
00100000
01000000
00000000
00010000
10000000
01000000
,
00100000
00000000
00010000
01000000
00000000
00001000
00010000
00000100
,
00000020
00000031
00000200
00001300
,
00020000
01030000
20000000
30100000
,
01100000
00010000
00011000
00001000
,
00000110
00001010
00000101
00001001
,
00000001
00000010
00000100
00000000
00000010
00001000
00010000
00000000
,
00001000
00010000
00100000
00000000
01000000
00100000
10000000
00000000
,
01000000
00010000
00001000
00000000
00000100
00001000
00010000
00000000
,
00100000
00010000
00001000
00000000
00000010
00001000
00010000
00000000
,
00001000
00000010
00000001
00000100
00001000
00000000
00011000
00000000
,
00010000
00100000
10000000
01000000
00010000
00000000
00011000
00000000
,
00000020
00000000
00000000
00000030
,
00000100
00000000
00000100
00000000
00000001
00000010
00001000
00010000
,
00200000
00000000
00000000
10300000
10000000
01000000
00100000
00010000
,
01000000
00000000
00100000
00010000
00001000
00000000
00000000
00000000
,
00012000
00000000
00000000
00013000
00001000
00000100
00000010
00001000
,
00000100
00000010
00000001
00000100
,
00022000
00000000
00033000
00001000
01000000
00000000
00001000
00010000
,
00000200
00000000
00000000
00010300
00000010
00000000
00010000
00001000
,
00100000
01000000
10000000
00100000
,
00020000
00000000
00030000
00011000
,
00002000
00000000
00000000
00013000
00010000
00000100
00000010
00000001
,
00001000
00000000
00000100
00000010
00000001
00000000
00000101
00000000
,
00002000
00000000
00000000
00003010
00000010
00010000
00001000
00100000
,
01000000
10000000
00100000
01000000
,
02200000
00000000
03300000
00100000
00010000
00000000
00100000
00010000
,
00002000
00000000
00000000
00013000
00000100
00000000
00000010
00000001
,
00000100
00001000
00010000
01000000
,
22000000
00000000
00000000
33000000
,
10010000
00000000
00011000
00000000
,
00001001
00000000
00011000
00000000
,
00020020
00000030
00001000
00031000
,
00202000
00000000
00000000
00303000
,
00011000
00000000
00000000
00000000
;
