#VERSION:0.83;
#TITLE:Snow Desert;
#SUBTITLE:;
#ARTIST:WyvernP;
#TITLETRANSLIT:;
#SUBTITLETRANSLIT:;
#ARTISTTRANSLIT:;
#GENRE:VARIETY;
#ORIGIN:;
#CREDIT:MILEN;
#BANNER:Snow Desert.png;
#BACKGROUND:Snow Desert-bg.png;
#PREVIEWVID:;
#JACKET:Snow Desert-jacket.png;
#CDIMAGE:;
#DISCIMAGE:;
#LYRICSPATH:;
#CDTITLE:;
#MUSIC:Snow Desert.ogg;
#OFFSET:0.060000;
#SAMPLESTART:69.048950;
#SAMPLELENGTH:13.357849;
#SELECTABLE:YES;
#DISPLAYBPM:125.000000;
#BPMS:0.000=125.020;
#STOPS:;
#DELAYS:;
#WARPS:;
#TIMESIGNATURES:0.000=4=4;
#TICKCOUNTS:0.000=4;
#COMBOS:0.000=1;
#SPEEDS:0.000=1.000=0.000=0;
#SCROLLS:0.000=1.000;
#FAKES:;
#LABELS:0.000=Song Start;
#BGCHANGES:;
#KEYSOUNDS:;
#ATTACKS:
;

//---------------dance-single - ----------------
#NOTEDATA:;
#CHARTNAME:;
#STEPSTYPE:dance-single;
#DESCRIPTION:;
#CHARTSTYLE:;
#DIFFICULTY:Hard;
#METER:13;
#RADARVALUES:0.549376,0.743283,0.357337,0.238225,0.863565,452.000000,410.000000,42.000000,28.000000,0.000000,0.000000,0.000000,0.000000,0.000000,0.549376,0.743283,0.357337,0.238225,0.863565,452.000000,410.000000,42.000000,28.000000,0.000000,0.000000,0.000000,0.000000,0.000000;
#CREDIT:MILEN;
#DISPLAYBPM:125.000000;
#NOTES:
0000
0000
0000
0000
,
0000
0000
0000
0000
,
0000
0000
0000
0000
,
0000
0000
0000
0000
,
0000
1000
1000
1000
,
1000
0001
0001
0001
,
0001
1000
1000
0001
,
0001
1000
0001
2002
,
3003
0000
0000
1001
0000
0000
0110
0000
0010
1000
0000
0000
,
1000
0000
0100
0000
0010
0000
0001
0000
0000
0000
0001
0100
0001
0000
0000
0000
1000
0000
0010
0000
0000
0000
0000
0000
,
0110
0000
0000
0000
0100
0000
0001
0000
0000
0000
0000
0000
0001
0000
0010
0000
0100
0000
1000
0000
0000
0000
1000
0010
,
1000
0000
0000
0000
0010
0100
0010
0000
0000
0000
0000
0000
0110
0000
0000
0000
0100
0000
0001
0000
0000
0000
0001
0010
,
0001
0000
1000
0010
0000
0000
0110
0000
0100
0001
0000
0000
,
0001
0000
0100
0000
0010
0000
1000
0000
0000
0000
1000
0100
1000
0000
0000
0000
0010
0000
0100
0000
0000
0000
0000
0000
,
0110
0000
0000
0000
0010
0000
1000
0000
0000
0000
0000
0000
1000
0000
0010
0000
0100
0000
0001
0000
0000
0000
0001
0010
,
0001
0000
0000
0000
0010
0100
0010
0000
0000
0000
0000
0000
0110
0000
0000
0000
0100
0000
1000
0000
0000
0000
1000
0001
,
1000
0000
0001
0020
0000
0000
0230
0000
0000
2300
0000
0000
,
3002
0000
0000
0000
0103
0010
0100
0000
0000
0000
0000
0000
0000
0000
0100
0000
0001
0000
0010
0000
0000
0000
0010
0000
,
0100
0000
0100
1000
0010
0100
0001
1000
0100
0010
0000
0010
,
0001
0000
0000
0000
0001
0000
2000
0000
0000
0000
0000
0000
3010
0100
0010
0000
0001
0000
0010
0100
0010
0000
1000
0000
,
0100
0010
0001
0101
0000
0100
0010
0000
0010
1000
0000
1000
,
0100
0000
0100
0010
0000
0010
0001
0000
0001
0100
0000
0100
,
0010
0000
0010
1000
0000
1000
0001
0000
0001
0100
0000
0100
,
0010
0000
0000
0000
0010
0000
1000
0000
0000
0000
1000
0000
0100
0000
0000
0000
0100
0000
0010
0001
0010
0000
0100
0000
,
0010
0000
0010
0001
0000
0001
0100
0000
0100
1000
0000
1000
,
0100
0000
0100
0010
0000
0010
1000
0000
1000
0010
0000
0010
,
0001
0000
0001
0010
0100
0001
0010
0100
1000
0010
0000
0010
,
0100
0000
0100
1000
0100
0010
1000
0100
0010
0001
0100
1000
,
0100
0001
1000
1001
0000
0000
0110
0000
0100
0002
0000
0000
,
0000
0000
0010
0000
0010
0000
0013
0000
0000
0000
0010
0100
0010
0000
0000
0000
0100
0000
1000
0000
0000
0000
0000
0000
,
1010
0000
0000
0000
0010
0000
0200
0000
0000
0000
0000
0000
0301
0000
0010
0000
0100
0000
1000
0000
0000
0000
1000
0010
,
1000
0000
0000
0000
0001
1000
0001
0000
0000
0000
0000
0000
0101
0000
0000
0000
0010
0000
2000
0000
0000
0000
3100
0010
,
0100
0000
0010
0011
0000
0000
0101
0000
0000
1100
0000
0000
,
1010
0101
0011
1010
,
1100
0000
0000
1001
1000
0010
0001
0010
0100
1000
0100
0001
,
0010
0100
0010
0200
0020
0000
0000
0000
0000
0000
0000
0000
0000
0000
0000
0000
,
0330
0000
0000
1001
0000
1000
0010
0000
0010
0001
0000
0001
,
0100
0000
0100
1000
0000
1000
0010
0000
0010
0001
0000
0001
,
0100
0000
0100
1000
0000
1000
0100
0000
0100
0001
0000
0001
,
0010
0000
0010
1000
0000
1000
0100
0000
0100
0001
0000
0001
,
0010
0000
0010
1000
0100
0010
1000
0000
0010
0100
1000
0010
,
0100
0000
0010
0001
0010
0100
0001
0000
0010
0100
0001
0100
,
0010
0000
0001
0100
1000
0001
0010
0100
0001
0010
0100
1000
,
0010
0000
0100
0000
0001
0000
1000
0000
0100
0000
0010
0100
0010
0000
0001
0000
0010
0100
0010
0000
1000
0000
0010
0000
,
0002
0000
0000
2003
0000
0010
3010
0000
0000
1002
0000
0100
,
0103
0000
0000
0021
0000
0100
0130
0000
0000
1020
0000
0100
,
0130
0000
0000
1200
0000
0010
0310
0000
0000
0201
0000
0010
,
0310
0000
0000
1020
0000
0001
0031
0000
0000
0201
0000
1000
,
1300
0000
0000
0100
0010
1000
1001
0000
0000
0010
0100
0001
,
1001
0000
0000
1000
0100
0010
0110
0000
0000
0001
0010
0100
,
0110
0000
0000
1000
0010
0100
0101
0001
1000
0100
0010
0001
,
0011
0010
0100
0010
0001
1000
1010
0010
0100
0001
0010
0100
,
1100
1000
0010
0200
0000
0000
0001
0000
0000
1000
0000
0000
,
0301
0020
1000
0001
,
1030
0000
0000
1001
0000
0000
0110
0000
0100
0001
0000
0000
,
0011
0000
0100
0000
1000
0000
0010
0000
0000
0000
0100
0001
0020
0000
0000
0000
0100
0000
0130
0000
0000
0000
0000
0000
,
1100
0010
0001
0200
0000
0000
0000
0000
0000
0000
0000
0000
,
0000
0320
0000
0000
,
0000
2030
0000
0000
,
0000
0002
0000
0000
,
0000
3003
0000
0000
;

//---------------dance-double - ----------------
#NOTEDATA:;
#CHARTNAME:;
#STEPSTYPE:dance-double;
#DESCRIPTION:;
#CHARTSTYLE:;
#DIFFICULTY:Hard;
#METER:14;
#RADARVALUES:0.532360,0.640761,0.289273,0.238225,0.842295,438.000000,404.000000,34.000000,28.000000,0.000000,0.000000,0.000000,0.000000,0.000000,0.532360,0.640761,0.289273,0.238225,0.842295,438.000000,404.000000,34.000000,28.000000,0.000000,0.000000,0.000000,0.000000,0.000000;
#CREDIT:MILEN;
#DISPLAYBPM:125.000000;
#NOTES:
// measure 0
00000000
00000000
00000000
00000000
,  // measure 1
00000000
00000000
00000000
00000000
,  // measure 2
00000000
00000000
00000000
00000000
,  // measure 3
00000000
00000000
00000000
00000000
,  // measure 4
00000000
10000000
10000000
10000000
,  // measure 5
10000000
00010000
00010000
00010000
,  // measure 6
00010000
00001000
00001000
00000001
,  // measure 7
00000001
00001000
00010000
00022000
,  // measure 8
00033000
00000000
00000000
01001000
00000000
00000000
00010100
00000000
00000100
00001000
00000000
00000000
,  // measure 9
00001000
00000000
00000100
00000000
00000010
00000000
00000001
00000000
00000000
00000000
00000100
00000010
00000100
00000000
00000000
00000000
00000010
00000000
00010000
00000000
00000000
00000000
00000000
00000000
,  // measure 10
00011000
00000000
00000000
00000000
00001000
00000000
00100000
00000000
00000000
00000000
00000000
00000000
00100000
00000000
01000000
00000000
10000000
00000000
00100000
00000000
00000000
00000000
01000000
00010000
,  // measure 11
01000000
00000000
00000000
00000000
00001000
00010000
00001000
00000000
00000000
00000000
00000000
00000000
00011000
00000000
00000000
00000000
00010000
00000000
00000100
00000000
00000000
00000000
00000010
00000001
,  // measure 12
00000010
00000000
00000100
00000010
00000000
00000000
00000011
00000000
00000001
00000100
00000000
00000000
,  // measure 13
00000100
00000000
00001000
00000000
00010000
00000000
00100000
00000000
00000000
00000000
10000000
01000000
10000000
00000000
00000000
00000000
01000000
00000000
00100000
00000000
00000000
00000000
00000000
00000000
,  // measure 14
00101000
00000000
00000000
00000000
00001000
00000000
00010000
00000000
00000000
00000000
00000000
00000000
00010000
00000000
00100000
00000000
00001000
00000000
00000010
00000000
00000000
00000000
00000100
00000001
,  // measure 15
00000100
00000000
00000000
00000000
00000010
00001000
00000010
00000000
00000000
00000000
00000000
00000000
00000110
00000000
00000000
00000000
00000100
00000000
00000001
00000000
00000000
00000000
00000010
00001000
,  // measure 16
00000010
00000000
00001000
00020000
00000000
00000000
00230000
00000000
00000000
20300000
00000000
00000000
,  // measure 17
32000000
00000000
00000000
00000000
03010000
00001000
00010000
00000000
00000000
00000000
00000000
00000000
00000000
00000000
00001000
00000000
00000010
00000000
00000001
00000000
00000000
00000000
00000001
00000000
,  // measure 18
00000100
00000000
00000100
00001000
00010000
00001000
00000010
00001000
00010000
00100000
00000000
00100000
,  // measure 19
10000000
00000000
10000000
02000000
00000000
00000000
03100000
00100000
00010000
00001000
00001000
00000100
,  // measure 20
00000010
00000001
00000100
00001010
00000000
00001000
00000100
00000000
00000100
00010000
00000000
00010000
,  // measure 21
00001000
00000000
00001000
01000000
00000000
01000000
00100000
00000000
00100000
10000000
00000000
10000000
,  // measure 22
00010000
00000000
00010000
00100000
00000000
00100000
01000000
00000000
01000000
00010000
00000000
00010000
,  // measure 23
00001000
00000000
00001000
00000010
00000000
00000010
00000001
00000000
00000001
00001000
00001000
00000100
,  // measure 24
00000010
00000000
00000010
00001000
00000000
00001000
00010000
00000000
00010000
00100000
00000000
00100000
,  // measure 25
10000000
00000000
10000000
01000000
00000000
01000000
00100000
00000000
00100000
00001000
00000000
00001000
,  // measure 26
00010000
00000000
00010000
00000010
00001000
00000100
00000010
00001000
00000010
00000001
00000000
00000001
,  // measure 27
00000100
00000000
00000100
00001000
01000000
00001000
00010000
00000010
00010000
00001000
00100000
00001000
,  // measure 28
00010000
00000100
00010000
00011000
00000000
00000000
01010000
00000000
01000000
20000000
00000000
00000000
,  // measure 29
00000000
00000000
00100000
00000000
00100000
00000000
30100000
00000000
00000000
00000000
00100000
00010000
00100000
00000000
00000000
00000000
00010000
00000000
00001000
00000000
00000000
00000000
00000000
00000000
,  // measure 30
00001100
00000000
00000000
00000000
00000100
00000000
00000002
00000000
00000000
00000000
00000000
00000000
00000013
00000000
00000100
00000000
00001000
00000000
00000010
00000000
00000000
00000000
00010000
00001000
,  // measure 31
00010000
00000000
00000000
00000000
00001000
01000000
00001000
00000000
00000000
00000000
00000000
00000000
00011000
00000000
00000000
00000000
00010000
00000000
00200000
00000000
00000000
00000000
10300000
01000000
,  // measure 32
10000000
00000000
01000000
01100000
00000000
00000000
01010000
00000000
00000000
00011000
00000000
00000000
,  // measure 33
00001010
00000110
00001001
00011000
,  // measure 34
10010000
00000000
00000000
00011000
00001000
00000100
00000001
00000010
00001000
00010000
01000000
10000000
,  // measure 35
00100000
00010000
00001000
00022000
00000000
00000000
00000000
00000000
00000000
00000000
00000000
00000000
,  // measure 36
00033000
00000000
00000000
00011000
00000000
00010000
01000000
00000000
01000000
10000000
00000000
10000000
,  // measure 37
00100000
00000000
00100000
00010000
00000000
00010000
00001000
00000000
00001000
00000100
00000000
00000100
,  // measure 38
00000001
00000000
00000001
00000010
00000000
00000010
00000100
00000000
00000100
00001000
00000000
00001000
,  // measure 39
00010000
00000000
00010000
00100000
00000000
00100000
01000000
00000000
01000000
10000000
00000000
10000000
,  // measure 40
00100000
00000000
00100000
00010000
00001000
00000010
00000100
00000000
00000100
00000001
00000100
00001000
,  // measure 41
00000010
00000000
00000010
00010000
00100000
01000000
00010000
00000000
00010000
00100000
01000000
00010000
,  // measure 42
00000100
00000000
00000100
00000010
00000001
00001000
00000100
00000010
00010000
00100000
00001000
00000100
,  // measure 43
00010000
01000000
00100000
10000000
01000000
00010000
00010000
00000100
00010000
00010000
01000000
10000000
,  // measure 44
00100000
00000000
00000000
01200000
00000000
00310000
00001000
00000000
00000000
00000120
00000000
00001030
,  // measure 45
00010000
00000000
00000000
02100000
00000000
03010000
00001000
00000000
00000000
00000210
00000000
00001300
,  // measure 46
00010000
00000000
00000000
12000000
00000000
03010000
00001000
00000000
00000000
00000201
00000000
00001300
,  // measure 47
00010000
00000000
00000000
10200000
00000000
00310000
00001000
00000000
00000000
00000021
00000000
00001030
,  // measure 48
00010000
00000000
00000000
10000000
01000000
00100000
00010000
00000000
00000000
00100000
00010000
00001000
,  // measure 49
00000100
00000000
00000000
00000001
00000010
00000100
00001000
00000000
00000000
00000100
00001000
00010000
,  // measure 50
00100000
00000000
00000000
10000000
00100000
01000000
10000000
00010000
00100000
01000000
00001000
00000100
,  // measure 51
00010000
00100000
00001000
00000010
00000100
00001000
00000001
00000010
00000100
00001000
00010000
00100000
,  // measure 52
01000000
10000000
00100000
00020000
00000000
00000000
00001000
00000000
00000000
01000000
00000000
00000000
,  // measure 53
00031000
00002000
00010000
00000010
,  // measure 54
00013000
00000000
00000000
00011000
00000000
00000000
00001100
00000000
00000100
00000002
00000000
00000000
,  // measure 55
00000013
00000000
00000100
00000000
00001000
00000000
00000010
00000000
00000000
00000000
00010000
00001000
00200000
00000000
00000000
00000000
01300000
00000000
10000000
00000000
00000000
00000000
00000000
00000000
,  // measure 56
10000000
00100000
00010000
00002000
00000000
00000000
00000000
00000000
00000000
00000000
00000000
00000000
,  // measure 57
00000000
00003200
00000000
00000000
,  // measure 58
00000000
00000302
00000000
00000000
,  // measure 59
00000000
00002000
00000000
00000000
,  // measure 60
00000000
00003003
00000000
00000000
;

//---------------dance-single - ----------------
#NOTEDATA:;
#CHARTNAME:;
#STEPSTYPE:dance-single;
#DESCRIPTION:;
#CHARTSTYLE:;
#DIFFICULTY:Beginner;
#METER:2;
#RADARVALUES:0.083865,0.126025,0.000000,0.000000,0.000000,69.000000,69.000000,0.000000,0.000000,0.000000,0.000000,0.000000,0.000000,0.000000,0.083865,0.126025,0.000000,0.000000,0.000000,69.000000,69.000000,0.000000,0.000000,0.000000,0.000000,0.000000,0.000000,0.000000;
#CREDIT:MILEN;
#DISPLAYBPM:125.000000;
#NOTES:
0000
0000
0000
0000
,
0000
0000
0000
0000
,
0000
0000
0000
0000
,
0000
0000
0000
0000
,
0000
1000
0000
0000
,
0000
1000
0000
0000
,
0000
1000
0000
0000
,
0000
1000
0000
0000
,
0000
1000
0000
1000
,
0000
0001
0000
0001
,
0000
1000
0000
1000
,
0000
1000
0000
0000
,
0000
0001
0000
0001
,
0000
1000
0000
1000
,
0000
0001
0000
0001
,
0000
0001
0000
0000
,
0000
0100
0000
0000
,
0000
0010
0000
0000
,
0000
0100
0000
0000
,
0000
0010
0000
0000
,
0000
0100
0000
0100
,
0000
0100
0000
0000
,
0000
0010
0000
0010
,
0000
0010
0000
0000
,
0000
1000
0000
0001
,
0000
1000
0000
0000
,
0000
0001
0000
1000
,
0000
0001
0000
0000
,
0000
0100
0000
0000
,
0000
0000
0000
0000
,
0000
0010
0000
0000
,
0000
0000
0000
0000
,
0000
1000
0000
1000
,
0000
1000
0000
1000
,
0000
0001
0000
0001
,
0000
0001
0000
0000
,
0000
0100
0000
0000
,
0000
0010
0000
0000
,
0000
1000
0000
0000
,
0000
0001
0000
0000
,
0000
0100
0000
0000
,
0000
0010
0000
0000
,
0000
1000
0000
0000
,
0000
0001
0000
0000
,
0000
0010
0000
0000
,
0000
0100
0000
0000
,
0000
1000
0000
0000
,
0000
0001
0000
0000
,
0000
0010
0000
0000
,
0000
0100
0000
0000
,
0000
1000
0000
0000
,
0000
0010
0000
0000
,
0000
0100
0000
0000
,
0000
0100
0000
0000
,
0000
0100
0000
0100
,
0000
0100
0000
0100
,
0000
0010
0000
0000
,
0000
1000
0000
0000
,
0000
0001
0000
0000
,
0000
0100
0000
0000
;

//---------------dance-single - ----------------
#NOTEDATA:;
#CHARTNAME:;
#STEPSTYPE:dance-single;
#DESCRIPTION:;
#CHARTSTYLE:;
#DIFFICULTY:Easy;
#METER:5;
#RADARVALUES:0.218778,0.358826,0.229717,0.102096,0.000000,180.000000,153.000000,27.000000,12.000000,0.000000,0.000000,0.000000,0.000000,0.000000,0.218778,0.358826,0.229717,0.102096,0.000000,180.000000,153.000000,27.000000,12.000000,0.000000,0.000000,0.000000,0.000000,0.000000;
#CREDIT:MILEN;
#DISPLAYBPM:125.000000;
#NOTES:
0000
0000
0000
0000
,
0000
0000
0000
0000
,
0000
0000
0000
0000
,
0000
0000
0000
0000
,
0000
1000
0000
1000
,
0000
0001
0000
0001
,
0000
1000
0000
0001
,
0000
1000
0000
0001
,
0000
1000
1000
1000
,
0000
0001
0001
0001
,
0000
0100
0100
0100
,
0000
0010
0010
0010
,
0000
1000
0010
1000
,
0000
0001
0010
0001
,
0000
1000
0100
1000
,
0000
0001
0100
0001
,
0000
1001
0000
0100
,
0000
0020
0030
0100
,
0100
0100
0000
0010
,
0010
0010
0000
1000
,
0000
1001
0000
0010
,
0000
0200
0300
0010
,
0100
0010
0000
0100
,
0010
0100
0000
1000
,
0000
1001
0000
0010
,
0000
0200
0300
0010
,
1000
0100
0000
0010
,
0001
0100
0000
0010
,
0000
0110
0000
0000
,
0000
0000
0000
0000
,
0000
0110
0000
0000
,
0000
0000
0000
0000
,
0000
0110
1000
1000
,
1000
0110
0001
0001
,
0001
0110
1000
0110
,
0001
2002
0000
0000
,
3003
1000
0100
0010
,
0100
1000
0100
0010
,
0010
0001
0010
0100
,
0010
0001
0010
0100
,
0100
1000
0010
0001
,
0010
1000
0010
0001
,
0010
0100
1000
0100
,
0001
0100
1000
0200
,
0300
0110
0001
0110
,
1000
0110
0001
1000
,
0001
1001
0100
1001
,
0010
1001
0100
0010
,
0100
0101
0001
0011
,
0010
0110
0100
1100
,
1000
1010
0010
0110
,
0100
0101
0001
1001
,
1000
1020
0000
0000
,
0030
0200
0000
0000
,
0300
0001
1000
1001
,
0000
0010
0100
0010
,
0100
0120
0000
0000
,
0030
2000
0000
0000
,
3000
0002
0000
0000
,
0003
0200
0000
0000
,
0000
0300
0000
0000
;

//---------------dance-single - ----------------
#NOTEDATA:;
#CHARTNAME:;
#STEPSTYPE:dance-single;
#DESCRIPTION:;
#CHARTSTYLE:;
#DIFFICULTY:Medium;
#METER:9;
#RADARVALUES:0.334244,0.461348,0.416894,0.255241,0.136129,275.000000,226.000000,49.000000,30.000000,0.000000,0.000000,0.000000,0.000000,0.000000,0.334244,0.461348,0.416894,0.255241,0.136129,275.000000,226.000000,49.000000,30.000000,0.000000,0.000000,0.000000,0.000000,0.000000;
#CREDIT:MILEN;
#DISPLAYBPM:125.000000;
#NOTES:
0000
0000
0000
0000
,
0000
0000
0000
0000
,
0000
0000
0000
0000
,
0000
0000
0000
0000
,
0000
1000
1000
1000
,
1000
0001
0001
0001
,
0001
1000
1000
0001
,
0001
1000
0001
1000
,
0001
1001
0010
1001
,
0100
1001
0110
2002
,
3003
0110
1000
0110
,
0001
0110
1001
0220
,
0330
1010
0100
0011
,
0100
1010
0011
2002
,
3003
0101
0010
1100
,
0010
0101
1100
2002
,
3003
0001
0010
0100
,
1000
0020
0030
0100
,
0110
0001
1000
0001
,
0110
0100
0010
1000
,
0100
0010
0010
0001
,
0001
0100
0100
1000
,
1000
0010
0001
1000
,
0010
0100
0001
0010
,
0100
2000
3001
0001
,
0100
0100
0010
0010
,
1000
1000
0100
0010
,
0001
1000
0010
0100
,
0010
1010
0001
0200
,
0300
0101
1000
0020
,
0030
0011
1000
0200
,
0300
1100
0001
0020
,
0030
0011
0001
0101
,
0100
1100
1000
1010
,
0010
0110
1001
0110
,
1001
0220
0000
0000
,
0330
0000
0000
0010
0000
0010
1000
0000
0000
0100
0000
0100
,
0010
0000
0000
0001
0000
0001
0100
0000
0000
0010
0000
0010
,
1000
0000
0000
0001
0000
0001
0010
0000
0000
0100
0000
0100
,
1000
0000
0000
1000
0000
0010
0100
0000
0000
0001
0000
0100
,
0010
0000
0000
1000
0000
1000
0100
0000
0000
0010
0000
0010
,
0001
0000
0000
0001
0000
0001
0100
0000
0000
0100
0000
0100
,
1000
0000
0000
1000
0000
1000
0010
0000
0000
0010
0000
0010
,
0001
0000
0000
0001
0000
0010
0100
0000
0000
1000
0000
0100
,
0010
0120
0031
0210
,
1300
0120
0031
0210
,
1300
0120
1030
0210
,
0301
0120
1030
0210
,
0301
0000
0000
0110
0000
1000
0010
0000
0000
0110
0000
0001
,
0010
0000
0000
0110
0000
1000
0100
0000
0000
0110
0000
0001
,
0100
0000
0000
0110
0000
0001
1000
0000
1000
0010
0000
0010
,
0100
0000
0100
0001
0000
0001
1000
0000
1000
0100
0000
0100
,
0010
0000
0010
0002
0000
0000
0000
0000
0000
0000
0000
0000
,
0003
2000
0000
0000
,
3000
0000
0000
0010
0000
0000
0100
0000
0010
0100
0000
0000
,
0110
0000
0000
0001
0000
1000
0001
0000
0001
1000
0000
0000
,
0010
0000
0100
0002
0000
0000
0000
0000
0000
0000
0000
0000
,
0000
0023
0000
0000
,
0000
0230
0000
0000
,
0000
2000
0000
0000
,
0000
3300
0000
0000
;

//---------------dance-double - ----------------
#NOTEDATA:;
#CHARTNAME:;
#STEPSTYPE:dance-double;
#DESCRIPTION:;
#CHARTSTYLE:;
#DIFFICULTY:Easy;
#METER:5;
#RADARVALUES:0.211485,0.358826,0.204193,0.102096,0.000000,174.000000,150.000000,24.000000,12.000000,0.000000,0.000000,0.000000,0.000000,0.000000,0.211485,0.358826,0.204193,0.102096,0.000000,174.000000,150.000000,24.000000,12.000000,0.000000,0.000000,0.000000,0.000000,0.000000;
#CREDIT:MILEN;
#DISPLAYBPM:125.000000;
#NOTES:
// measure 0
00000000
00000000
00000000
00000000
,  // measure 1
00000000
00000000
00000000
00000000
,  // measure 2
00000000
00000000
00000000
00000000
,  // measure 3
00000000
00000000
00000000
00000000
,  // measure 4
00000000
00001000
00000000
00001000
,  // measure 5
00000000
00010000
00000000
00010000
,  // measure 6
00000000
00001000
00000000
00010000
,  // measure 7
00000000
00001000
00000000
00010000
,  // measure 8
00000000
00001000
00001000
00001000
,  // measure 9
00000000
00010000
00010000
00010000
,  // measure 10
00000000
00001000
00010000
00001000
,  // measure 11
00000000
00010000
00001000
00010000
,  // measure 12
00000000
00000100
00001000
00000010
,  // measure 13
00000000
00010000
00001000
00000100
,  // measure 14
00000000
00001000
00010000
00100000
,  // measure 15
00000000
01000000
00010000
00100000
,  // measure 16
00000000
00110000
00000000
00010000
,  // measure 17
00000000
20000000
30000000
00100000
,  // measure 18
00010000
00001000
00000000
00010000
,  // measure 19
00001000
00000010
00000000
00000100
,  // measure 20
00000000
00001100
00000000
00001000
,  // measure 21
00000000
00000002
00000003
00000100
,  // measure 22
00001000
00010000
00000000
00001000
,  // measure 23
00010000
00100000
00000000
01000000
,  // measure 24
00000000
01010000
00000000
00010000
,  // measure 25
00000000
20000000
30000000
01000000
,  // measure 26
00010000
00001000
00000000
00010000
,  // measure 27
00001000
00000100
00000000
00000010
,  // measure 28
00000000
00001010
00000000
00000000
,  // measure 29
00000000
00000000
00000000
00000000
,  // measure 30
00000000
00011000
00000000
00000000
,  // measure 31
00000000
00000000
00000000
00000000
,  // measure 32
00000000
00110000
10000000
01000000
,  // measure 33
00010000
00001100
00000001
00000010
,  // measure 34
00001000
00011000
01000000
00011000
,  // measure 35
00000010
00022000
00000000
00000000
,  // measure 36
00033000
00001000
00010000
00100000
,  // measure 37
00010000
00001000
00010000
00100000
,  // measure 38
00000000
00010000
00001000
00000010
,  // measure 39
00001000
00010000
00001000
00000010
,  // measure 40
00000000
00001000
00010000
01000000
,  // measure 41
00010000
00001000
00010000
01000000
,  // measure 42
00000000
00010000
00001000
00000100
,  // measure 43
00001000
00010000
00001000
00000200
,  // measure 44
00000300
00000101
00001000
00010000
,  // measure 45
00100000
10100000
10000000
00010000
,  // measure 46
10000000
11000000
00010000
00001000
,  // measure 47
00000010
00000011
00000001
00001000
,  // measure 48
00000001
00000101
00000100
00000110
,  // measure 49
00000010
00010010
00010000
00011000
,  // measure 50
00001000
00101000
00100000
01100000
,  // measure 51
01000000
11000000
10000000
10010000
,  // measure 52
00010000
02000000
00000000
00000000
,  // measure 53
03000000
00002000
00000000
00000000
,  // measure 54
00003000
00010000
00001000
00011000
,  // measure 55
00000000
00010000
00001000
00000100
,  // measure 56
00000010
00002010
00000000
00000000
,  // measure 57
00003000
00000002
00000000
00000000
,  // measure 58
00000003
00000200
00000000
00000000
,  // measure 59
00000300
00002000
00000000
00000000
,  // measure 60
00000000
00003000
00000000
00000000
;

//---------------dance-double - ----------------
#NOTEDATA:;
#CHARTNAME:;
#STEPSTYPE:dance-double;
#DESCRIPTION:;
#CHARTSTYLE:;
#DIFFICULTY:Medium;
#METER:9;
#RADARVALUES:0.334244,0.461348,0.416894,0.255241,0.136129,275.000000,226.000000,49.000000,30.000000,0.000000,0.000000,0.000000,0.000000,0.000000,0.334244,0.461348,0.416894,0.255241,0.136129,275.000000,226.000000,49.000000,30.000000,0.000000,0.000000,0.000000,0.000000,0.000000;
#CREDIT:MILEN;
#DISPLAYBPM:125.000000;
#NOTES:
// measure 0
00000000
00000000
00000000
00000000
,  // measure 1
00000000
00000000
00000000
00000000
,  // measure 2
00000000
00000000
00000000
00000000
,  // measure 3
00000000
00000000
00000000
00000000
,  // measure 4
00000000
00001000
00001000
00001000
,  // measure 5
00001000
00010000
00010000
00010000
,  // measure 6
00010000
00001000
00001000
00010000
,  // measure 7
00010000
00001000
00010000
00001000
,  // measure 8
00010000
00011000
00100000
00011000
,  // measure 9
00000100
00011000
00010010
02002000
,  // measure 10
03003000
00011000
00000010
00011000
,  // measure 11
01000000
00011000
00010100
00202000
,  // measure 12
00303000
00011000
01000000
10010000
,  // measure 13
01000000
00011000
00101000
00020020
,  // measure 14
00030030
00011000
00000010
00001001
,  // measure 15
00000010
00011000
00010100
02002000
,  // measure 16
03003000
00001000
00010000
00100000
,  // measure 17
10000000
02000000
03000000
00100000
,  // measure 18
00011000
00000010
00000100
00000010
,  // measure 19
00011000
01000000
00100000
01000000
,  // measure 20
00010000
00100000
00001000
00000010
,  // measure 21
00010000
01000000
00001000
00000100
,  // measure 22
00000001
00000010
00000100
00010000
,  // measure 23
00001000
00100000
01000000
10000000
,  // measure 24
00100000
00020000
00031000
00001000
,  // measure 25
00000100
00000001
00000010
00000100
,  // measure 26
00010000
00001000
00100000
01000000
,  // measure 27
10000000
00100000
00010000
00001000
,  // measure 28
00010000
00011000
01000000
00020000
,  // measure 29
00030000
00011000
00100000
00020000
,  // measure 30
00030000
00011000
00000010
00002000
,  // measure 31
00003000
00011000
00000100
00002000
,  // measure 32
00003000
00011000
00001000
00001100
,  // measure 33
00001000
00011000
00010000
01010000
,  // measure 34
00010000
00011000
00010010
00101000
,  // measure 35
00010100
02002000
00000000
00000000
,  // measure 36
03003000
00000000
00000000
01000000
00000000
00010000
00100000
00000000
00000000
00001000
00000000
00010000
,  // measure 37
00000100
00000000
00000000
00000010
00000000
00000001
00000100
00000000
00000000
00000010
00000000
00010000
,  // measure 38
00001000
00000000
00000000
00100000
00000000
01000000
10000000
00000000
00000000
00100000
00000000
01000000
,  // measure 39
00010000
00000000
00000000
00100000
00000000
01000000
00010000
00000000
00000000
00001000
00000000
00000100
,  // measure 40
00000001
00000000
00000000
00000010
00000000
00000100
00001000
00000000
00000000
00000010
00000000
00010000
,  // measure 41
00001000
00000000
00000000
00100000
00000000
01000000
10000000
00000000
00000000
00010000
00000000
01000000
,  // measure 42
00100000
00000000
00000000
00010000
00000000
00001000
00000100
00000000
00000000
00000001
00000000
00001000
,  // measure 43
00000010
00000000
00000000
00000100
00000000
00000001
00000010
00000000
00000000
00001000
00000000
00010000
,  // measure 44
01000000
21000000
30100000
00120000
,  // measure 45
00031000
00001200
00000301
00000021
,  // measure 46
00001030
00021000
01030000
21000000
,  // measure 47
30100000
00120000
00031000
00001020
,  // measure 48
00000031
00000000
00000000
00000101
00000000
00000100
00001000
00000000
00000000
00011000
00000000
00010000
,  // measure 49
01000000
00000000
00000000
11000000
00000000
10000000
00100000
00000000
00000000
00110000
00000000
00010000
,  // measure 50
00001000
00000000
00000000
00001010
00000000
00000010
00000001
00000000
00000100
00000010
00000000
00001000
,  // measure 51
00000100
00000000
00010000
00001000
00000000
00100000
01000000
00000000
10000000
00100000
00000000
01000000
,  // measure 52
00010000
00000000
00100000
00002000
00000000
00000000
00000000
00000000
00000000
00000000
00000000
00000000
,  // measure 53
00003000
00020000
00000000
00000000
,  // measure 54
00030000
00000000
00000000
00001000
00000000
00000000
00000100
00000000
00000001
00000010
00000000
00000000
,  // measure 55
00000011
00000000
00000000
00001000
00000000
00010000
00001000
00000000
00100000
01000000
00000000
00000000
,  // measure 56
10000000
00000000
00100000
00020000
00000000
00000000
00000000
00000000
00000000
00000000
00000000
00000000
,  // measure 57
00000000
00032000
00000000
00000000
,  // measure 58
00000000
00003020
00000000
00000000
,  // measure 59
00000000
00000002
00000000
00000000
,  // measure 60
00000000
00000033
00000000
00000000
;
