#VERSION:0.83;
#TITLE:Sleep-walking;
#SUBTITLE:;
#ARTIST:Dreamcatcher;
#TITLETRANSLIT:;
#SUBTITLETRANSLIT:;
#ARTISTTRANSLIT:;
#GENRE:XROSS;
#ORIGIN:;
#CREDIT:MUINELIM;
#BANNER:Sleep-walking.png;
#BACKGROUND:Sleep-walking-bg.png;
#PREVIEWVID:;
#JACKET:Sleep-walking-jacket.png;
#CDIMAGE:;
#DISCIMAGE:;
#LYRICSPATH:;
#CDTITLE:;
#MUSIC:Sleep-walking.ogg;
#OFFSET:0.000000;
#SAMPLESTART:99.309998;
#SAMPLELENGTH:10.959999;
#SELECTABLE:YES;
#DISPLAYBPM:87.000000:174.000000;
#BPMS:0.000=174.000,
160.000=87.000,
176.000=174.000;
#STOPS:;
#DELAYS:;
#WARPS:;
#TIMESIGNATURES:0.000=4=4;
#TICKCOUNTS:0.000=4;
#COMBOS:0.000=1;
#SPEEDS:0.000=1.000=0.000=0;
#SCROLLS:0.000=1.000;
#FAKES:;
#LABELS:0.000=Song Start;
#BGCHANGES:0.000=Sleep-walking.avi=1.000=0=0=1=Centered====,
99999=-nosongbg-=1.000=0=0=0 // don't automatically add -songbackground-
;
#KEYSOUNDS:;
#ATTACKS:
;

//---------------dance-single - ----------------
#NOTEDATA:;
#CHARTNAME:;
#STEPSTYPE:dance-single;
#DESCRIPTION:;
#CHARTSTYLE:;
#DIFFICULTY:Beginner;
#METER:4;
#RADARVALUES:0.124506,0.236879,0.023138,0.023138,0.000000,113.000000,110.000000,3.000000,3.000000,0.000000,0.000000,0.000000,0.000000,0.000000,0.124506,0.236879,0.023138,0.023138,0.000000,113.000000,110.000000,3.000000,3.000000,0.000000,0.000000,0.000000,0.000000,0.000000;
#CREDIT:MILEN;
#DISPLAYBPM:174.000000;
#NOTES:
0000
0000
0000
0000
,
0000
0000
0000
0000
,
0000
0000
0000
0000
,
0000
0000
0000
0000
,
0000
0000
0000
0000
,
0000
0000
0000
0000
,
0000
0000
0000
0000
,
0000
0000
0000
0000
,
1000
0000
1000
0000
,
0000
0000
0000
0000
,
0100
0000
0000
0000
,
0010
0000
0000
0000
,
0001
0000
0001
0000
,
0000
0000
0000
0000
,
0010
0000
0000
0000
,
0100
0000
0000
0000
,
1000
0000
1000
0000
,
0000
0000
0000
0000
,
0001
0000
0001
0000
,
0000
0000
0000
0000
,
0100
0000
0100
0000
,
0000
0000
0000
0000
,
0010
0000
0010
0000
,
0000
0000
0000
0000
,
1000
0000
0000
0000
,
0100
0000
0000
0000
,
1000
0000
0000
0000
,
0100
0000
0000
0000
,
0010
0000
0000
0000
,
0001
0000
0000
0000
,
0010
0000
0000
0000
,
0001
0000
0000
0000
,
0100
0000
0000
0000
,
0001
0000
0000
0000
,
0100
0000
0000
0000
,
0001
0000
0000
0000
,
1000
0000
0000
0000
,
0010
0000
0000
0000
,
1000
0000
0000
0000
,
0010
0000
0000
0000
,
1000
0000
0100
0100
,
0010
0000
0010
0010
,
0100
0000
0010
0000
,
0001
0000
1000
0000
,
1001
0000
0000
0000
,
1000
0000
0001
0000
,
1000
0000
0000
0000
,
0001
0000
1000
0000
,
0001
0000
0001
0000
,
0100
0000
1000
0000
,
0020
0000
0000
0000
,
0030
0000
0000
0000
,
0010
0000
0001
0000
,
0100
0000
0000
0000
,
0010
0000
1000
0000
,
0100
0000
0000
0000
,
1000
0000
0001
0000
,
0010
0000
0000
0000
,
0001
0000
1000
0000
,
0100
0000
0000
1001
,
1000
0000
0001
0000
,
1000
0000
0001
0000
,
0100
0000
0010
0000
,
0100
0000
0010
0000
,
1000
0000
0001
0000
,
0100
0000
0010
0000
,
1000
0000
0001
0000
,
0100
0100
0100
0000
,
1000
0000
0000
0000
,
0010
0000
0000
0000
,
0001
0000
0000
0000
,
0100
0000
0000
0000
,
1000
0000
0000
0000
,
0010
0000
0000
0000
,
0001
0000
0000
0000
,
0100
0000
0000
0000
,
1000
0000
1000
0000
,
0100
0000
0100
0000
,
0010
0000
0010
0000
,
0001
0000
0001
0000
,
1000
0000
1000
0000
,
0010
0000
0010
0000
,
0001
0000
0001
0000
,
0100
0000
0100
0000
,
2000
0000
0000
0000
,
3000
0000
0000
0000
,
0002
0000
0000
0000
,
0003
0000
0000
1001
;

//---------------dance-single - ----------------
#NOTEDATA:;
#CHARTNAME:;
#STEPSTYPE:dance-single;
#DESCRIPTION:;
#CHARTSTYLE:;
#DIFFICULTY:Easy;
#METER:5;
#RADARVALUES:0.212652,0.304558,0.061702,0.061702,0.000000,193.000000,185.000000,8.000000,8.000000,0.000000,0.000000,0.000000,0.000000,0.000000,0.212652,0.304558,0.061702,0.061702,0.000000,193.000000,185.000000,8.000000,8.000000,0.000000,0.000000,0.000000,0.000000,0.000000;
#CREDIT:MILEN;
#DISPLAYBPM:174.000000;
#NOTES:
0000
0000
0000
0000
,
0000
0000
0000
0000
,
0000
0000
0000
0000
,
0000
0000
0000
0000
,
0000
0000
0000
0000
,
0000
0000
0000
0000
,
0000
0000
0000
0000
,
0000
0000
0000
0000
,
1000
0000
1000
0000
,
0001
0000
0001
0000
,
1000
0000
0010
0000
,
0100
0000
0010
0000
,
0001
0000
0001
0000
,
1000
0000
1000
0000
,
0001
0000
0100
0000
,
0010
0000
0100
0000
,
1000
0000
1000
0000
,
0001
0000
0001
0000
,
0100
0000
0100
0000
,
0010
0000
0010
0000
,
1000
0000
0001
0000
,
0100
0000
0010
0000
,
1000
0000
0001
0000
,
0100
0000
0010
0010
,
0010
0000
1000
0000
,
0010
0000
1000
0000
,
0001
0000
0100
0000
,
0001
0000
0100
0000
,
0001
0000
1000
0000
,
0001
0000
1000
0000
,
0010
0000
0100
0000
,
0020
0030
0100
0100
,
0001
0000
1000
0000
,
0001
0000
1000
0000
,
0100
0000
0010
0000
,
0100
0000
0010
0000
,
0001
0000
0100
0000
,
0010
0000
1000
0000
,
0001
0000
0010
0000
,
0100
0000
1000
0000
,
1001
0000
0010
0100
,
0002
0003
0100
0010
,
2000
3000
0001
0001
,
0100
0100
1000
0010
,
1001
0000
0000
1000
,
0100
1000
0100
1000
,
1000
0000
0000
0001
,
0100
0001
0000
0010
,
0001
0000
0010
0000
,
0100
0000
1000
0000
,
0020
0030
0100
0010
,
0110
0000
0000
1001
,
1000
0000
0010
0000
,
1000
0000
0100
0000
,
0001
0000
0010
0000
,
0001
0000
0100
0000
,
1000
0000
0001
0000
,
0010
0000
1000
0000
,
0100
0000
1000
0000
,
0010
0000
0100
0010
,
0001
0000
1000
0000
,
0001
1000
0100
0000
,
1000
0000
0001
0000
,
1000
0001
0010
0000
,
0001
0000
1000
0000
,
0001
1000
0100
0001
,
1000
0000
0001
0000
,
1000
1000
0010
1001
,
0001
0000
0100
0000
,
0001
0010
0001
0000
,
1000
0000
0010
0000
,
1000
0100
1000
0000
,
0001
0000
1000
0000
,
0010
1000
0100
0000
,
1000
0000
0001
0000
,
0010
0001
0100
0000
,
0010
1000
0010
0000
,
0010
0001
0010
0000
,
0100
1000
0100
0000
,
0100
0001
0100
0000
,
0001
1000
0100
0000
,
1000
0001
0010
0000
,
0001
1000
0100
0001
,
1000
0000
0010
0000
,
2002
0000
0000
0000
,
3003
0000
0000
0000
,
0220
0000
0000
0000
,
0330
0000
0000
1001
;

//---------------dance-double - ----------------
#NOTEDATA:;
#CHARTNAME:;
#STEPSTYPE:dance-double;
#DESCRIPTION:;
#CHARTSTYLE:;
#DIFFICULTY:Easy;
#METER:5;
#RADARVALUES:0.211550,0.304558,0.077128,0.030851,0.000000,192.000000,182.000000,10.000000,4.000000,0.000000,0.000000,0.000000,0.000000,0.000000,0.211550,0.304558,0.077128,0.030851,0.000000,192.000000,182.000000,10.000000,4.000000,0.000000,0.000000,0.000000,0.000000,0.000000;
#CREDIT:MILEN;
#DISPLAYBPM:174.000000;
#NOTES:
00000000
00000000
00000000
00000000
,
00000000
00000000
00000000
00000000
,
00000000
00000000
00000000
00000000
,
00000000
00000000
00000000
00000000
,
00000000
00000000
00000000
00000000
,
00000000
00000000
00000000
00000000
,
00000000
00000000
00000000
00000000
,
00000000
00000000
00000000
00000000
,
00001000
00000000
00001000
00000000
,
00010000
00000000
00010000
00000000
,
01000000
00000000
10000000
00000000
,
00100000
00000000
00100000
00000000
,
00010000
00000000
00010000
00000000
,
00001000
00000000
00001000
00000000
,
00000100
00000000
00000001
00000000
,
00000010
00000000
00000010
00000000
,
00001000
00000000
00010000
00000000
,
00000100
00000000
00001000
00000000
,
00000010
00000000
00010000
00000000
,
00001000
00000000
00100000
00000000
,
00010000
00000000
01000000
00000000
,
00001000
00000000
00010000
00000000
,
00000100
00000000
00000010
00000000
,
00000001
00000000
00000100
00000100
,
00000100
00000000
00001000
00000000
,
00010000
00000000
00001000
00000000
,
00000100
00000000
00001000
00000000
,
00010000
00000000
01000000
00000000
,
00010000
00000000
00001000
00000000
,
00010000
00000000
01000000
00000000
,
10000000
00000000
00100000
00000000
,
00020000
00030000
00001000
00001000
,
00001000
00000000
00100000
00000000
,
01000000
00000000
10000000
00000000
,
00100000
00000000
00010000
00000000
,
00100000
00000000
00010000
00000000
,
00001000
00000000
00000100
00000000
,
00001000
00000000
00000100
00000000
,
00000001
00000000
00000010
00000000
,
00000100
00000000
00010000
00000000
,
00011000
00000000
00001000
01000000
,
00001000
00000000
00010000
00000100
,
00010000
00000000
00001000
00100000
,
00001000
00010000
00000010
00010000
,
00011000
00000000
00000000
00001000
,
00100000
01000000
10000000
10000000
,
00100000
00000000
00000000
00010000
,
00001000
00000010
00000000
00000100
,
00000010
00000000
00000001
00000000
,
00000100
00000000
00001000
00000000
,
00020000
00030000
00001000
00010000
,
00011000
00000000
00000000
00011000
,
00001000
00000000
00100000
00000000
,
01000000
00000000
00010000
00000000
,
00001000
00000000
00000010
00000000
,
00000100
00000000
00010000
00000000
,
00001000
00000000
00000010
00000000
,
00000001
00000000
00000100
00000000
,
00001000
00000000
00010000
00000000
,
00100000
00000000
10000000
01000000
,
11000000
00000000
10000000
00000000
,
00010000
01000000
01010000
00000000
,
00010000
00000000
00100000
00000000
,
00001000
00010000
00011000
00000000
,
00001000
00000000
00010000
00000000
,
00000100
00001000
00000100
00000010
,
00000110
00000000
00000100
00000000
,
00000010
00000001
00001000
00001001
,
00000100
00000000
00010000
00000000
,
00001000
00010000
00100000
00000000
,
10000000
00000000
01000000
00000000
,
00010000
00001000
00000010
00000000
,
00000100
00000000
00000010
00000000
,
00000001
00000100
00001000
00000000
,
00010000
00000000
00100000
00000000
,
10000000
01000000
00010000
00000000
,
00001000
00000000
00010000
00000000
,
00000100
00000010
00000001
00000000
,
00001000
00000000
00000010
00000000
,
00010000
00001000
00100000
00000000
,
01000000
00000000
10000000
00000000
,
00100000
00010000
00001000
00000000
,
00000010
00001000
00000010
00000001
,
00000100
00000000
00001000
00000000
,
00020000
00000000
00000000
00000000
,
00030000
00000000
00000000
00000000
,
00002000
00000000
00000000
00000000
,
00003000
00000000
00000000
00011000
;

//---------------dance-single - ----------------
#NOTEDATA:;
#CHARTNAME:;
#STEPSTYPE:dance-single;
#DESCRIPTION:;
#CHARTSTYLE:;
#DIFFICULTY:Medium;
#METER:9;
#RADARVALUES:0.393352,0.509043,0.254522,0.223671,0.015426,357.000000,324.000000,33.000000,29.000000,0.000000,0.000000,0.000000,0.000000,0.000000,0.393352,0.509043,0.254522,0.223671,0.015426,357.000000,324.000000,33.000000,29.000000,0.000000,0.000000,0.000000,0.000000,0.000000;
#CREDIT:MILEN;
#DISPLAYBPM:174.000000;
#NOTES:
0000
0000
0000
0000
,
0000
0000
0000
0000
,
0000
0000
0000
0000
,
0000
0000
0000
0000
,
0000
0000
0000
0000
,
0000
0000
0000
0000
,
0000
0000
0000
0000
,
0000
0000
0000
1001
,
1000
0100
1000
0000
,
0001
0100
0001
0000
,
1000
0010
1000
0000
,
0001
0010
0001
1001
,
1000
0010
0100
0000
,
0001
0100
0010
0000
,
1000
0100
0010
0000
,
0001
0010
0100
0110
,
0001
0100
1000
0000
,
1000
0100
0001
0000
,
0001
0100
1000
0100
,
0001
0010
0100
1001
,
1000
0010
0001
0000
,
0001
0010
1000
0000
,
1000
0010
0001
0010
,
1000
0100
0010
0110
,
0002
0000
0000
0000
1003
0100
1000
0000
,
0001
1000
1100
0001
,
2000
0000
0000
0000
0000
3001
0100
0001
,
0000
0010
0000
0100
0000
1000
0000
0010
,
0200
0000
0320
0000
0000
1030
0000
0001
,
0000
1000
0100
0000
1000
0000
0001
0000
,
0010
0001
1000
0010
,
0110
0000
0000
1001
0000
0220
0330
0000
,
0100
0000
0001
0000
0010
0001
0010
0000
,
0100
0000
1000
0000
0010
1000
0010
0200
,
0000
0000
0000
0301
0010
0000
0001
1000
,
0000
0100
0000
0010
0000
0002
0000
0000
,
2003
0000
0000
3020
0000
0000
0230
0000
,
0000
0000
0000
0000
0301
0000
0100
0010
,
1000
0000
0001
0000
1000
0000
0010
0100
,
0001
0000
1000
0000
1010
0000
0010
0100
,
0020
0000
0000
0000
0000
0000
0000
1030
0000
0000
1000
0000
0100
0000
0010
0000
,
0012
0000
0000
0000
0000
0000
0000
0103
0000
0000
0100
0000
0010
0000
1000
0000
,
1002
0000
0013
0100
0010
0100
1000
0001
,
0100
0000
0000
0000
0010
0000
0000
0020
0000
0000
0000
0000
1030
0000
0001
0000
,
1001
1000
1000
1000
,
1100
0001
0001
0001
,
0101
1000
1000
1000
,
1010
0001
0001
0001
,
0011
0100
0110
1000
,
1100
0001
1001
0010
,
0220
0000
0000
0000
0330
0000
0000
0000
1000
0000
0000
0001
0000
0000
1000
0000
,
2002
0000
0000
3003
0000
0010
0010
0000
,
1000
0000
0001
0100
0001
0100
0000
0001
,
0000
1000
0000
0100
0000
0010
0000
0001
,
0000
0100
0010
1000
0010
1000
0000
0001
,
0000
0010
0000
0100
0000
1000
0200
0000
,
0000
1300
0010
0100
0010
0100
0000
0001
,
0000
1000
0000
0010
0000
0100
0000
0001
,
0000
0010
0100
1000
0100
1000
0000
0001
,
0000
0100
0000
0010
0000
1000
1001
0000
,
0001
0020
0000
0000
1000
0000
0000
0000
,
0001
0000
0000
0100
0000
0000
1000
0000
,
0000
0100
0000
0000
0032
0000
0000
0000
,
0100
0000
0000
0010
0000
0000
1003
0000
,
1000
0200
0000
0000
0001
0000
0000
0000
,
1000
0000
0000
0010
0000
0000
0001
0000
,
0000
0010
0000
0000
1000
0000
0000
0000
,
0310
0000
0100
0000
0010
0100
0110
0000
,
1000
0010
1000
0000
0100
0000
0001
0000
,
0100
0010
0001
1001
,
0001
0100
0001
0000
0010
0000
1000
0000
,
0010
0100
1000
1001
,
0010
0001
0010
0000
0100
0000
0001
0000
,
0100
1000
0010
0110
,
0100
1000
0100
0000
0010
0000
0001
0000
,
0010
1000
0100
0110
,
0001
0100
0010
0000
0100
0000
0001
0000
,
1000
0010
0100
0000
0010
0000
1000
0000
,
0001
0010
0100
0000
0010
0000
0001
0000
,
1000
0100
0010
0000
0100
0000
1100
0000
,
0001
0100
1000
0000
0100
0000
0010
0000
,
1000
0010
0001
0000
0010
0000
0100
0000
,
1000
0100
0001
0000
0010
0000
0100
0000
,
0001
0010
1000
0000
0010
0000
0011
0000
,
0100
0000
0120
0000
0000
1000
0000
0001
,
0000
0000
0000
0000
0000
1000
0030
0000
,
0100
0000
0102
0000
0000
2003
0000
3020
,
0000
0000
0000
0130
0000
0000
2002
0000
,
3003
0000
0000
0000
;

//---------------dance-double - ----------------
#NOTEDATA:;
#CHARTNAME:;
#STEPSTYPE:dance-double;
#DESCRIPTION:;
#CHARTSTYLE:;
#DIFFICULTY:Medium;
#METER:9;
#RADARVALUES:0.371315,0.475107,0.177394,0.215958,0.015426,337.000000,314.000000,23.000000,28.000000,0.000000,0.000000,0.000000,0.000000,0.000000,0.371315,0.475107,0.177394,0.215958,0.015426,337.000000,314.000000,23.000000,28.000000,0.000000,0.000000,0.000000,0.000000,0.000000;
#CREDIT:MILEN;
#DISPLAYBPM:174.000000;
#NOTES:
00000000
00000000
00000000
00000000
,
00000000
00000000
00000000
00000000
,
00000000
00000000
00000000
00000000
,
00000000
00000000
00000000
00000000
,
00000000
00000000
00000000
00000000
,
00000000
00000000
00000000
00000000
,
00000000
00000000
00000000
00000000
,
00000000
00000000
00000000
00011000
,
00001000
00100000
00010000
00000000
,
01000000
00001000
00010000
00000000
,
00000010
00010000
00001000
00000000
,
00010000
00000100
00001000
00001001
,
00000001
00000100
00000010
00000000
,
00001000
00000010
00000100
00000000
,
00000001
00000010
00001000
00000000
,
00010000
01000000
00100000
10010000
,
10000000
00100000
01000000
00000000
,
00010000
01000000
00100000
00000000
,
10000000
01000000
00010000
00000000
,
00001000
00000010
00000100
00001001
,
00000001
00000100
00001000
00000000
,
00010000
00100000
10000000
00000000
,
10000000
01000000
00010000
00000000
,
00001000
00000010
00000001
00001001
,
00000020
00000000
00000000
00000000
00000130
00000001
00000100
00000000
,
00001000
00010000
00100000
10000000
,
02000000
00000000
00000000
00000000
00000000
03100000
00010000
00100000
,
00000000
00001000
00000000
00010000
00000000
00000100
00000000
00000010
,
00000002
00000000
00002003
00000000
00000000
00003001
00000000
00000100
,
00000000
00001000
00010000
00000000
00001000
00000000
00100000
00000000
,
00010000
01000000
00100000
10000000
,
11000000
00000000
00000000
01010000
00000000
00022000
00033000
00000000
,
00001000
00000000
00100000
00000000
01000000
00100000
01000000
00000000
,
10000000
00000000
00100000
00000000
00010000
00001000
00010000
00000020
,
00000000
00000000
00000000
00000130
00000001
00000000
00000010
00000001
,
00000000
00000100
00000000
00001000
00000000
00020000
00000000
00000000
,
00230000
00000000
00000000
20300000
00000000
00000000
32000000
00000000
,
00000000
00000000
00000000
00000000
03010000
00000000
00010000
00001000
,
00100000
00000000
00001000
00000000
00010000
00000000
00001000
00010000
,
00000010
00000000
00010000
00000000
00011000
00000000
00001000
00010000
,
00002000
00000000
00000000
00000000
00000000
00000000
00003000
00100000
00000000
00000000
00010000
00000000
01000000
00000000
00100000
00000000
,
20000000
00000000
00000000
00000000
00000000
00000000
00000000
31000000
00000000
00000000
00010000
00000000
00001000
00000000
00000100
00000000
,
00000002
00000000
00001003
00000010
00001000
00000010
00010000
00001000
,
00100000
00000000
00000000
00000000
01000000
00000000
00000000
02000000
00000000
00000000
00000000
00000000
13000000
00000000
00010000
00000000
,
10010000
10000000
01000000
00010000
,
00011000
00001000
00000010
00000001
,
00001001
00000001
00000100
00001000
,
00011000
00010000
01000000
10000000
,
10010000
00100000
00101000
00001000
,
00011000
00010000
00010010
00000010
,
00002002
00000000
00000000
00000000
00003003
00000000
00000000
00000000
00000100
00000000
00000000
00000100
00000000
00000000
00000100
00000000
,
00000020
00000000
00000000
00000000
00000030
00001000
00001000
00000000
,
00000001
00000000
00000100
00001000
00000000
00010000
00000000
00001000
,
00000000
00100000
00000000
00010000
00000000
01000000
00000000
00100000
,
00000000
10000000
00010000
00000000
00010000
01000000
00000000
00001000
,
00000000
00010000
00000000
00000100
00000000
00001000
00000002
00000000
,
00000000
00000103
00000010
00000000
00000010
00001000
00000000
00000100
,
00000000
00010000
00000000
00001000
00000000
00100000
00000000
01000000
,
00000000
10000000
00100000
00000000
00100000
01000000
00000000
00010000
,
00000000
00100000
00000000
01000000
00000000
00010000
00011000
00000000
,
00000100
00002000
00000000
00000000
00000010
00000000
00000000
00000000
,
00010000
00000000
00000000
00000010
00000000
00000000
00000100
00000000
,
00000000
00000010
00000000
00000000
00003002
00000000
00000000
00000000
,
00000203
00000000
00000000
00002300
00000000
00000000
00013000
00000000
,
00010000
00200000
00000000
00000000
10000000
00000000
00000000
00000000
,
01000000
00000000
00000000
00010000
00000000
00000000
01000000
00000000
,
00000000
10000000
00000000
00000000
01000000
00000000
00300000
00000000
,
10000000
00000000
01000000
00000000
00010000
00001000
00011000
00000000
,
00000100
00001000
00000100
00000000
00000010
00000000
00000001
00000000
,
00000100
00001000
00010000
00001000
,
01000000
00010000
01000000
00000000
00100000
00000000
10000000
00000000
,
01000000
00010000
00001000
00010000
,
00000010
00001000
00000010
00000000
00000100
00000000
00000001
00000000
,
00000010
00001000
00010000
00001000
,
00100000
00010000
00100000
00000000
01000000
00000000
10000000
00000000
,
00100000
00010000
00001000
00010000
,
00000100
00001000
00000001
00000000
00001000
00000000
00000010
00000000
,
00010000
00001000
00100000
01000000
,
00100000
00010000
10000000
00000000
00010000
00000000
01000000
00000000
,
00001000
00010000
00000100
00000010
,
00000001
00000100
00001000
00000000
00010000
00000000
00001000
00000000
,
00100000
01000000
10000000
00010000
,
10000000
00100000
00010000
00000000
00001000
00000000
00010000
00000000
,
00000100
00000010
00000001
00000100
,
00001000
00000000
00021000
00000000
00000000
00100000
00000000
00001000
,
00000000
00000000
00000000
00000000
00000000
00000010
00030000
00000000
,
00001000
00000000
02001000
00000000
00000000
00100000
00000000
10000000
,
00000000
00000000
00000000
00100000
03000000
00000000
20020000
00000000
,
30030000
00000000
00000000
00000000
;

//---------------dance-single - ----------------
#NOTEDATA:;
#CHARTNAME:;
#STEPSTYPE:dance-single;
#DESCRIPTION:;
#CHARTSTYLE:;
#DIFFICULTY:Hard;
#METER:13;
#RADARVALUES:0.589476,0.712660,0.424203,0.223671,0.192819,535.000000,480.000000,55.000000,29.000000,0.000000,0.000000,0.000000,0.000000,0.000000,0.589476,0.712660,0.424203,0.223671,0.192819,535.000000,480.000000,55.000000,29.000000,0.000000,0.000000,0.000000,0.000000,0.000000;
#CREDIT:MILEN;
#DISPLAYBPM:174.000000;
#NOTES:
// measure 0
0000
0000
0000
0000
,  // measure 1
0000
0000
0000
0000
,  // measure 2
0000
0000
0000
0000
,  // measure 3
0000
0000
0000
0000
,  // measure 4
0000
0000
0000
0000
,  // measure 5
0000
0000
0000
0000
,  // measure 6
0000
0000
0000
0000
,  // measure 7
0000
0000
0000
0000
0000
0100
1001
0000
,  // measure 8
1000
0010
1000
0000
0010
0000
0100
0000
,  // measure 9
0001
0100
0001
0000
0100
0000
0010
0000
,  // measure 10
1000
0100
1000
0000
0100
0000
0010
0000
,  // measure 11
0001
0010
0001
0000
0101
0000
1001
0000
,  // measure 12
1000
0010
0100
0000
0001
0000
1000
0000
,  // measure 13
0001
0100
0010
0000
1000
0000
0001
0000
,  // measure 14
1000
0100
0010
0000
0001
0000
1000
0000
,  // measure 15
0001
0010
0100
0000
1100
0000
0110
0000
,  // measure 16
0010
0001
0010
0100
1000
0000
0010
0000
,  // measure 17
0100
0001
1000
0000
0100
0000
0001
0000
,  // measure 18
0100
0010
0001
0100
1000
0000
0100
0000
,  // measure 19
0010
1000
0100
0000
0110
0000
0011
0000
,  // measure 20
0001
1000
0010
0100
0001
0000
0010
0000
,  // measure 21
1000
0010
0100
0000
1000
0000
0010
0000
,  // measure 22
0100
0001
0010
0100
0001
0000
0100
0000
,  // measure 23
1000
0001
0010
0000
0011
0000
0110
0000
,  // measure 24
1001
0000
1000
0010
0100
0001
1000
0020
,  // measure 25
0000
0230
0000
0302
0000
1000
1003
0000
,  // measure 26
1010
0000
0010
0000
0100
0001
1000
0200
,  // measure 27
0000
0320
0000
0032
0000
2003
0000
0010
,  // measure 28
3010
0000
0110
0000
0100
0001
0010
0100
,  // measure 29
0000
0000
0120
0000
1030
0000
0010
0001
,  // measure 30
0000
1200
0000
0000
0310
0100
0010
0001
,  // measure 31
0101
0000
0000
1100
0000
0011
0000
0000
,  // measure 32
1001
1000
0010
0100
0001
1000
0100
0010
,  // measure 33
0000
0011
0000
0101
0000
0100
0010
2000
,  // measure 34
0000
0000
0000
3001
0010
0100
1000
0010
,  // measure 35
0000
0110
0000
1100
0000
0011
0000
0100
,  // measure 36
0101
0000
0000
1010
0000
0000
1001
0000
,  // measure 37
0001
0000
1000
0000
0010
0100
0001
0010
,  // measure 38
0000
0012
0000
0000
1003
0010
0100
0010
,  // measure 39
1000
0001
0100
0010
2000
0000
3100
0100
,  // measure 40
0020
0000
0000
0000
0000
0000
0000
0031
0000
0001
0100
0010
1000
0000
0100
2000
,  // measure 41
0000
0000
0000
0000
0000
0000
0000
3010
0000
0010
0100
0001
0010
0000
0001
0200
,  // measure 42
0000
0000
0000
0000
0301
1000
0000
1100
0000
0010
0000
0011
0000
1000
0000
1010
,  // measure 43
0000
0000
0000
0000
0101
0000
0000
2002
0000
0000
3003
0000
0010
0000
0010
0000
,  // measure 44
0110
0000
0100
0000
0001
0000
1000
0010
,  // measure 45
0100
0010
1000
0010
0100
0000
0010
1000
,  // measure 46
1001
0000
0001
0000
1000
0100
0010
0100
,  // measure 47
1000
0100
0010
0000
0001
0100
0110
0000
,  // measure 48
1000
1000
0010
0010
,  // measure 49
0001
0001
0100
0100
,  // measure 50
1000
0010
0000
0000
0010
0100
0000
0000
0100
0001
0000
0000
0001
1000
0000
0000
,  // measure 51
2002
0000
0000
3003
0000
0100
0110
0000
,  // measure 52
0010
0000
1000
0000
0100
0000
0010
0000
0001
0000
0100
0000
0000
0000
0010
1000
,  // measure 53
0000
0000
0010
0100
0000
0000
0001
0100
0000
0000
0001
0010
0000
0000
0011
0000
,  // measure 54
0000
0000
0010
0000
0100
0000
1000
0000
0010
0000
0100
0000
0000
0000
0001
1000
,  // measure 55
0000
0000
0001
0100
0000
0000
0010
0100
0000
0000
0010
1000
0020
0000
0000
0000
,  // measure 56
0130
0000
0001
0000
1000
0000
0100
0000
0010
0000
0001
0000
0000
0000
0100
0001
,  // measure 57
0000
0000
1000
0010
0000
0000
0100
0001
0000
0000
0010
0100
0000
0000
1100
0000
,  // measure 58
0000
1000
0010
0100
0001
2000
0000
3010
,  // measure 59
0110
0100
0001
1001
1000
0010
0100
0000
,  // measure 60
0001
0010
0100
1000
0110
0000
0010
0001
,  // measure 61
0100
0000
1000
0100
0000
0001
0100
0000
,  // measure 62
1000
0100
0010
1000
0101
0000
0001
0010
,  // measure 63
1000
0000
0010
0001
0000
0010
0110
0000
,  // measure 64
0001
0010
0100
0001
1010
0000
1000
0100
,  // measure 65
0001
0000
0100
1000
0000
0100
0110
0000
,  // measure 66
0001
1000
0010
0100
1001
0000
0001
0000
,  // measure 67
1000
0010
1000
0000
0001
0010
0001
0000
0100
0000
0000
0010
0200
0000
0000
0000
,  // measure 68
0301
0000
1000
0000
0100
0000
0010
0000
0001
0000
0100
0000
0010
0000
1000
0001
,  // measure 69
0000
0000
0010
0100
0000
0000
1000
0010
0000
0000
0100
0001
0000
0000
0011
0000
,  // measure 70
0010
0000
0100
0000
0001
0000
0100
0000
1000
0000
0010
0000
0100
0000
0001
0010
,  // measure 71
0000
0000
0100
1000
0000
0000
0001
0100
0000
0000
0000
0010
1000
0000
0100
0000
,  // measure 72
1100
0000
1000
0000
0010
0000
0100
0000
1000
0000
0100
0000
0001
0000
0010
0100
,  // measure 73
0000
0000
1000
0010
0000
0000
0100
0001
0000
0000
0010
0100
0000
0000
0110
0000
,  // measure 74
0010
0000
0001
0000
0100
0000
1000
0000
0100
0000
0010
0000
1000
0000
0100
0010
,  // measure 75
0000
0000
0001
0100
0000
0000
0010
1000
0010
0000
0000
0100
0001
0000
0000
0000
,  // measure 76
0011
0010
0100
0010
0001
0010
0100
0001
,  // measure 77
0100
1000
0010
0100
0001
1000
0100
0000
,  // measure 78
1100
0100
0010
0100
1000
0100
0010
1000
,  // measure 79
0010
0001
0100
0010
1000
0001
0010
0000
,  // measure 80
0110
0100
1000
0100
0001
0100
0010
0001
,  // measure 81
0100
1000
0001
0010
0100
0010
1000
0000
,  // measure 82
1001
0001
0100
1000
0100
0010
0001
0010
,  // measure 83
1000
0100
0001
0100
0010
0001
2000
0000
,  // measure 84
3020
0000
0230
0000
0000
0001
0000
1000
,  // measure 85
0000
0000
0000
0000
0000
0010
0000
0000
,  // measure 86
0302
0000
0023
0000
0000
1000
0000
0001
,  // measure 87
0000
0000
0000
0100
0030
0000
2002
0000
,  // measure 88
3003
0000
0000
0000
;

//---------------dance-double - ----------------
#NOTEDATA:;
#CHARTNAME:;
#STEPSTYPE:dance-double;
#DESCRIPTION:;
#CHARTSTYLE:;
#DIFFICULTY:Hard;
#METER:13;
#RADARVALUES:0.585069,0.644788,0.370213,0.215958,0.192819,531.000000,483.000000,48.000000,28.000000,0.000000,0.000000,0.000000,0.000000,0.000000,0.585069,0.644788,0.370213,0.215958,0.192819,531.000000,483.000000,48.000000,28.000000,0.000000,0.000000,0.000000,0.000000,0.000000;
#CREDIT:MILEN;
#DISPLAYBPM:174.000000;
#NOTES:
00000000
00000000
00000000
00000000
,
00000000
00000000
00000000
00000000
,
00000000
00000000
00000000
00000000
,
00000000
00000000
00000000
00000000
,
00000000
00000000
00000000
00000000
,
00000000
00000000
00000000
00000000
,
00000000
00000000
00000000
00000000
,
00000000
00000000
00000000
00000000
00000000
00001000
00011000
00000000
,
00010000
00000100
00001000
00000000
00000010
00000000
00010000
00000000
,
00001000
00100000
00010000
00000000
01000000
00000000
00001000
00000000
,
00010000
00000010
00001000
00000000
00000100
00000000
00010000
00000000
,
00001000
01000000
00010000
00000000
00110000
00000000
10010000
00000000
,
10000000
01000000
00010000
00000000
00001000
00000000
00010000
00000000
,
00001000
00000010
00000001
00000000
00000100
00000000
00001000
00000000
,
00000001
00000100
00001000
00000000
00010000
00000000
00001000
00000000
,
00010000
00100000
10000000
00000000
11000000
00000000
01100000
00000000
,
00100000
00010000
01000000
00001000
00010000
00000000
00100000
00000000
,
00010000
00001000
00000010
00000000
00000001
00000000
00001000
00000000
,
00000010
00000100
00001000
00000100
00000001
00000000
00000010
00000000
,
00001000
00010000
00100000
00000000
10100000
00000000
10010000
00000000
,
00010000
01000000
00001000
00010000
00100000
00000000
00001000
00000000
,
00000010
00000100
00000001
00000000
00001000
00000000
00000100
00000000
,
00000001
00000100
00000010
00000001
00000100
00000000
00001000
00000000
,
00010000
00100000
10000000
00000000
11000000
00000000
00110000
00000000
,
00011000
00000000
00001000
00100000
00010000
01000000
10000000
00020000
,
00000000
00230000
00000000
02300000
00000000
00001000
03001000
00000000
,
00011000
00000000
00010000
00000000
00000100
00001000
00000010
00000200
,
00000000
00000302
00000000
00002003
00000000
00003020
00000000
00000100
,
00000130
00000000
00001001
00000000
00000001
00001000
00000100
00000010
,
00000000
00000000
00012000
00000000
00103000
00000000
01000000
10000000
,
00000000
10200000
00000000
00000000
00310000
00001000
00010000
00000100
,
00000110
00000000
00000000
00000011
00000000
00001100
00000000
00000000
,
00011000
00001000
00100000
01000000
10000000
01000000
00010000
00001000
,
00000000
00101000
00000000
00010010
00000000
00010000
00001000
00000200
,
00000000
00000000
00000000
00000301
00000100
00000010
00001000
00000100
,
00000000
00000110
00000000
00001100
00000000
00010100
00000000
00001000
,
01001000
00000000
00000000
01100000
00000000
00000000
10100000
00000000
,
10000000
00000000
00010000
00000000
00100000
01000000
00010000
00001000
,
00000000
00021000
00000000
00000000
00030010
00000100
00000001
00000100
,
00001000
00010000
00100000
10000000
02000000
00000000
03010000
00001000
,
00021000
00000000
00000000
00000000
00000000
00000000
00000000
00030100
00000000
00001000
00000100
00000010
00000001
00000000
00000100
00002000
,
00000000
00000000
00000000
00000000
00000000
00000000
00000000
00013000
00000000
00001000
00100000
01000000
10000000
00000000
00100000
00020000
,
00000000
00000000
00000000
00000000
00031000
01000000
00000000
00010000
00000000
00000100
00000000
00001000
00000000
00010000
00000000
00100000
,
00000000
00000000
00000000
00000000
10100000
00000000
00000000
22000000
00000000
00000000
33000000
00000000
00010000
00000000
00001000
00000000
,
00011000
00000000
00000100
00000000
00000010
00000000
00000001
00000100
,
00001000
00000100
00000001
00000100
00001000
00000000
00010000
00001000
,
00011000
00000000
00010000
00000000
00100000
10000000
01000000
10000000
,
00100000
10000000
01000000
00000000
00010000
00001000
00011000
00000000
,
00000100
00000100
00000010
00000010
,
00000001
00000001
00000100
00000100
,
00001000
00010000
00000000
00000000
01000000
00010000
00000000
00000000
00001000
00010000
00000000
00000000
00001000
00000100
00000000
00000000
,
00022000
00000000
00000000
00033000
00000000
00011000
00011000
00000000
,
00001000
00000000
00100000
00000000
01000000
00000000
10000000
00000000
00100000
00000000
00010000
00000000
00000000
00000000
00001000
00010000
,
00000000
00000000
00000100
00001000
00000000
00000000
00000100
00000010
00000000
00000000
00000001
00000100
00000000
00000000
00001010
00000000
,
00000000
00000000
00001000
00000000
00000100
00000000
00000010
00000000
00001000
00000000
00010000
00000000
00000000
00000000
00100000
10000000
,
00000000
00000000
01000000
00100000
00000000
00000000
00010000
01000000
00000000
00000000
00001000
00010000
00002000
00000000
00000000
00000000
,
00003100
00000000
00000001
00000000
00000010
00000000
00000100
00000000
00000010
00000000
00000001
00000000
00000000
00000000
00000100
00001000
,
00000000
00000000
00010000
01000000
00000000
00000000
10000000
00100000
00000000
00000000
01000000
00100000
00000000
00000000
10010000
00000000
,
00000000
00010000
01000000
00001000
00010000
00000200
00000000
00001300
,
00000010
00000001
00000010
00001000
00000100
00000010
00000110
00000000
,
00000001
00000100
00001000
00010000
00011000
00000000
00001000
00100000
,
01000000
00000000
10000000
00100000
00000000
00010000
00001000
00000000
,
00100000
01000000
00010000
00001000
00001100
00000000
00000100
00000001
,
00000010
00000000
00000100
00000001
00000000
00000100
00000010
00000000
,
00000001
00000100
00001000
00010000
01010000
00000000
10000000
00100000
,
01000000
00000000
10000000
01000000
00000000
00010000
00110000
00000000
,
00100000
01000000
10000000
00100000
00011000
00000000
00010000
00000000
,
00000100
00001000
00000100
00000000
00000010
00000001
00000010
00000000
00001000
00000000
00000000
00010000
00002000
00000000
00000000
00000000
,
00103000
00000000
00010000
00000000
00100000
00000000
01000000
00000000
10000000
00000000
00100000
00000000
00010000
00000000
00001000
00100000
,
00000000
00000000
00010000
01000000
00000000
00000000
00001000
00010000
00000000
00000000
00000100
00000010
00000000
00000000
00000011
00000000
,
00000001
00000000
00001000
00000000
00000010
00000000
00000100
00000000
00001000
00000000
00000100
00000000
00000001
00000000
00000010
00000100
,
00000000
00000000
00001000
00000010
00000000
00000000
00010000
00001000
00000000
00000000
00000000
00100000
01000000
00000000
10000000
00000000
,
10100000
00000000
00100000
00000000
01000000
00000000
00010000
00000000
00100000
00000000
01000000
00000000
10000000
00000000
00100000
00010000
,
00000000
00000000
00001000
00010000
00000000
00000000
00000100
00000010
00000000
00000000
00000001
00000100
00000000
00000000
00001010
00000000
,
00001000
00000000
00000100
00000000
00000001
00000000
00000100
00000000
00000010
00000000
00000001
00000000
00000100
00000000
00001000
00010000
,
00000000
00000000
00100000
10000000
00000000
00000000
01000000
00100000
01000000
00000000
00000000
00010000
00001000
00000000
00000000
00000000
,
00011000
00010000
00000100
00001000
00000010
00000100
00000001
00001000
,
00000100
00000010
00000001
00001000
00000010
00010000
00001000
00100000
,
01000000
10000000
00100000
01000000
00010000
10000000
01000000
00100000
,
00001000
00010000
00000100
00001000
00000010
00000100
00000001
00001000
,
00000100
00000010
00001000
00000010
00000001
00000100
00001000
00010000
,
01000000
10000000
00100000
00010000
00100000
01000000
00010000
00100000
,
10000000
00100000
01000000
00010000
00001000
00000010
00001000
00010000
,
00100000
00010000
00001000
00000100
00000001
00000010
00002000
00000000
,
00023000
00000000
00230000
00000000
00000000
10000000
00000000
01000000
,
00000000
00000000
00000000
00000000
00000000
00010000
00000000
00000000
,
02300000
00000000
03002000
00000000
00000000
00010000
00000000
00000010
,
00000000
00000000
00000000
00000100
00000000
00000000
00020000
00000000
,
00033000
00000000
00000000
00000000
;
