#VERSION:0.83;
#TITLE:Shut Down;
#SUBTITLE:;
#ARTIST:BLACKPINK;
#TITLETRANSLIT:;
#SUBTITLETRANSLIT:;
#ARTISTTRANSLIT:;
#GENRE:K-POP;
#ORIGIN:;
#CREDIT:MILEN;
#BANNER:Shut Down.png;
#BACKGROUND:Shut Down-bg.png;
#PREVIEWVID:;
#JACKET:Shut Down-jacket.png;
#CDIMAGE:;
#DISCIMAGE:;
#LYRICSPATH:;
#CDTITLE:;
#MUSIC:Shut Down.ogg;
#OFFSET:-0.409000;
#SAMPLESTART:47.863544;
#SAMPLELENGTH:10.909092;
#SELECTABLE:YES;
#BPMS:0.000=110.000;
#STOPS:134.500=0.545;
#DELAYS:;
#WARPS:;
#TIMESIGNATURES:0.000=4=4;
#TICKCOUNTS:0.000=4;
#COMBOS:0.000=1;
#SPEEDS:0.000=1.000=0.000=0;
#SCROLLS:0.000=1.000;
#FAKES:;
#LABELS:0.000=Song Start;
#BGCHANGES:0.000=Shut Down.avi=1.000=1=0=0=StretchNoLoop==CrossFade==,
99999=-nosongbg-=1.000=0=0=0 // don't automatically add -songbackground-
;
#KEYSOUNDS:;
#ATTACKS:
;

//---------------dance-single - ----------------
#NOTEDATA:;
#CHARTNAME:;
#STEPSTYPE:dance-single;
#DESCRIPTION:;
#CHARTSTYLE:;
#DIFFICULTY:Beginner;
#METER:1;
#RADARVALUES:0.073257,0.087817,0.000000,0.008547,0.000000,60.000000,60.000000,0.000000,1.000000,0.000000,0.000000,0.000000,0.000000,0.000000,0.073257,0.087817,0.000000,0.008547,0.000000,60.000000,60.000000,0.000000,1.000000,0.000000,0.000000,0.000000,0.000000,0.000000;
#CREDIT:MILEN;
#DISPLAYBPM:110.000000;
#NOTES:
0000
0000
0000
0000
,
0000
0000
0000
0000
,
0000
0000
0000
0000
,
0000
0000
0000
0000
,
1000
0000
0000
1000
,
0000
0000
0001
0000
,
0000
0001
0000
0000
,
1000
0000
0000
0001
,
0000
0000
1000
0000
,
0000
0001
0000
0000
,
0100
0000
0000
0100
,
0000
0000
0010
0000
,
0000
0010
0000
0000
,
0100
0000
0000
0010
,
0000
0000
0100
0000
,
0000
0010
0000
0000
,
1000
0000
0000
0000
,
0000
0000
0001
0000
,
0000
0000
0000
0000
,
0100
0000
0000
0000
,
0000
0000
0010
0000
,
0000
0000
0000
0000
,
1000
0000
0000
0001
,
0000
0000
1000
0000
,
0000
0001
0000
0000
,
0100
0000
0000
0100
,
0000
0000
0010
0000
,
0000
0010
0000
0000
,
0100
0000
0000
0010
,
0000
0000
0100
0000
,
0000
0010
0000
0000
,
1000
0000
0000
1000
,
0000
0000
0001
0000
,
0000
0001
0000
0100
,
0000
0000
0010
0000
,
0000
1000
0000
0000
,
0001
0000
0000
0010
,
0000
0000
0100
0000
,
0000
1000
0000
0000
,
0010
0000
0000
0100
,
0000
0000
0100
0000
,
0000
0001
0000
0000
,
0001
0000
0000
1000
,
0000
0000
0010
0000
,
0000
1000
0000
0000
,
0010
0000
0000
0100
,
0000
0000
0001
0000
,
0000
0100
0000
0000
,
0001
0000
0000
1000
,
0000
0000
1000
0000
,
0000
0010
0000
0000
,
0020
0000
0000
0030
0000
0000
0000
0000
;

//---------------dance-single - ----------------
#NOTEDATA:;
#CHARTNAME:;
#STEPSTYPE:dance-single;
#DESCRIPTION:;
#CHARTSTYLE:;
#DIFFICULTY:Easy;
#METER:4;
#RADARVALUES:0.150177,0.153679,0.000000,0.042733,0.000000,123.000000,123.000000,0.000000,5.000000,0.000000,0.000000,0.000000,0.000000,0.000000,0.150177,0.153679,0.000000,0.042733,0.000000,123.000000,123.000000,0.000000,5.000000,0.000000,0.000000,0.000000,0.000000,0.000000;
#CREDIT:MILEN;
#DISPLAYBPM:110.000000;
#NOTES:
0000
0000
0000
0000
,
0000
0000
0000
0000
,
0000
0000
0000
0000
,
0000
0000
0000
0000
,
1000
0000
0000
1000
0000
0000
0100
0000
,
0000
0100
0000
0000
0010
0000
0000
0010
,
0000
0000
0001
0000
0000
0001
0000
0000
,
0100
0000
0000
0100
0000
0000
0010
0000
,
0000
0010
0000
0000
1000
0000
0000
1000
,
0000
0000
0001
0000
0000
0001
0000
0000
,
0100
0000
0000
0010
0000
0000
1000
0000
,
0000
0001
0000
0000
0010
0000
0000
0100
,
0000
0000
1000
0000
0000
0010
0000
0000
,
0100
0000
0000
0001
0000
0000
1000
0000
,
0000
0100
0000
0000
0010
0000
0000
0001
,
0000
0000
1000
0000
0000
0010
0000
0000
,
0100
0000
0000
0100
0000
0000
0200
0000
,
0000
0310
0000
0000
0010
0000
0000
0010
,
0000
0000
0020
0000
0000
1030
0000
0000
,
1000
0000
0000
1000
0000
0000
2000
0000
,
0000
3001
0000
0000
0001
0000
0000
0001
,
0000
0000
0002
0000
0000
0103
0000
0100
,
0100
0000
0000
0010
0000
0000
1000
0000
,
0000
0000
0000
0000
0010
0000
0000
0100
,
0000
0001
0000
0000
,
0100
0000
0000
0100
0000
0000
0010
0000
,
0000
0010
0000
0000
0100
0000
0000
0010
,
0000
0000
0100
0100
0000
0000
0000
0000
,
0010
0000
0000
1000
0000
0000
0001
0000
,
0000
0000
0000
0000
0100
0000
0000
0001
,
0000
1000
0000
0000
,
0010
0000
0000
0010
0000
0000
0100
0000
,
0000
0100
0000
0000
0010
0000
0000
1000
,
0000
0000
0001
0000
0000
0100
0100
0000
,
0000
0100
0000
0000
0100
0000
0000
0000
,
0000
0000
1000
0000
0000
1000
0000
0000
,
1000
0000
0000
0010
,
0000
0010
0000
0000
0010
0000
0000
0000
,
0000
0000
0001
0000
0000
0001
0000
0000
,
0001
0000
0000
0100
0000
0010
0010
0000
,
0000
1000
0000
0000
0001
0000
0000
0100
,
0000
0000
0010
0000
0000
1000
0000
0000
,
0001
0000
0000
0100
0000
0000
1000
0000
,
0000
0010
0000
0000
0001
0000
0000
0100
,
0000
0000
1000
0000
0000
0010
0000
0000
,
0100
0100
0000
0000
0000
0000
1000
0000
,
0000
0010
0000
0000
0100
0000
0000
0001
,
0000
0000
1000
0000
0000
0010
0000
0000
,
0100
0000
0000
0001
0000
0000
1000
0000
,
0000
0010
0000
0000
0001
0000
0000
0100
,
0000
0000
1000
0000
0000
0001
0000
0000
,
0200
0000
0000
0310
0000
0000
0000
0000
;

//---------------dance-single - ----------------
#NOTEDATA:;
#CHARTNAME:;
#STEPSTYPE:dance-single;
#DESCRIPTION:;
#CHARTSTYLE:;
#DIFFICULTY:Medium;
#METER:7;
#RADARVALUES:0.323552,0.329313,0.179480,0.170933,0.000000,265.000000,244.000000,21.000000,20.000000,0.000000,0.000000,0.000000,0.000000,0.000000,0.323552,0.329313,0.179480,0.170933,0.000000,265.000000,244.000000,21.000000,20.000000,0.000000,0.000000,0.000000,0.000000,0.000000;
#CREDIT:MILEN;
#DISPLAYBPM:110.000000;
#NOTES:
0000
0000
0000
0000
,
0000
0000
0000
0000
,
0000
0000
0000
0000
,
0000
0000
0000
0000
,
1001
0000
1000
0010
0000
0010
0100
0000
,
0100
0101
0000
0001
0010
0000
0010
0100
,
0000
0100
1000
0000
1000
1010
0000
0010
,
0100
0000
0100
0001
0000
0001
1000
0000
,
1000
0020
0000
0000
0130
0001
0100
0110
,
0000
0000
0010
1000
0010
0110
0000
0000
,
1001
0000
0001
0010
0000
0010
0100
0000
,
0100
1100
0000
1000
0010
0000
0010
0100
,
0000
0100
0001
0000
0001
0011
0000
0010
,
0100
0000
0100
1000
0000
1000
0001
0000
,
0001
0020
0000
0000
0130
0010
0001
0011
,
0000
0000
0010
0100
1000
1100
0000
0000
,
0100
0010
0100
1000
0001
1000
0002
0000
,
1000
1003
0000
0000
0010
0100
0010
0001
,
1000
0001
2000
0000
0001
3001
0000
0001
,
0100
0000
0100
1000
0000
1000
0010
0000
,
0010
0002
0000
0000
1003
0000
1000
0100
,
0000
0100
0001
0010
0100
2002
3003
0000
,
1001
0000
1000
0010
0000
0010
0001
0200
,
0000
0310
0000
0000
1001
0000
0001
0010
,
0000
0010
1000
0200
0000
0310
0000
0000
,
0010
0010
0010
0010
0000
0000
0100
0100
,
0100
0100
0000
1000
0010
0000
0010
0001
,
0000
0001
0100
2000
0000
3001
0000
0000
,
0110
0000
0010
1000
0000
1000
0100
0002
,
0000
0013
0000
0000
0110
0000
0010
0001
,
0000
0001
0010
2000
0000
3100
0000
0000
,
0100
0100
0100
0100
0000
0000
0010
0010
,
0010
0010
0000
0000
0001
0000
0100
1000
,
0000
0010
0001
0000
0000
0110
0010
0000
,
0010
1000
0000
1000
0100
0000
0100
0010
,
0000
0010
0001
0000
0001
0100
0000
0100
,
0010
0000
0010
1000
0000
1000
0001
0000
,
0001
0010
0000
0010
0200
0000
0000
0320
,
0000
0000
0130
0000
0100
1000
0000
1000
,
0010
0100
0001
1001
0000
0000
1010
0000
,
1000
0100
0000
0100
0001
0020
0000
0130
,
0000
0000
0011
0000
0001
0100
0000
0100
,
1000
0020
0000
0130
0000
0000
0001
0001
,
0001
0001
0000
0000
1000
1000
1000
1000
,
0000
1000
0010
0000
0010
0001
0000
0001
,
0100
2000
0000
3001
0000
0000
0101
0000
,
0001
0010
0000
0010
1000
0200
0000
0310
,
0000
0000
1100
0000
1000
0010
0000
0010
,
0001
0200
0000
0310
0000
0000
1000
1000
,
1000
1000
0000
0000
0001
0001
0001
0001
,
0000
0000
0100
0010
1000
0001
0010
0100
,
2000
0000
0000
3001
0000
0000
0000
0000
;

//---------------dance-single - ----------------
#NOTEDATA:;
#CHARTNAME:;
#STEPSTYPE:dance-single;
#DESCRIPTION:;
#CHARTSTYLE:;
#DIFFICULTY:Hard;
#METER:11;
#RADARVALUES:0.467624,0.526901,0.290586,0.350412,0.145293,383.000000,349.000000,34.000000,41.000000,0.000000,0.000000,0.000000,0.000000,0.000000,0.467624,0.526901,0.290586,0.350412,0.145293,383.000000,349.000000,34.000000,41.000000,0.000000,0.000000,0.000000,0.000000,0.000000;
#CREDIT:MILEN;
#DISPLAYBPM:110.000000;
#NOTES:
// measure 0
0000
0000
0000
0000
,  // measure 1
0000
0000
0000
0000
,  // measure 2
0000
0000
0000
0000
,  // measure 3
0000
0000
0000
0000
,  // measure 4
1001
0100
0010
0001
1000
0100
0010
0001
,  // measure 5
0100
0110
0000
0000
1001
0010
0100
1000
,  // measure 6
0001
0010
0100
1000
0010
0110
0000
0100
,  // measure 7
0001
0100
0010
1000
0010
0100
0001
0010
,  // measure 8
0100
2000
0000
0000
3001
0100
0001
0011
,  // measure 9
0000
0000
1000
0010
1000
1100
0000
0000
,  // measure 10
1001
0010
0001
0100
1000
0001
0010
1000
,  // measure 11
0100
0110
0000
0000
1001
0010
1000
0100
,  // measure 12
0001
1000
0010
0001
0100
0110
0000
0010
,  // measure 13
0001
0010
0100
1000
0100
0001
0010
0100
,  // measure 14
1000
0020
0000
0000
0130
0001
0010
0011
,  // measure 15
0000
0000
0010
1000
0100
1100
0000
0000
,  // measure 16
1001
0001
0100
1001
1000
0100
0020
0000
,  // measure 17
0001
0031
0000
0000
1001
1000
0010
1001
,  // measure 18
0001
0010
0200
0000
1000
1300
0000
0000
,  // measure 19
1010
0100
0001
0011
0100
1000
1020
0000
,  // measure 20
0100
0130
0000
0000
0101
0001
0010
1100
,  // measure 21
1000
0010
0100
0100
0100
0001
2000
3020
,  // measure 22
0130
0100
0001
0100
1000
0100
0002
2000
,  // measure 23
0003
3010
0010
0001
0010
1000
0100
0010
,  // measure 24
0001
0100
0020
2000
0030
3100
0100
0010
,  // measure 25
0001
0100
0001
0100
0010
1000
0010
1000
0000
0000
0000
0000
1000
0100
1000
0100
,  // measure 26
0010
0001
0010
0001
0000
0000
0100
0000
0110
0000
0001
0000
1000
0000
1001
0000
,  // measure 27
0100
0010
0002
2000
0003
3010
0020
0230
,  // measure 28
0301
0001
0010
1000
0010
0001
0020
0200
,  // measure 29
0030
1300
1000
0100
0001
0100
1000
0010
,  // measure 30
0100
0001
2000
0200
3000
0310
0010
0001
,  // measure 31
1000
0010
1000
0010
0100
0001
0100
0001
0000
0000
0000
0000
0001
0010
0001
0010
,  // measure 32
0100
1000
0100
1000
0000
0000
0000
0000
1010
0000
0100
0000
0001
0000
0011
0000
,  // measure 33
0100
1000
0020
0000
0000
0130
0100
0001
,  // measure 34
0100
0010
1000
0010
0120
0000
1030
1001
,  // measure 35
0000
0000
0010
1000
0010
0100
0001
0100
,  // measure 36
0210
0000
0301
1001
0000
0000
1000
0010
,  // measure 37
0001
0100
1000
0001
2002
0000
3003
0220
,  // measure 38
0000
0330
0010
1000
0100
0001
0010
0100
,  // measure 39
0001
0001
0001
0100
0020
2030
3001
0001
,  // measure 40
0100
1000
0100
0001
0020
0200
0030
1300
,  // measure 41
1000
0010
0001
0010
1000
0100
0010
0001
,  // measure 42
2000
0000
0020
0000
3000
0000
0130
0000
0100
0000
0001
0000
0010
0100
0010
0100
,  // measure 43
1000
0001
1000
0001
0000
0000
0000
0000
0001
1000
0001
1000
0100
0010
0100
0010
,  // measure 44
0000
0001
0011
0100
1000
1010
0100
0001
,  // measure 45
0020
0200
0030
1300
2000
3020
0130
0100
,  // measure 46
0001
0010
1000
0010
0002
2000
0003
3010
,  // measure 47
0010
0001
0010
1000
0100
0001
0100
0010
,  // measure 48
0002
0000
0200
0000
0003
0000
0310
0000
0010
0000
1000
0000
0100
0010
0100
0010
,  // measure 49
0001
0100
0001
0100
0000
0000
0000
0000
1000
0100
1000
0100
0001
0010
0001
0010
,  // measure 50
0000
0000
0000
0000
0110
0000
1000
0100
0001
0000
0010
0000
0001
0100
1000
0000
,  // measure 51
0002
0000
0000
1003
0000
0000
0000
0000
;

//---------------dance-double - ----------------
#NOTEDATA:;
#CHARTNAME:;
#STEPSTYPE:dance-double;
#DESCRIPTION:;
#CHARTSTYLE:;
#DIFFICULTY:Easy;
#METER:5;
#RADARVALUES:0.169712,0.197588,0.068373,0.000000,0.000000,139.000000,131.000000,8.000000,0.000000,0.000000,0.000000,0.000000,0.000000,0.000000,0.169712,0.197588,0.068373,0.000000,0.000000,139.000000,131.000000,8.000000,0.000000,0.000000,0.000000,0.000000,0.000000,0.000000;
#CREDIT:MILEN;
#DISPLAYBPM:110.000000;
#NOTES:
10000000
00000000
00000000
00000000
,
00000000
00000000
00000000
00000000
,
00000000
00000000
00000000
00000000
,
00000000
00000000
00000000
00000000
,
00001000
00000000
00000000
00010000
00000000
00000000
00000100
00000000
,
00000000
00001000
00000000
00000000
00000010
00000000
00000000
00010000
,
00000000
00000000
00001000
00000000
00000000
00100000
00000000
00000000
,
00010000
00000000
00000000
01000000
00000000
00000000
00100000
00000000
,
00000000
00010000
00000000
00000000
00001000
00000000
00000000
00000100
,
00000000
00000000
00000010
00000000
00000000
00001000
00000000
00000000
,
00000001
00000000
00000000
00000100
00000000
00000000
00000010
00000000
,
00000000
00010000
00000000
00000000
00001000
00000000
00000000
00100000
,
00000000
00000000
00010000
00000000
00000000
10000000
00000000
00000000
,
00100000
00000000
00000000
01000000
00000000
00000000
00001000
00000000
,
00000000
00010000
00000000
00000000
00000100
00000000
00000000
00000010
,
00000000
00000000
00000001
00000000
00000000
00000100
00000000
00000000
,
00001000
00000000
00000000
00010000
00000000
00000000
00001000
00000000
,
00000000
00011000
00000000
00000000
00100000
00000000
00000000
01000000
,
00000000
00000000
00100000
00000000
00000000
01100000
00000000
00000000
,
00010000
00000000
00000000
00001000
00000000
00000000
00010000
00000000
,
00000000
00011000
00000000
00000000
00000100
00000000
00000000
00000010
,
00000000
00000000
00000100
00000000
00000000
00000110
00000000
00000001
,
00000001
00000000
00000000
00000100
00000000
00000000
00001000
00000000
,
00000000
00010000
00000000
00000000
00001000
00000000
00000000
00010000
,
00000000
00000000
00100000
00000000
00000000
10000000
00000000
00000000
,
01000000
00000000
00000000
00010000
00000000
00000000
01000000
00000000
,
00000000
10000000
00000000
00000000
01000000
00000000
00000000
00010000
,
00000000
00000000
01000000
00000000
00000000
11000000
00000000
00000000
,
10000000
00000000
00000000
00100000
00000000
00000000
00010000
00000000
,
00000000
00001000
00000000
00000000
00010000
00000000
00000000
00001000
,
00000000
00000000
00000100
00000000
00000000
00000001
00000000
00000000
,
00000010
00000000
00000000
00001000
00000000
00000000
00000010
00000000
,
00000000
00000001
00000000
00000000
00000010
00000000
00000000
00001000
,
00000000
00000000
00010000
00000000
00000000
00011000
00100000
00000000
,
00000000
01000000
00000000
00000000
10000000
00000000
00000000
00100000
,
00000000
00000000
01000000
00000000
00000000
00010000
00000000
00000000
,
00100000
00000000
00000000
00001000
00000000
00000000
00010000
00000000
,
00000000
00000100
00000000
00000000
00001000
00000000
00000000
00000010
,
00000000
00000000
00000100
00000000
00000000
00000001
00000000
00000000
,
00001000
00000000
00000000
00000100
00000000
00010000
00010000
00000000
,
00000000
00001000
00000000
00000000
00000100
00000000
00000000
00000001
,
00000000
00000000
00000010
00000000
00000000
00000100
00000000
00000000
,
00001000
00000000
00000000
00010000
00000000
00000000
01000000
00000000
,
00000000
10000000
00000000
00000000
01000000
00000000
00000000
00010000
,
00000000
00000000
01000000
00000000
00000000
10000000
00000000
00000000
,
01000000
00000000
00000000
01001000
00000000
00000000
00001000
00000000
,
00000000
00010000
00000000
00000000
00100000
00000000
00000000
10000000
,
00000000
00000000
01000000
00000000
00000000
00100000
00000000
00000000
,
00010000
00000000
00000000
00001000
00000000
00000000
00000010
00000000
,
00000000
00000001
00000000
00000000
00000010
00000000
00000000
00001000
,
00000000
00000000
00000010
00000000
00000000
00000001
00000000
00000000
,
00000100
00000000
00000000
00011000
00000000
00000000
00000000
00000000
;

//---------------dance-double - ----------------
#NOTEDATA:;
#CHARTNAME:;
#STEPSTYPE:dance-double;
#DESCRIPTION:;
#CHARTSTYLE:;
#DIFFICULTY:Medium;
#METER:8;
#RADARVALUES:0.338203,0.351267,0.230759,0.119653,0.000000,277.000000,250.000000,27.000000,14.000000,0.000000,0.000000,0.000000,0.000000,0.000000,0.338203,0.351267,0.230759,0.119653,0.000000,277.000000,250.000000,27.000000,14.000000,0.000000,0.000000,0.000000,0.000000,0.000000;
#CREDIT:MILEN;
#DISPLAYBPM:110.000000;
#NOTES:
00000000
00000000
00000000
00000000
,
00000000
00000000
00000000
00000000
,
00000000
00000000
00000000
00000000
,
00000000
00000000
00000000
00000000
,
00011000
00000000
00001000
00100000
00000000
00010000
01000000
00000000
,
00100000
10100000
00000000
10000000
01000000
00000000
00100000
00001000
,
00000000
00010000
00000100
00000000
00001000
00001010
00000000
00000010
,
00000100
00000000
00000001
00001000
00000000
00000100
00010000
00000000
,
00001000
00200000
00000000
00000000
00310000
01000000
00010000
01010000
,
00000000
00000000
10000000
00100000
10000000
10100000
00000000
00000000
,
01100000
00000000
01000000
00010000
00000000
00100000
00001000
00000000
,
00010000
00011000
00000000
00001000
00010000
00000000
00000100
00000010
,
00000000
00000001
00000100
00000000
00000010
00010010
00000000
00010000
,
00001000
00000000
00100000
01000000
00000000
10000000
00100000
00000000
,
01000000
00020000
00000000
00000000
00130000
00001000
00010000
00011000
,
00000000
00000000
00000010
00010000
00001000
00011000
00000000
00000000
,
00010000
01000000
10000000
01000000
10000000
01000000
00020000
00000000
,
00001000
00031000
00000000
00000000
00001000
00000010
00000001
00000010
,
00000001
00000010
00002000
00000000
00010000
00013000
00000000
00010000
,
01000000
10000000
01000000
10000000
00100000
00010000
00002000
00000000
,
00010000
00013000
00000000
00010000
00001000
00000100
00001000
00000100
,
00000001
00000010
00000001
00000010
00001000
00022000
00033000
00000000
,
00011000
00000000
00010000
00100000
00000000
00100000
10000000
01000000
,
00000000
01100000
00000000
00000000
00110000
00000000
00100000
00001000
,
00000000
00001000
00010000
00000100
00000000
00000110
00000000
00000000
,
00000001
00001000
00000001
00001000
00000000
00000000
00000100
00000010
,
00000100
00000010
00000000
00000001
00000100
00000000
00000100
00001000
,
00000000
00001000
00010000
00002000
00000000
00013000
00000000
00000000
,
00011000
00000000
00001000
00000010
00000000
00000010
00000001
00000100
,
00000000
00000110
00000000
00000000
00001010
00000000
00000010
00010000
,
00000000
00010000
00001000
01000000
00000000
01100000
00000000
00000000
,
10000000
00010000
10000000
00010000
00000000
00000000
01000000
00100000
,
01000000
00100000
00000000
10000000
01000000
00000000
01000000
00010000
,
00000000
00010000
00002000
00000000
00000000
00013000
00011000
00000000
,
00001000
00100000
00000000
00010000
01000000
00000000
00100000
10000000
,
00000000
01000000
00100000
00000000
00001000
00010000
00000000
00000100
,
00000010
00000000
00000001
00000100
00000000
00000010
00001000
00000000
,
00000100
00010000
00000000
00001000
01001000
00000000
00000000
00010010
,
00000000
00000000
00011000
00000000
00010000
01000000
00000000
10000000
,
00100000
00010000
00001000
00000100
00000000
00000000
00001001
00000000
,
00000001
00000100
00000000
00000010
00010000
00002000
00000000
00103000
,
00000000
00000000
00110000
00000000
00010000
01000000
00000000
00100000
,
10000000
02000000
00000000
03100000
00000000
00000000
00100000
00001000
,
00100000
00001000
00000000
00000000
00010000
00000010
00010000
00000010
,
00000000
00001000
00000100
00000000
00000010
00000001
00000000
00000100
,
00001000
00010000
00100000
10000000
00000000
00000000
10010000
00000000
,
10000000
01000000
00000000
00100000
00001000
00020000
00000000
00030010
,
00000000
00000000
00001010
00000000
00001000
00000100
00000000
00000010
,
00000001
00000200
00000000
00000310
00000000
00000000
00000010
00010000
,
00000010
00010000
00000000
00000000
00001000
00100000
00001000
00100000
,
00000000
00010000
01000000
00000000
00100000
10000000
00000000
01000000
,
00020000
00000000
00000000
00031000
00000000
00000000
00000000
00000000
;

//---------------dance-double - ----------------
#NOTEDATA:;
#CHARTNAME:;
#STEPSTYPE:dance-double;
#DESCRIPTION:;
#CHARTSTYLE:;
#DIFFICULTY:Hard;
#METER:11;
#RADARVALUES:0.452972,0.526901,0.213666,0.264946,0.136746,371.000000,346.000000,25.000000,31.000000,0.000000,0.000000,0.000000,0.000000,0.000000,0.452972,0.526901,0.213666,0.264946,0.136746,371.000000,346.000000,25.000000,31.000000,0.000000,0.000000,0.000000,0.000000,0.000000;
#CREDIT:MILEN;
#DISPLAYBPM:110.000000;
#NOTES:
00000000
00000000
00000000
00000000
,
00000000
00000000
00000000
00000000
,
00000000
00000000
00000000
00000000
,
00000000
00000000
00000000
00000000
,
00001000
00010000
01000000
10000000
01000000
00100000
00010000
01000000
,
00001000
00011000
00000000
00000000
00010000
00001000
00000010
00000001
,
00000010
00000100
00001000
00000010
00010000
00011000
00000000
00001000
,
00100000
01000000
00010000
00001000
00000010
00000100
00010000
00001000
,
00000100
00000002
00000000
00000000
00000013
00000100
00001000
00011000
,
00000000
00000000
01000000
00100000
00010000
00011000
00000000
00000000
,
00001000
00000100
00000001
00000010
00000001
00000100
00001000
00010000
,
00001000
00011000
00000000
00000000
00010000
00100000
10000000
01000000
,
10000000
00100000
00010000
00001000
00010000
00011000
00000000
00001000
,
00100000
00010000
00000010
00001000
01000000
00010000
00000100
00001000
,
00010000
00200000
00000000
00000000
10300000
01000000
00100000
00110000
,
00000000
00000000
00001000
00000100
00000010
00000011
00000000
00000000
,
00000001
00000100
00001000
00011000
00010000
00100000
20000000
00000000
,
01000000
31000000
00000000
00000000
10000000
00100000
00010000
00011000
,
00001000
00000100
00000002
00000000
00000010
00000013
00000000
00000000
,
00000001
00000100
00001000
00011000
00010000
01000000
20000000
00000000
,
00100000
30100000
00000000
00000000
10000000
01000000
00010000
00011000
,
00001000
00000010
00000001
00000100
00001000
00010000
00200000
20300000
,
31000000
01000000
00010000
00001000
00010000
01000000
00010000
00002000
,
00000000
00003010
00000010
00001000
00010000
00001000
00000010
00001000
,
00010000
00001000
00000010
00000002
00000000
00000103
00000100
00001000
,
00010000
00000100
00010000
00000100
00001000
00000010
00001000
00000010
00000000
00000000
00000000
00000000
00010000
00000100
00010000
00000100
,
00000010
00000001
00000010
00000001
00000000
00000000
00000100
00000000
00001100
00000000
00001000
00000000
00010000
00000000
01010000
00000000
,
01000000
10000000
00100000
00020000
00000000
00031000
00002000
02003000
,
03100000
00100000
00010000
00001000
00010000
00100000
00010000
00002000
,
00000000
00003100
00000100
00001000
00010000
00001000
00000100
00001000
,
00010000
00001000
00000100
00000002
00000000
00000013
00000010
00001000
,
00010000
00000010
00010000
00000010
00001000
00000100
00001000
00000100
00000000
00000000
00000000
00000000
00010000
00000010
00010000
00000010
,
00000100
00000001
00000100
00000001
00000000
00000000
00000000
00000000
00000011
00000000
00000010
00000000
00001000
00000000
00011000
00000000
,
00010000
01000000
21000000
00000000
00000000
30100000
00100000
01000000
,
10000000
01000000
00010000
00100000
02000000
00000000
03010000
00011000
,
00000000
00000000
00000100
00000010
00000001
00000010
00001000
00000100
,
00000020
00000000
00001030
00011000
00000000
00000000
01000000
10000000
,
00100000
00010000
00001000
00100000
00202000
00000000
00303000
00020020
,
00000000
00030030
00010000
00000010
00001000
00000100
00000010
00000001
,
00000100
00001000
00010000
01000000
20000000
30200000
01300000
01000000
,
10000000
00010000
00100000
10000000
01000000
00200000
00000000
00000000
,
10300000
10000000
00100000
00010000
10000000
01000000
00010000
00001000
,
00000010
00000000
00000002
00000000
00000000
00000000
00000103
00000000
00000100
00000000
00000010
00000000
00010000
00001000
00010000
00001000
,
00100000
01000000
00100000
01000000
00000000
00000000
00000000
00000000
10000000
00010000
10000000
00010000
01000000
00100000
01000000
00100000
,
00000000
10000000
11000000
01000000
00010000
00011000
00001000
00000010
,
00000001
00000200
00000000
00001300
00002000
00203000
01300000
01000000
,
00010000
00001000
00000010
00001000
00010000
00002000
00000000
00003100
,
00000100
00000001
00000010
00001000
00010000
01000000
10000000
00100000
,
00010000
00000000
00002000
00000000
00000000
00000000
00103000
00000000
00100000
00000000
01000000
00000000
10000000
00100000
10000000
00100000
,
00010000
00001000
00010000
00001000
00000000
00000000
00000000
00000000
00100000
01000000
00100000
01000000
00010000
00001000
00010000
00001000
,
00000000
00000000
00000011
00001000
00010000
10100000
00010000
00001000
,
00000200
00000000
00000000
00000310
00000000
00000000
00000000
00000000
;
