#VERSION:0.83;
#TITLE:Shiny Smily Story;
#SUBTITLE:;
#ARTIST:hololive IDOL PROJECT;
#TITLETRANSLIT:;
#SUBTITLETRANSLIT:;
#ARTISTTRANSLIT:;
#GENRE:J-MUSIC;
#ORIGIN:;
#CREDIT:MUINELIM;
#BANNER:Shiny Smily Story.png;
#BACKGROUND:Shiny Smily Story-bg.png;
#PREVIEWVID:;
#JACKET:Shiny Smily Story-jacket.png;
#CDIMAGE:;
#DISCIMAGE:;
#LYRICSPATH:;
#CDTITLE:;
#MUSIC:Shiny Smily Story.ogg;
#OFFSET:0.179000;
#SAMPLESTART:62.135006;
#SAMPLELENGTH:15.116760;
#SELECTABLE:YES;
#DISPLAYBPM:168.000000;
#BPMS:0.000=168.020;
#STOPS:;
#DELAYS:;
#WARPS:;
#TIMESIGNATURES:0.000=4=4;
#TICKCOUNTS:0.000=4;
#COMBOS:0.000=1;
#SPEEDS:0.000=1.000=0.000=0;
#SCROLLS:0.000=1.000;
#FAKES:;
#LABELS:0.000=Song Start;
#BGCHANGES:0.000=Shiny Smily Story-bg.png=1.000=0=0=1====#000000=#000000,
1.000=Shiny Smily Story.avi=1.000=1=0=0=StretchNoLoop==CrossFade==,
99999=-nosongbg-=1.000=0=0=0 // don't automatically add -songbackground-
;
#KEYSOUNDS:;
#ATTACKS:
;

//---------------dance-single - ----------------
#NOTEDATA:;
#CHARTNAME:;
#STEPSTYPE:dance-single;
#DESCRIPTION:;
#CHARTSTYLE:;
#DIFFICULTY:Beginner;
#METER:4;
#RADARVALUES:0.198341,0.263694,0.009988,0.069919,0.000000,139.000000,138.000000,1.000000,7.000000,0.000000,0.000000,0.000000,0.000000,0.000000,0.198341,0.263694,0.009988,0.069919,0.000000,139.000000,138.000000,1.000000,7.000000,0.000000,0.000000,0.000000,0.000000,0.000000;
#CREDIT:MILEN;
#DISPLAYBPM:168.000000;
#NOTES:
0000
0000
0000
0000
,
0000
0000
0000
0000
,
0000
0000
0000
0000
,
0000
0000
0000
0000
,
0000
0000
0000
0000
,
0010
0000
0010
0000
,
0010
0000
0010
0000
,
0010
0010
0010
0010
,
0010
0000
0010
0001
,
0100
0000
0100
0000
,
0010
0000
0010
0000
,
1000
0000
1000
0000
,
0001
0000
0001
0000
,
0100
0000
0010
0000
,
1000
0000
0001
0000
,
0010
0000
0100
0000
,
1000
0000
0010
0000
,
0100
0100
0200
0300
,
0001
0000
1000
0000
,
0001
1000
0001
0000
,
1000
0000
0001
0000
,
1000
0001
1000
0000
,
0010
0000
0100
0000
,
0010
0100
0020
0030
,
0100
0100
0100
0100
,
0001
0000
1000
0000
,
0010
0000
0001
0000
,
0100
0000
1000
0000
,
0010
0000
0001
0000
,
0100
0000
1000
0000
,
0100
0000
0001
0000
,
0010
0000
1000
0000
,
0100
0000
0001
0000
,
0010
0010
0020
0030
,
0100
0000
0000
0000
,
0010
0000
0000
0000
,
1000
0000
0000
0000
,
0001
0000
0000
0100
,
0100
0010
0100
0000
,
0010
0100
0020
0030
,
0010
0000
1000
0000
,
0001
0000
0100
0000
,
0010
0000
0010
0000
,
0010
0010
0000
0000
,
1000
0000
0100
0000
,
0010
0000
0001
0000
,
1000
0000
0100
0000
,
0010
0000
0001
0000
,
0100
0010
1000
0000
,
0010
0100
0001
0000
,
0100
0100
0100
0100
,
0100
0000
0020
0030
,
1000
0000
0100
0000
,
0001
0000
0010
0000
,
1000
0000
0100
0000
,
0001
0000
0010
0000
,
1000
0001
1000
0000
,
0001
1000
0001
0000
,
1000
0001
1000
0001
,
0000
0100
0100
0010
,
0100
0000
0100
0000
,
0100
0000
0100
0010
,
0010
0000
0010
0000
,
0010
0000
0010
0000
,
2002
0000
0000
0000
,
0000
0000
0000
0000
,
3003
0000
0000
0000
;

//---------------dance-single - ----------------
#NOTEDATA:;
#CHARTNAME:;
#STEPSTYPE:dance-single;
#DESCRIPTION:;
#CHARTSTYLE:;
#DIFFICULTY:Easy;
#METER:6;
#RADARVALUES:0.279676,0.395541,0.109873,0.079907,0.000000,196.000000,185.000000,11.000000,8.000000,0.000000,0.000000,0.000000,0.000000,0.000000,0.279676,0.395541,0.109873,0.079907,0.000000,196.000000,185.000000,11.000000,8.000000,0.000000,0.000000,0.000000,0.000000,0.000000;
#CREDIT:MILEN;
#DISPLAYBPM:168.000000;
#NOTES:
0000
0000
0000
0000
,
0000
0000
0000
0000
,
0000
0000
0000
0000
,
0000
0000
0000
0000
,
0000
0000
0000
0000
,
0010
0000
0000
0010
,
0010
0000
0000
0010
,
0010
0000
0000
0010
0000
0000
0010
0000
,
0000
0010
0000
0000
0010
0000
0001
0000
,
0100
0010
1000
0010
,
0100
0010
1000
0000
,
0010
0100
0001
0100
,
0010
0100
0001
0000
,
1000
0001
0100
0001
,
1000
0010
1000
0001
,
0100
0100
0010
0010
,
1000
0000
0000
0001
0000
0000
0100
0000
,
0001
0000
0000
1000
0000
0000
0010
0000
,
0100
0000
0100
0000
,
0100
0010
1000
0000
,
0010
0100
0001
0000
,
0100
0010
0100
0110
,
0000
0010
0010
1000
,
1000
0001
0001
0100
,
0010
1000
0001
0100
,
0010
0010
0000
0010
0000
0010
0000
0000
,
1000
0000
0100
0000
,
0010
0000
0001
0000
,
0100
0000
0010
0000
,
1000
0000
0001
0000
,
0100
0010
1000
0001
,
0010
0100
1000
0010
,
0110
0000
0110
0000
,
0110
1001
2002
3003
,
1000
0000
0010
0000
,
0001
0000
0100
0000
,
1000
0000
0010
0000
,
0001
0000
0100
0000
,
1000
0001
1000
0000
,
0001
1000
0002
0000
,
0003
1000
0100
0010
,
0001
1000
0100
0010
,
0000
0010
0010
0000
0010
0000
0000
0010
,
0000
0020
0000
0030
,
0001
0100
0001
0010
,
0001
0100
0001
0010
,
1000
0100
1000
0010
,
1000
0100
1000
0010
,
0001
1000
1001
0000
,
1000
0001
1001
0000
,
0001
1000
0001
1000
,
0002
0000
2000
3003
,
1000
0100
0001
0010
,
1000
0100
0001
0000
,
0001
0100
1000
0010
,
0001
0100
1000
0000
,
1000
0100
0110
0000
,
0001
0010
0110
0000
,
1000
0010
0001
0100
,
1000
0001
0100
0100
,
0010
0000
0000
1000
0000
0000
0001
0000
,
0000
0100
0000
0000
0010
0000
0010
0000
,
0010
0000
0000
1000
0000
0000
0001
0000
,
0000
0100
0000
0000
0010
0000
0010
0000
,
2002
0000
0000
0000
,
0000
0000
0000
0000
,
3003
0000
0000
0000
;

//---------------dance-single - ----------------
#NOTEDATA:;
#CHARTNAME:;
#STEPSTYPE:dance-single;
#DESCRIPTION:;
#CHARTSTYLE:;
#DIFFICULTY:Medium;
#METER:9;
#RADARVALUES:0.399537,0.494426,0.239722,0.189780,0.000000,280.000000,256.000000,24.000000,19.000000,0.000000,0.000000,0.000000,0.000000,0.000000,0.399537,0.494426,0.239722,0.189780,0.000000,280.000000,256.000000,24.000000,19.000000,0.000000,0.000000,0.000000,0.000000,0.000000;
#CREDIT:MILEN;
#DISPLAYBPM:168.000000;
#NOTES:
0000
0000
0000
0000
,
0000
0000
0000
0000
,
0000
0000
0000
0000
,
0000
0000
0000
0000
,
0000
0000
0000
0000
,
0010
0000
0000
0010
0000
0010
0010
0000
,
0010
0000
0000
0010
0000
0010
0010
0000
,
0010
0000
0000
1000
0000
0000
0001
0000
,
0000
0100
0000
0010
0100
0000
0100
0010
,
1000
0100
0010
0100
,
1000
0100
0001
0000
,
0001
0010
0100
0010
,
0001
0000
0010
0000
1000
0000
0010
0001
,
2000
3010
0002
0103
,
2000
3100
0002
0013
,
1001
0110
1001
0110
,
0010
0010
0000
0100
0000
0010
1000
0001
,
0100
0010
1000
0002
0000
0000
0003
0000
,
0100
0010
1000
0001
,
0010
0100
1000
0010
,
0100
0001
1000
0100
,
0010
0000
0001
0000
0100
0010
0000
0010
,
0000
1000
0001
0010
,
0100
1000
0010
0100
,
0001
0011
1000
1010
,
0001
0001
0000
0100
0000
2000
0000
0000
,
3010
0000
0100
0000
0001
0010
0001
0000
,
0100
0000
0010
0000
1000
0100
1000
0000
,
0010
0000
0100
0000
0001
1000
0001
0000
,
0100
0000
0010
0000
1000
0001
1000
1000
,
0000
0010
0100
0001
0000
0100
0010
1000
,
0000
0010
0100
0001
0100
0000
0010
0000
,
1000
0000
0100
0100
0000
0010
0000
0001
,
0000
0100
0220
0000
0000
0000
0330
0000
,
0010
1000
0200
0300
,
0010
0001
0200
0300
,
0010
0000
1000
0000
0100
0000
0010
0001
,
0000
0001
0010
0000
0001
0100
0010
0010
,
0000
0000
0100
0000
0100
0000
0010
1000
,
0000
0000
0100
0000
0100
0000
0010
0002
,
0000
0103
0010
1000
,
0001
0010
0100
1000
,
0010
0100
0010
0000
0010
1000
0000
1000
,
0000
0001
0200
0000
0000
0310
0100
0010
,
1000
0100
0010
0001
,
1000
0010
0100
0001
,
0001
0010
0100
1000
,
0001
0100
0010
1000
,
1000
0100
0010
0000
0011
0000
0000
0000
,
0001
0100
0010
0000
1010
0000
0000
0000
,
2000
3020
0230
0302
,
2003
0000
0000
0001
3001
0000
1001
0000
,
0001
0100
0010
0000
1000
0010
0100
0000
,
0001
0100
0010
0100
0001
0000
0001
0000
,
1000
0100
0010
0000
0001
0010
0100
0000
,
1000
0100
0010
0100
1000
0000
1000
0000
,
0001
0100
0010
0000
1010
0000
0000
0000
,
1000
0100
0010
0000
0011
0000
0000
0000
,
0001
0100
0010
0000
1000
0010
0100
0000
,
0001
1000
0000
1000
0001
0000
0001
0100
,
0110
0000
0000
1010
0000
0000
0110
0000
,
0000
0101
0000
0000
1001
0000
1001
0000
,
0011
0000
0000
1100
0000
0000
1010
0000
,
0000
0101
0000
0000
0110
0000
0000
2002
,
0000
0000
0000
0000
,
0000
0000
0000
0000
,
3003
0000
0000
0000
;

//---------------dance-single - ----------------
#NOTEDATA:;
#CHARTNAME:;
#STEPSTYPE:dance-single;
#DESCRIPTION:;
#CHARTSTYLE:;
#DIFFICULTY:Hard;
#METER:11;
#RADARVALUES:0.557924,0.725159,0.539374,0.429502,0.000000,391.000000,337.000000,54.000000,43.000000,0.000000,0.000000,0.000000,0.000000,0.000000,0.557924,0.725159,0.539374,0.429502,0.000000,391.000000,337.000000,54.000000,43.000000,0.000000,0.000000,0.000000,0.000000,0.000000;
#CREDIT:MILEN;
#DISPLAYBPM:168.000000;
#NOTES:
0000
0000
0000
0000
,
0000
0000
0000
0000
,
0000
0000
0000
0000
,
0000
0000
0000
0000
,
0000
0000
0000
0000
0000
0000
0000
0010
,
0010
1000
0000
0001
0000
0100
0100
0010
,
1000
0001
0000
0100
0000
0010
0010
1000
,
1100
0000
0000
0011
0000
0000
0101
0000
,
0000
1010
0000
1001
1001
0000
0010
0100
,
0020
2030
3200
0320
,
0032
2003
3020
0230
,
0302
0023
0230
2300
,
3020
0230
0302
2003
,
0200
0000
3000
0000
0000
1300
1000
0100
,
0010
0001
0100
0010
0000
0010
1000
0001
,
0101
1010
1100
0011
,
0001
2000
0000
3020
0000
0130
0001
0010
,
0100
1000
0020
0100
0000
0000
0130
0100
,
0001
0010
0001
0000
0100
0000
0010
0000
,
1000
0100
1000
0000
0010
0000
0100
0000
,
0001
1000
0010
0000
1000
0001
0100
0000
,
0001
1000
0010
0100
0001
1000
0001
1001
,
0000
0010
0100
0001
0000
0100
0010
1000
,
0000
0010
0100
0001
0101
0000
0001
1000
,
1100
0110
0011
0101
,
0110
0110
0000
1010
0000
2002
0000
3003
,
0001
0100
0010
0000
1000
0000
0001
0000
,
1000
0010
0100
0000
0001
0000
1000
0000
,
0001
0010
0100
0000
1000
0100
0010
0000
,
0001
0010
0100
1000
0100
0010
0001
0101
,
0000
0100
0010
1010
0000
1001
0000
0110
,
0000
0010
1000
0100
0020
0000
0000
0100
,
0130
0010
0001
0100
0000
1010
0000
0011
,
0000
1100
1100
0000
1000
0100
0010
0001
,
0200
0010
1000
0300
,
0020
0100
0001
0030
,
2000
0100
0001
3000
,
0002
0000
0010
0000
1003
0000
1000
1100
,
0000
0100
0010
0001
1000
0100
0010
0011
,
0000
0001
0010
0100
1000
0010
0100
0110
,
0000
0020
2030
3200
,
0302
0023
2030
3200
,
0010
0010
0310
0000
0010
0100
0000
0110
,
0000
1001
2002
0000
3003
0001
1000
0001
,
0100
0010
1000
0001
0010
0100
1000
0010
,
0100
0001
1000
0100
0010
0001
0100
0010
,
1000
0001
0100
1000
0100
0001
0100
0010
,
1000
0010
0001
0010
0100
0001
1000
0100
,
0010
0001
0100
0010
2000
0001
3001
0000
,
0001
0010
0100
1000
0020
0100
0130
0000
,
0101
0011
1100
1010
,
0110
0010
0200
0000
0301
1000
1001
0001
,
0100
1000
0100
0001
0100
1000
0100
0001
,
0100
0010
1000
0010
0001
0010
1000
0010
,
0001
0010
0100
1000
0100
0001
1000
0010
,
0001
0010
0100
1000
0100
0001
0010
0100
,
1000
0010
0100
0001
0020
0100
0130
0000
,
0100
1000
0010
0100
0002
1000
1003
0000
,
1000
0100
0001
0100
0010
1000
0010
0001
,
0000
0101
0000
1000
1100
0000
0010
0100
,
0110
0000
0000
0101
0000
0000
1100
0000
,
0000
0011
0000
0000
1010
0000
1001
0000
,
0011
0001
0100
0110
0010
1000
1100
0100
,
0010
0110
0100
0010
1001
0000
0100
2002
,
0000
0000
0000
0000
,
0000
0000
0000
0000
,
3003
0000
0000
0000
;

//---------------dance-double - ----------------
#NOTEDATA:;
#CHARTNAME:;
#STEPSTYPE:dance-double;
#DESCRIPTION:;
#CHARTSTYLE:;
#DIFFICULTY:Easy;
#METER:4;
#RADARVALUES:0.206903,0.296656,0.059930,0.129849,0.000000,145.000000,139.000000,6.000000,13.000000,0.000000,0.000000,0.000000,0.000000,0.000000,0.206903,0.296656,0.059930,0.129849,0.000000,145.000000,139.000000,6.000000,13.000000,0.000000,0.000000,0.000000,0.000000,0.000000;
#CREDIT:MILEN;
#DISPLAYBPM:168.000000;
#NOTES:
00000000
00000000
00000000
00000000
,
00000000
00000000
00000000
00000000
,
00000000
00000000
00000000
00000000
,
00000000
00000000
00000000
00000000
,
00000000
00000000
00000000
00000000
,
00001000
00000000
00001000
00000000
,
00001000
00000000
00001000
00000000
,
00001000
00001000
00001000
00001000
,
00001000
00000000
00010000
00001000
,
00100000
00000000
00100000
00000000
,
00010000
00000000
00010000
00000000
,
01000000
00000000
01000000
00000000
,
00001000
00000000
00001000
00000000
,
00010000
00000000
00000100
00000000
,
00001000
00000000
00000010
00000000
,
00010000
00000000
00001000
00000000
,
00100000
00000000
00010000
00000000
,
01000000
00100000
02000000
03000000
,
00100000
00000000
10000000
00000000
,
01000000
00010000
00001000
00000000
,
00010000
00000000
00001000
00000000
,
00010000
00001000
00000100
00000000
,
00000001
00000000
00000010
00000000
,
00001000
00010000
00002000
00003000
,
00010000
00010000
00010000
00010000
,
00000100
00000000
00000010
00000000
,
00000001
00000000
00000100
00000000
,
00001000
00000000
00010000
00000000
,
00100000
00000000
10000000
00000000
,
01000000
00000000
00100000
00000000
,
00010000
00000000
01000000
00000000
,
00001000
00000000
00010000
00000000
,
00000100
00000000
00000010
00000000
,
00000001
00001000
00002002
00003003
,
00000010
00000000
00000000
00000000
,
00000100
00000000
00000000
00000000
,
00001000
00000000
00000000
00000000
,
00010000
00000000
00000000
01000000
,
01000000
00100000
01000000
00000000
,
00100000
01000000
02200000
03300000
,
00100000
00000000
01000000
00000000
,
10000000
00000000
00100000
00000000
,
00010000
00000000
00001000
00000000
,
00010000
00022000
00000000
00033000
,
00001000
00000000
00100000
00000000
,
01000000
00000000
10000000
00000000
,
00100000
00000000
00010000
00000000
,
00001000
00000000
00000100
00000000
,
00000001
00000010
00001000
00000000
,
00010000
01000000
10000000
00000000
,
00100000
01000000
00100000
01000000
,
01100000
00000000
20020000
30030000
,
10000000
00000000
00100000
00000000
,
00010000
00000000
00001000
00000000
,
00000100
00000000
00000001
00000000
,
00000010
00000000
00001000
00000000
,
00010000
00000100
00010000
00000000
,
00001000
01000000
00001000
00000000
,
00010000
00000010
00010000
00002000
,
00003000
00100000
00100000
00010000
,
01000000
00000000
10000000
00000000
,
01000000
00000000
00100000
00010000
,
00010000
00000000
00001000
00000000
,
00000100
00000000
00000010
00000010
,
00002002
00000000
00000000
00000000
,
00000000
00000000
00000000
00000000
,
00003003
00000000
00000000
00000000
;

//---------------dance-double - ----------------
#NOTEDATA:;
#CHARTNAME:;
#STEPSTYPE:dance-double;
#DESCRIPTION:;
#CHARTSTYLE:;
#DIFFICULTY:Medium;
#METER:10;
#RADARVALUES:0.396683,0.494426,0.189780,0.229734,0.000000,278.000000,259.000000,19.000000,23.000000,0.000000,0.000000,0.000000,0.000000,0.000000,0.396683,0.494426,0.189780,0.229734,0.000000,278.000000,259.000000,19.000000,23.000000,0.000000,0.000000,0.000000,0.000000,0.000000;
#CREDIT:MILEN;
#DISPLAYBPM:168.000000;
#NOTES:
00000000
00000000
00000000
00000000
,
00000000
00000000
00000000
00000000
,
00000000
00000000
00000000
00000000
,
00000000
00000000
00000000
00000000
,
00000000
00000000
00000000
00000000
,
00001000
00000000
00000000
00010000
00000000
00001000
00010000
00000000
,
00001000
00000000
00000000
00010000
00000000
00001000
00010000
00000000
,
00001000
00000000
00000000
01000000
00000000
00000000
00001000
00000000
,
00000000
00010000
00000000
00000100
00010000
00000000
00001000
00010000
,
00001000
00100000
00010000
01000000
,
00001000
00010000
00000100
00000000
,
00001000
00000010
00010000
00001000
,
00100000
00000000
00010000
00000000
01000000
00000000
00100000
10000000
,
00200000
01300000
00020000
00130000
,
00002000
00013000
00000020
00001030
,
00001001
00000110
00001001
00000110
,
00000001
00000010
00000000
00001000
00000000
00010000
00001000
00010000
,
00001000
00100000
01000000
00200000
00000000
00000000
00300000
00000000
,
01000000
10000000
00100000
00010000
,
00100000
01000000
00100000
00010000
,
00001000
00000100
00000010
00000100
,
00001000
00000000
00000100
00000000
00000001
00001000
00000000
00001001
,
00000000
00000001
00000100
00000010
,
00010000
00001000
00100000
00010000
,
01000000
01100000
00010000
10010000
,
10000000
00100000
00000000
01000000
00000000
00020000
00000000
00000000
,
00130000
00000000
00100000
00000000
00001000
00010000
00000100
00000000
,
00001000
00000000
00000100
00000000
00010000
00001000
01000000
00000000
,
00010000
00000000
01000000
00000000
00001000
00010000
00000010
00000000
,
00001000
00000000
00000010
00000000
00010000
00001000
00100000
00100000
,
00000000
00010000
01000000
00100000
00000000
10000000
01000000
00100000
,
00000000
00001000
00010000
00001000
00000010
00000000
00000001
00000000
,
00000100
00000000
00001000
00010000
00000000
00100000
00000000
10000000
,
00000000
01000000
02200000
00000000
00000000
00000000
03300000
00000000
,
00100000
00001000
00020000
00030000
,
00001000
00010000
00000020
00000030
,
00001000
00000000
00000010
00000000
00000100
00000000
00000001
00001000
,
00000000
00000100
00001000
00000000
00000100
00010000
00001000
00001000
,
00000000
00000000
00010000
00000000
00011000
00000000
00001000
00100000
,
00000000
00000000
00010000
00000000
00010000
00000000
01000000
00200000
,
00000000
10300000
10000000
01000000
,
00100000
00001000
00010000
00000100
,
00000010
00000001
00000010
00000000
00000001
00000100
00000000
00000001
,
00000000
00001000
00000200
00000000
00000000
00010300
00001000
00010000
,
01000000
10000000
00100000
00010000
,
00001000
00100000
01000000
00010000
,
00001000
00000100
00000001
00000010
,
00000100
00010000
00001000
00100000
,
00010000
00100000
01000000
10000000
02000000
00000000
03000000
00000000
,
10000000
00100000
01000000
00010000
02000000
00000000
03000000
00000000
,
00002000
00023000
00030200
00002300
,
00003002
00000000
00000000
00000100
00000103
00000000
00000110
00000000
,
00000010
00010000
00001000
00000000
00100000
00001000
00010000
00000000
,
00000100
00010000
00001000
00000000
01000000
00001000
00010000
00000000
,
00001000
00100000
00010000
00000000
01000000
00001000
00010000
00000000
,
00000010
00010000
00001000
00000000
00010000
00000100
00001000
00000000
,
00000001
00000010
00000100
00001000
00000200
00000000
00000300
00000000
,
00001000
00000010
00000100
00000001
00000200
00000000
00000300
00000000
,
00001000
00010000
00001000
00000000
00010000
00000000
01000000
00000000
,
10000000
00100000
00000000
01000000
00100000
00000000
00010000
00001000
,
00010000
00000000
00000000
00010100
00000000
00000000
01001000
00000000
,
00000000
00010010
00000000
00000000
00101000
00000000
00001000
00000000
,
00010000
00000000
00000000
00010010
00000000
00000000
00101000
00000000
,
00000000
00010100
00000000
00000000
01001000
00000000
00000000
00022000
,
00000000
00000000
00000000
00000000
,
00000000
00000000
00000000
00000000
,
00033000
00000000
00000000
00000000
;

//---------------dance-double - ----------------
#NOTEDATA:;
#CHARTNAME:;
#STEPSTYPE:dance-double;
#DESCRIPTION:;
#CHARTSTYLE:;
#DIFFICULTY:Hard;
#METER:11;
#RADARVALUES:0.489432,0.593312,0.459467,0.459467,0.000000,343.000000,297.000000,46.000000,46.000000,0.000000,0.000000,0.000000,0.000000,0.000000,0.489432,0.593312,0.459467,0.459467,0.000000,343.000000,297.000000,46.000000,46.000000,0.000000,0.000000,0.000000,0.000000,0.000000;
#CREDIT:MILEN;
#DISPLAYBPM:168.000000;
#NOTES:
// measure 0
00000000
00000000
00000000
00000000
,  // measure 1
00000000
00000000
00000000
00000000
,  // measure 2
00000000
00000000
00000000
00000000
,  // measure 3
00000000
00000000
00000000
00000000
,  // measure 4
00000000
00000000
00000000
00000000
00000000
00000000
00000000
00001000
,  // measure 5
00010000
00001000
00000000
00022000
00000000
00033000
00000000
00001000
,  // measure 6
00010000
00000100
00000000
00020200
00000000
00030300
00000000
00010000
,  // measure 7
00001000
01000000
00000000
02002000
00000000
00000000
00000000
03003000
,  // measure 8
00000000
01001000
00000000
00011000
00011000
00000000
00010000
00000100
,  // measure 9
00000020
00000032
00000203
00002300
,  // measure 10
00023000
00230000
20300000
32000000
,  // measure 11
03020000
00001000
00100000
00031000
,  // measure 12
00002000
00010000
00000010
00013000
,  // measure 13
00022000
00000000
00000000
00033000
00000000
00010000
00010000
01000000
,  // measure 14
10000000
00100000
01000000
00010000
00000000
00100000
01000000
00010000
,  // measure 15
00011000
00000100
00001001
00000010
,  // measure 16
00000100
00000002
00000000
00002003
00000000
00003010
00010000
00001000
,  // measure 17
00100000
01000000
10000000
00200000
00000000
00000000
01300000
01000000
,  // measure 18
00010000
00100000
00001000
00010000
,  // measure 19
00000100
00000010
00000001
00000100
,  // measure 20
00001000
00010000
00001000
00000100
,  // measure 21
00001000
00000000
00010000
00000000
01000000
10000000
01000000
11000000
,  // measure 22
00000000
10000000
00100000
01000000
00000000
00010000
01000000
00100000
,  // measure 23
00000000
10000000
00100000
00010000
00001000
00000000
00010000
00000000
,  // measure 24
00010100
01001000
00010010
00101000
,  // measure 25
00011000
00011000
00000000
00001100
00000000
00000202
00000300
00000000
,  // measure 26
00000013
00001000
00010000
00001000
,  // measure 27
00000100
00001000
00010000
00100000
,  // measure 28
00010000
00001000
00010000
00100000
,  // measure 29
10000000
00000000
01000000
00000000
00100000
00010000
00100000
00110000
,  // measure 30
00000000
00010000
01000000
00001000
00000000
00010000
00000000
00000100
,  // measure 31
00000000
00001000
00000100
00000010
00000002
00000000
00000000
00001003
,  // measure 32
00001000
00000100
00010000
00001000
00000000
00101000
00000000
00010010
,  // measure 33
00000000
01001000
01001000
00000000
01000000
00010000
01000000
00100000
,  // measure 34
20000000
00000000
01000000
30000000
,  // measure 35
00020000
01000000
00000000
00030000
,  // measure 36
00002000
00000010
00000000
00003000
,  // measure 37
00000002
00000000
00000010
00000000
00000003
00000000
00001000
00001100
,  // measure 38
00000000
00000100
00010000
00001000
00100000
01000000
10000000
10100000
,  // measure 39
00000000
00100000
01000000
00010000
00100000
00001000
00010000
00010100
,  // measure 40
00000000
00000200
00000320
00000032
,  // measure 41
00000203
00002300
00023000
00230000
,  // measure 42
10000000
10000000
10300000
00000000
10000000
01000000
00000000
00010000
,  // measure 43
00000000
00001000
00022000
00000000
00003000
00000000
00031000
00000000
,  // measure 44
00001000
00100000
00010000
01000000
00100000
10000000
00010000
00100000
,  // measure 45
01000000
00010000
00001000
00000010
00000100
00001000
00000010
00000100
,  // measure 46
00000001
00001000
00000100
00000010
00001000
00010000
01000000
00100000
,  // measure 47
00010000
10000000
00100000
01000000
00010000
00100000
01000000
00010000
,  // measure 48
00001000
00000000
00000100
00000000
00000002
00000010
00000013
00000000
,  // measure 49
00001000
00000000
00010000
00000000
02000000
10000000
13000000
00000000
,  // measure 50
10100000
00110000
00011000
00001100
,  // measure 51
00000101
00000001
00002000
00000000
00003100
00010000
00001000
00010000
,  // measure 52
01000000
10000000
00100000
00010000
00100000
10000000
01000000
00010000
,  // measure 53
00001000
00100000
00010000
01000000
00001000
00010000
00000100
00001000
,  // measure 54
00000010
00010000
00001000
00000100
00000001
00000010
00001000
00000010
,  // measure 55
00000001
00000100
00001000
00010000
00000100
00001000
00000010
00010000
,  // measure 56
00001000
00000000
00100000
00000000
02000000
10000000
13000000
00000000
,  // measure 57
00100000
00000000
00010000
00000000
00002000
00000010
00003010
00000000
,  // measure 58
00000002
00000100
00000103
00000000
00002000
00010000
00010000
00013000
,  // measure 59
00000000
00011000
00000000
01000000
01100000
00000000
10000000
00010000
,  // measure 60
10010000
00000000
00000000
01010000
00000000
00000000
00011000
00000000
,  // measure 61
00000000
00001100
00000000
00000000
00001001
00000000
00000110
00000000
,  // measure 62
00001010
00000000
00000000
00110000
00000000
00000000
00001100
00000000
,  // measure 63
00000000
01010000
00000000
00000000
10010000
00000000
01000000
02200000
,  // measure 64
00000000
00000000
00000000
00000000
,  // measure 65
00000000
00000000
00000000
00000000
,  // measure 66
03300000
00000000
00000000
00000000
;
