#TITLE:Sequel;
#SUBTITLE:;
#ARTIST:LUCY;
#TITLETRANSLIT:;
#SUBTITLETRANSLIT:;
#ARTISTTRANSLIT:;
#GENRE:K-POP;
#CREDIT:;
#BANNER:Sequel.png;
#BACKGROUND:Sequel-bg.png;
#LYRICSPATH:;
#CDTITLE:;
#MUSIC:Sequel.ogg;
#OFFSET:-0.400000;
#SAMPLESTART:76.000000;
#SAMPLELENGTH:12.800003;
#SELECTABLE:YES;
#BPMS:0.000000=75
;
#STOPS:
;
#BGCHANGES:0.000=Sequel.mp4=1.000=0=0=0=StretchNoLoop====,
99999=-nosongbg-=1.000=0=0=0 // don't automatically add -songbackground-
;
#KEYSOUNDS:;
#ATTACKS:;

//---------------dance-single - ----------------
#NOTES:
     dance-single:
     :
     Beginner:
     1:
     0.050766,0.059361,0.024229,0.008076,0.000000,44.000000,41.000000,3.000000,1.000000,0.000000,0.000000,0.050766,0.059361,0.024229,0.008076,0.000000,44.000000,41.000000,3.000000,1.000000,0.000000,0.000000:
0000
0000
0000
0000
,
0000
0000
0000
0000
,
0000
0000
0000
0000
,
1000
0000
0000
1000
,
0000
0000
0001
0000
,
0000
0001
0000
0000
,
1000
0000
0000
0100
,
0000
0000
0010
0000
,
0000
0001
0000
0000
,
0001
0000
0000
0100
,
0000
0000
0010
0000
,
0000
1000
0000
0000
,
0010
0000
0000
0100
,
0000
0000
0001
0000
,
0000
1000
0000
0000
,
0010
0000
0000
0100
,
0000
0000
0001
0000
,
0000
1000
0000
0000
,
1001
0000
0000
0000
,
0000
0000
1001
0000
,
0000
0000
0000
0000
,
0001
0000
0000
1000
,
0000
0000
0010
0000
,
0000
0100
0000
0000
,
0010
0000
0000
0010
,
0000
0000
1000
0000
,
0000
0001
0000
0000
,
0100
0000
0000
0100
,
0000
0000
0001
0000
,
0000
1000
0000
0000
,
0010
0000
0000
0100
,
0000
0000
0010
0000
,
0000
1000
0000
0000
,
0001
0000
0000
1001
,
0000
0000
0200
0000
,
0000
0000
0000
0000
,
0000
0000
0000
0300
;

//---------------dance-single - ----------------
#NOTES:
     dance-single:
     :
     Easy:
     3:
     0.094609,0.133563,0.056535,0.056535,0.000000,82.000000,75.000000,7.000000,7.000000,0.000000,0.000000,0.094609,0.133563,0.056535,0.056535,0.000000,82.000000,75.000000,7.000000,7.000000,0.000000,0.000000:
0000
0000
0000
0000
,
0000
0000
0000
0000
,
0000
0000
0000
0000
,
1000
0000
0000
1000
0000
0000
0001
0000
,
0000
0001
0000
0000
1001
0000
0000
0000
,
0000
1001
0000
0000
,
1000
0000
0000
0010
0000
0000
1000
0000
,
0000
0010
0000
0000
1000
0000
0000
0010
,
0000
1000
0000
0000
,
0001
0000
0000
0100
0000
0000
0001
0000
,
0000
0100
0000
0000
0001
0000
0000
0100
,
0000
0001
0000
0000
,
1000
0000
0000
0010
0000
0000
0100
0000
,
0000
0001
0000
0000
1000
0000
0000
0010
,
0000
0100
0000
0000
,
0001
0000
0000
0010
0000
0000
0100
0000
,
0000
1000
0000
0000
0001
0000
0000
0010
,
0000
0100
0000
0000
,
0220
0000
0000
0000
,
0000
0330
0000
0000
2002
0000
0000
0000
,
0000
3003
0000
0000
,
1000
0000
0000
0100
0000
0000
0010
0000
,
0000
0001
0000
0000
0100
0000
0000
0010
,
0000
0100
0200
0000
0000
0300
0000
0000
,
0001
0000
0000
1000
0000
0000
0100
0000
,
0000
0010
0000
0000
0001
0000
0000
1000
,
0000
0000
0010
0000
0000
0100
0000
0000
,
0010
0000
0000
1000
0000
0000
0001
0000
,
0000
0100
0000
0000
0010
0000
0000
0100
,
0000
0000
0001
0000
0000
0010
0000
0000
,
1000
0000
0000
0100
0000
0000
0001
0000
,
0000
1000
0000
0000
0010
0000
0000
0001
,
0000
0000
0100
0000
0000
1000
0000
0000
,
0001
0000
0000
0100
0000
0010
0010
0000
,
0000
1001
0000
0000
0220
0000
0000
0000
,
0000
0000
0000
0000
,
0000
0000
0330
1001
;

//---------------dance-single - ----------------
#NOTES:
     dance-single:
     :
     Medium:
     7:
     0.191525,0.222605,0.113069,0.161527,0.121146,166.000000,152.000000,14.000000,20.000000,0.000000,0.000000,0.191525,0.222605,0.113069,0.161527,0.121146,166.000000,152.000000,14.000000,20.000000,0.000000,0.000000:
0000
0000
0000
0000
,
0000
0000
0000
0000
,
0000
0000
0000
0000
,
1000
0000
0000
1000
0000
0000
0010
0000
0000
0000
0000
0000
0001
0000
0000
0001
,
0000
0100
0000
0000
2002
0000
0000
3003
,
0000
0220
0000
0330
,
0010
0000
0000
0010
0000
0000
0010
0000
0000
0000
0000
0000
1000
0000
0000
1000
,
0000
0000
1000
0000
0000
0000
0000
0000
0001
0000
0000
0001
0000
0000
0001
0000
,
0000
0000
0000
0000
0100
0000
0000
0100
0000
0000
0100
0000
0000
0000
0000
0000
,
0010
0000
0000
1000
0000
0000
0001
0000
0000
0000
0000
0000
0100
0000
0000
0001
,
0000
1000
0000
0000
1010
0000
0000
0101
,
0000
0000
0220
0000
0000
0330
0000
0000
,
0010
0000
0000
1000
0000
0000
0010
0000
0000
1000
0000
0000
0001
0000
0000
0100
,
0000
0000
0001
0000
0000
0000
0000
0000
0010
0000
0000
0001
0000
0000
0010
0000
,
0000
0001
0000
0000
1000
0000
0000
0100
0000
0000
1000
0000
0000
0000
0000
0000
,
0001
0000
0000
0100
0000
0000
0010
0000
0000
1000
0000
0000
0001
0000
0000
0010
,
0000
0000
0100
0000
0000
0000
0000
0000
1000
0000
0000
0100
0000
0000
0010
0000
,
0000
0001
0000
0000
1000
0000
0000
0010
0000
0000
0100
0000
0000
0000
0010
0000
,
0110
0000
0100
0001
0000
0001
1000
0000
,
1000
0020
0000
0130
0101
0000
0001
0010
,
0100
0000
1000
0000
0010
0000
0000
0010
0000
0000
0020
0000
0000
0000
0130
0000
,
0100
0000
0001
0010
0000
0010
0100
0000
,
0100
1000
0000
1000
0010
0000
0010
0100
,
0001
1000
2002
0000
0000
0000
3003
0000
,
0001
0000
1000
0000
0001
0000
0100
0000
0000
0000
0001
0000
0010
0000
0000
0010
,
0000
0000
0020
0000
0000
0000
0000
0000
0130
0000
0000
0100
0000
0000
0200
0000
,
0000
1300
1000
0001
1000
1010
0000
0010
,
0200
0000
0301
0020
0000
0130
2000
0000
,
0000
3001
1000
0001
0011
0000
0010
0010
,
0001
0000
0010
0000
0100
0000
0000
0100
0000
0000
1000
0000
0010
0000
1000
0000
,
0100
0000
0000
0010
0000
0000
0001
0000
0000
1000
0000
0000
0200
0000
0000
0000
,
0000
0000
1300
0000
0010
0000
1000
0000
0001
0000
0000
0010
0000
0000
0100
0000
,
0000
1000
0000
0000
1010
0000
0001
0000
0001
0000
0010
0000
0100
0000
1000
0000
,
0010
0000
0000
0001
0000
0000
0100
0000
0000
1000
0000
0000
2002
0000
3003
0000
,
0000
0001
1000
0010
0220
0000
0000
0000
,
0000
0000
0000
0000
,
0000
0000
0330
1001
;

//---------------dance-single - ----------------
#NOTES:
     dance-single:
     :
     Hard:
     10:
     0.318440,0.385849,0.185757,0.201909,0.355360,276.000000,253.000000,23.000000,25.000000,0.000000,0.000000,0.318440,0.385849,0.185757,0.201909,0.355360,276.000000,253.000000,23.000000,25.000000,0.000000,0.000000:
// measure 0
0000
0000
0000
0000
,  // measure 1
0000
0000
0000
0000
,  // measure 2
0000
0000
0000
0000
,  // measure 3
0110
0000
0000
0010
0000
1000
0100
0000
0000
0010
0000
0001
0100
0000
0000
0010
,  // measure 4
0000
1000
0001
0000
0000
0100
0000
0002
2000
0000
0000
0000
0000
0000
0000
0000
,  // measure 5
3003
0000
0000
0000
0220
0000
0000
0000
0000
0000
0000
0000
0330
0000
0000
0010
,  // measure 6
1000
0000
1000
0001
0000
0001
0100
0000
0000
0000
0000
0100
0010
0000
0010
1000
,  // measure 7
0000
1000
0100
0000
0000
0000
0000
0100
0010
0000
0010
0001
0000
0001
0100
0000
,  // measure 8
0000
0000
0000
0100
0010
0000
0010
1000
0000
1000
0001
0000
0000
0000
0000
0001
,  // measure 9
0010
0000
0010
1000
0000
1000
0100
0000
0000
0000
0000
0100
0001
0000
0001
0010
,  // measure 10
0000
0010
1000
0000
0000
0000
0000
1000
0001
0000
0000
0000
0100
0000
0110
0000
,  // measure 11
0000
0000
0000
0002
2000
0000
0000
0000
0000
0000
0000
0000
3003
0000
0000
1000
,  // measure 12
0010
0000
0100
0001
0000
0010
0100
0000
1000
0001
0000
0010
0001
0000
1000
0100
,  // measure 13
0000
0010
0100
0000
1000
0010
1000
0010
0100
0000
0001
0010
0000
0100
1000
0000
,  // measure 14
0001
0100
0000
0010
1000
0000
0100
0010
0000
0001
2000
0000
0000
3020
0000
0130
,  // measure 15
0001
0000
0010
0100
0000
1000
0010
0000
0001
1000
0000
0100
0001
0000
0010
0100
,  // measure 16
0000
1000
0001
0000
0010
0100
0010
0100
1000
0000
0001
0010
0000
1000
0100
0000
,  // measure 17
0001
1000
0000
0200
0020
0000
0000
0000
0000
0000
0000
0000
0330
0000
0001
0000
,  // measure 18
1001
0000
1000
0010
0100
1000
0001
0010
,  // measure 19
0100
0002
0000
1003
0110
0000
1000
0010
,  // measure 20
0001
0000
0100
0000
2000
0000
0000
3002
0000
0000
0203
0000
0000
0000
0310
0000
,  // measure 21
0010
0000
1000
0000
0100
0000
1100
0000
0000
0000
1000
0000
0020
0000
0000
0230
,  // measure 22
0000
0301
0001
0010
0011
0000
0001
1001
,  // measure 23
0000
1000
0010
0100
0020
0000
0100
0000
0100
0000
0130
0000
0110
0000
0001
1000
,  // measure 24
0010
0000
1000
0000
0001
0000
0110
0000
1000
0000
0001
0000
0100
0000
1000
0100
,  // measure 25
0000
0001
0020
0000
0130
0000
0010
0000
1000
0000
0010
0001
0000
0100
2000
0000
,  // measure 26
3100
0000
1000
0000
0100
0000
0001
0000
0010
0000
0100
0200
0000
0000
0000
0000
,  // measure 27
1300
0000
1000
0010
0100
0000
1000
0000
0100
0001
0010
0000
0100
0000
0001
0100
,  // measure 28
1000
0000
1010
0000
0001
0000
0011
0000
1000
0000
0001
0100
0001
0010
0001
0000
,  // measure 29
0100
0000
0010
0000
1010
0000
0000
0101
0000
0000
1000
0020
0000
0000
0031
0000
,  // measure 30
0010
0000
0100
0001
0000
0010
1000
0000
0100
0001
0000
0010
1000
0000
0100
0000
,  // measure 31
0010
0000
0011
0000
1000
0000
0100
0010
0001
0000
0100
1000
0000
0010
0001
0000
,  // measure 32
0100
1000
0000
0010
0100
0000
0101
0000
1010
0000
1000
0100
0010
0001
1000
0010
,  // measure 33
0100
0000
0000
0101
0000
0000
0011
0000
0000
1010
0000
0000
2200
0000
0000
0000
,  // measure 34
3000
1300
0100
0001
0220
0000
0000
0000
,  // measure 35
0000
0000
0000
0000
,  // measure 36
0000
0000
0000
0000
0000
0330
1001
0000
;

//---------------dance-double - ----------------
#NOTES:
     dance-double:
     :
     Easy:
     3:
     0.093455,0.118723,0.048458,0.056535,0.000000,81.000000,75.000000,6.000000,7.000000,0.000000,0.000000,0.093455,0.118723,0.048458,0.056535,0.000000,81.000000,75.000000,6.000000,7.000000,0.000000,0.000000:
00000000
00000000
00000000
00000000
,
00000000
00000000
00000000
00000000
,
00000000
00000000
00000000
00000000
,
00001000
00000000
00000000
00001000
00000000
00000000
00010000
00000000
,
00000000
00010000
00000000
00000000
00011000
00000000
00000000
00000000
,
00000000
00011000
00000000
00000000
,
01000000
00000000
00000000
00001000
00000000
00000000
00010000
00000000
,
00000000
00001000
00000000
00000000
01000000
00000000
00000000
00001000
,
00000000
00010000
00000000
00000000
,
00000100
00000000
00000000
00010000
00000000
00000000
00001000
00000000
,
00000000
00010000
00000000
00000000
00000100
00000000
00000000
00010000
,
00000000
00001000
00000000
00000000
,
00010000
00000000
00000000
00000010
00000000
00000000
00001000
00000000
,
00000000
00000100
00000000
00000000
00010000
00000000
00000000
00000010
,
00000000
00010000
00000000
00000000
,
00001000
00000000
00000000
00100000
00000000
00000000
00010000
00000000
,
00000000
01000000
00000000
00000000
00001000
00000000
00000000
00100000
,
00000000
00001000
00000000
00000000
,
02002000
00000000
00000000
00000000
,
00000000
03003000
00000000
00000000
00020200
00000000
00000000
00000000
,
00000000
00030300
00000000
00000000
,
00010000
00000000
00000000
00001000
00000000
00000000
00000100
00000000
,
00000000
00000001
00000000
00000000
00000010
00000000
00000000
00000100
,
00000000
00000010
00000020
00000000
00000000
00000000
00000030
00000000
,
00000001
00000000
00000000
00000100
00000000
00000000
00001000
00000000
,
00000000
00010000
00000000
00000000
00100000
00000000
00000000
10000000
,
00000000
00000000
01000000
00000000
00000000
00100000
00000000
00000000
,
01000000
00000000
00000000
00010000
00000000
00000000
00001000
00000000
,
00000000
00000010
00000000
00000000
00000100
00000000
00000000
00000010
,
00000000
00000000
00000001
00000000
00000000
00000100
00000000
00000000
,
00001000
00000000
00000000
00010000
00000000
00000000
00100000
00000000
,
00000000
10000000
00000000
00000000
01000000
00000000
00000000
00010000
,
00000000
00000000
00001000
00000000
00000000
00000010
00000000
00000000
,
00000001
00000000
00000000
00000100
00000000
00001000
00001000
00000000
,
00000000
00010000
00000000
00000000
00022000
00000000
00000000
00000000
,
00000000
00000000
00000000
00000000
,
00000000
00000000
00033000
00011000
;

//---------------dance-double - ----------------
#NOTES:
     dance-double:
     :
     Medium:
     7:
     0.203063,0.222605,0.104993,0.145375,0.121146,176.000000,163.000000,13.000000,18.000000,0.000000,0.000000,0.203063,0.222605,0.104993,0.145375,0.121146,176.000000,163.000000,13.000000,18.000000,0.000000,0.000000:
00000000
00000000
00000000
00000000
,
00000000
00000000
00000000
00000000
,
00000000
00000000
00000000
00000000
,
00001000
00000000
00000000
01000000
00000000
00000000
00001000
00000000
00000000
00000000
00000000
00000000
00010000
00000000
00000000
00000010
,
00000000
00010000
00000000
00000000
00020200
00000000
00000000
00030300
,
00000000
00202000
00000000
00303000
,
00001000
00000000
00000000
00010000
00000000
00000000
00000100
00000000
00000000
00000000
00000000
00000000
00001000
00000000
00000000
00000010
,
00000000
00000000
00010000
00000000
00000000
00000000
00000000
00000000
00001000
00000000
00000000
00100000
00000000
00000000
00010000
00000000
,
00000000
00000000
00000000
00000000
01000000
00000000
00000000
00001000
00000000
00000000
00010000
00000000
00000000
00000000
00000000
00000000
,
00001000
00000000
00000000
00000100
00000000
00000000
00000001
00000000
00000000
00000000
00000000
00000000
00000010
00000000
00000000
00001000
,
00000000
00010000
00000000
00000000
00010100
00000000
00000000
01001000
,
00000000
00220000
00000000
00330000
,
00010000
00000000
00000000
00100000
00000000
00000000
01000000
00000000
00000000
10000000
00000000
00000000
00010000
00000000
00000000
00100000
,
00000000
00000000
01000000
00000000
00000000
00000000
00000000
00000000
00010000
00000000
00000000
00001000
00000000
00000000
00000100
00000000
,
00000000
00000010
00000000
00000000
00001000
00000000
00000000
00000100
00000000
00000000
00000010
00000000
00000000
00000000
00000000
00000000
,
00000001
00000000
00000000
00000100
00000000
00000000
00001000
00000000
00000000
00010000
00000000
00000000
00100000
00000000
00000000
10000000
,
00000000
00000000
00010000
00000000
00000000
00000000
00000000
00000000
10000000
00000000
00000000
01000000
00000000
00000000
00010000
00000000
,
00000000
00001000
00000000
00000000
00000010
00000000
00000000
00000001
00000000
00000000
00000100
00000000
00000000
00000000
00000010
00000000
,
00001010
00000000
00001000
00000100
00000000
00000100
00010000
00000000
,
00010000
00002000
00000000
01003000
01010000
00000000
00010000
00100000
,
01000000
00000000
10000000
00000000
00100000
00000000
00000000
00010000
00000000
00000000
00002000
00000000
00000000
00000000
00103000
00000000
,
00100000
00000000
00010000
01000000
00000000
00001000
00010000
00000000
,
00000100
00001000
00000000
00000001
00000100
00000000
00000010
00010000
,
00001000
00010000
00022000
00000000
00000000
00000000
00033000
00000000
,
00001000
00000000
00010000
00000000
00001000
00000000
01000000
00000000
00000000
00000000
00100000
00000000
10000000
00000000
00000000
01000000
,
00000000
00000000
00020000
00000000
00000000
00000000
00000000
00000000
00031000
00000000
00000000
00000010
00000000
00000000
00000002
00000000
,
00000000
00000103
00000100
00000010
00010000
00011000
00000000
00001000
,
00200000
00000000
00310000
02000000
00000000
03001000
00020000
00000000
,
00000000
00030100
00000010
00000001
00000101
00000000
00000100
00000100
,
00001000
00000000
00010000
00000000
00000100
00000000
00000000
00000010
00000000
00000000
00001000
00000000
00010000
00000000
00001000
00000000
,
00100000
00000000
00000000
01000000
00000000
00000000
10000000
00000000
00000000
00100000
00000000
00000000
00020000
00000000
00000000
00000000
,
00000000
00000000
00031000
00000000
00001000
00000000
00000100
00000000
00000001
00000000
00000000
00000010
00000000
00000000
00000100
00000000
,
00000000
00001000
00000000
00000000
00010000
00000000
01000000
00000000
01000000
00000000
00100000
00000000
10000000
00000000
01000000
00000000
,
00010000
00000000
00000000
00001000
00000000
00000000
00000010
00000000
00000000
00000001
00000000
00000000
00002002
00000000
00003003
00000000
,
00000000
00001000
00000010
00010000
00011000
00000000
00100000
01000000
,
00000000
10000000
00100000
00000000
00010000
00001000
00000000
00000100
,
00000001
00000000
00000010
00000100
00000000
00010000
00011000
00000000
;

//---------------dance-double - ----------------
#NOTES:
     dance-double:
     :
     Hard:
     11:
     0.348438,0.430370,0.169604,0.242291,0.399780,302.000000,281.000000,21.000000,30.000000,0.000000,0.000000,0.348438,0.430370,0.169604,0.242291,0.399780,302.000000,281.000000,21.000000,30.000000,0.000000,0.000000:
00000000
00000000
00000000
00000000
,
00000000
00000000
00000000
00000000
,
00000000
00000000
00000000
00000000
,
00011000
00000000
00000000
00010000
00000000
00000100
00001000
00000000
00000000
00000010
00000000
00010000
00001000
00000000
00000000
00100000
,
00000000
00010000
01000000
00000000
00000000
00001000
00000000
00020000
00000020
00000000
00000000
00000000
00000000
00000000
00000000
00000000
,
00030030
00000000
00000000
00000000
02002000
00000000
00000000
00000000
00000000
00000000
00000000
00000000
03003000
00000000
00000000
00001000
,
00010000
00000000
00010000
00000100
00000000
00000100
00000010
00000000
00000000
00000000
00000000
00000001
00000100
00000000
00000100
00001000
,
00000000
00001000
00010000
00000000
00000000
00000000
00000000
00001000
00100000
00000000
00100000
00010000
00000000
00010000
01000000
00000000
,
00000000
00000000
00000000
00100000
10000000
00000000
10000000
01000000
00000000
01000000
00010000
00000000
00000000
00000000
00000000
00001000
,
00100000
00000000
00100000
01000000
00000000
01000000
00010000
00000000
00000000
00000000
00000000
00001000
00000010
00000000
00000010
00000100
,
00000000
00000100
00010000
00000000
00000000
00000000
00000000
00010000
00001000
00000000
00000000
00000000
00100000
00000000
00101000
00000000
,
00000000
00000000
00000000
00020000
00000200
00000000
00000000
00000000
00000000
00000000
00000000
00000000
00030300
00000000
00000000
00010000
,
00001000
00000000
00000100
00000001
00000000
00000010
00000100
00000000
00010000
00001000
00000000
00100000
00010000
00000000
01000000
10000000
,
00000000
01000000
00100000
00000000
01000000
00001000
01000000
00001000
00010000
00000000
00000100
00001000
00000000
00000100
00000010
00000000
,
00000001
00000100
00000000
00001000
00010000
00000000
00100000
10000000
00000000
01000000
00200000
00000000
00000000
00302000
00000000
00013000
,
00000100
00000000
00000010
00000001
00000000
00001000
00000010
00000000
00010000
00001000
00000000
00100000
01000000
00000000
10000000
00100000
,
00000000
00010000
00001000
00000000
00010000
00000100
00010000
00000100
00000010
00000000
00000001
00000100
00000000
00001000
00010000
00000000
,
00100000
10000000
00000000
02000000
00200000
00000000
00000000
00000000
00000000
00000000
00000000
00000000
03300000
00000000
00010000
00000000
,
10010000
00000000
10000000
00100000
00010000
00001000
00000100
00000001
,
00000010
00000200
00000000
00000310
00001001
00000000
00000001
00000100
,
00001000
00000000
00010000
00000000
00200000
00000000
00000000
20300000
00000000
00000000
32000000
00000000
00000000
00000000
03100000
00000000
,
01100000
00000000
00010000
00000000
01000000
00000000
01001000
00000000
00000000
00000000
00011000
00000000
00000200
00000000
00000000
00002300
,
00000000
00003001
00000001
00000100
00000110
00000000
00001000
00011000
,
00000000
01000000
00100000
10000000
00020000
00000000
02030000
00000000
03002000
00000000
00023000
00000000
00030200
00000000
00000310
00000001
,
00000100
00000000
00001000
00000000
00010000
00000000
00011000
00000000
00001000
00000000
00010000
00000000
01000000
00000000
10000000
00100000
,
00000000
00010000
00200000
00000000
01300000
00000000
00010000
00000000
00100000
00000000
01000000
00010000
00000000
00001000
00000020
00000000
,
00000130
00000000
00001000
00000000
00000001
00000000
00000100
00000000
00000010
00000000
00010000
00002000
00000000
00000000
00000000
00000000
,
00103000
00000000
00100000
01000000
10000000
00000000
00100000
00000000
01000000
00010000
00100000
00000000
01000000
00000000
00010000
00001000
,
00000010
00000000
00000012
00000000
00000203
00000000
00002300
00000000
00013000
00000000
00010000
00001000
00100000
00000000
01000000
00000000
,
10000000
00000000
00100000
00000000
00110000
00000000
00000000
00011000
00000000
00000000
00001000
00000020
00000000
00000000
00000130
00000000
,
00000010
00000000
00000001
00000100
00000000
00001000
00000010
00000000
00000001
00000100
00000000
00001000
00000010
00000000
00000001
00000000
,
00000100
00000000
00001000
00000000
00010000
00000000
00100000
10000000
01000000
00000000
00010000
00100000
00000000
10000000
01000000
00000000
,
00010000
00100000
00000000
01000000
00010000
00000000
00011000
00000000
00001000
00000000
00000100
00000001
00000010
00000100
00001000
00000010
,
00010000
00000000
00000000
00010100
00000000
00000000
01001000
00000000
00000000
00010010
00000000
00000000
00202000
00000000
00000000
00000000
,
00303000
00000000
00100000
00000000
01000000
00000000
10000000
00000000
10010000
00000000
00010000
01000000
00010000
01000000
00001000
00000000
,
00010000
00000100
00010000
00000100
00000010
00000000
00000001
00000100
00000001
00000100
00001000
00000000
00010000
00001000
00010000
00001000
,
00100000
00000000
01000000
10000000
01000000
10000000
00100000
00000000
00010000
00001000
00010000
00001000
00011000
00000000
00000000
00000000
;
