#VERSION:0.83;
#TITLE:Say! ファンファーレ!;
#SUBTITLE:;
#ARTIST:白上フブキ;
#TITLETRANSLIT:Say! Fanfare!;
#SUBTITLETRANSLIT:;
#ARTISTTRANSLIT:Shirokami Fubuki;
#GENRE:J-MUSIC;
#ORIGIN:;
#CREDIT:MUINELIM;
#BANNER:Say! Fanfare!.png;
#BACKGROUND:Say! Fanfare!-bg.png;
#PREVIEWVID:;
#JACKET:Say! Fanfare!-jacket.png;
#CDIMAGE:;
#DISCIMAGE:;
#LYRICSPATH:;
#CDTITLE:;
#MUSIC:Say! Fanfare!.ogg;
#OFFSET:0.000000;
#SAMPLESTART:65.647064;
#SAMPLELENGTH:15.469410;
#SELECTABLE:YES;
#BPMS:0.000=170.000;
#STOPS:;
#DELAYS:;
#WARPS:;
#TIMESIGNATURES:0.000=4=4;
#TICKCOUNTS:0.000=4;
#COMBOS:0.000=1;
#SPEEDS:0.000=1.000=0.000=0;
#SCROLLS:0.000=1.000;
#FAKES:;
#LABELS:0.000=Song Start;
#BGCHANGES:0.000=Say! Fanfare!.avi=1.000=1=0=0=StretchNoLoop==CrossFade==,
99999=-nosongbg-=1.000=0=0=0 // don't automatically add -songbackground-
;
#KEYSOUNDS:;
#ATTACKS:
;

//---------------dance-single - ----------------
#NOTEDATA:;
#CHARTNAME:;
#STEPSTYPE:dance-single;
#DESCRIPTION:;
#CHARTSTYLE:;
#DIFFICULTY:Beginner;
#METER:4;
#RADARVALUES:0.158554,0.235285,0.009023,0.036094,0.000000,123.000000,122.000000,1.000000,4.000000,0.000000,0.000000,0.000000,0.000000,0.000000,0.158554,0.235285,0.009023,0.036094,0.000000,123.000000,122.000000,1.000000,4.000000,0.000000,0.000000,0.000000,0.000000,0.000000;
#CREDIT:MILEN;
#NOTES:
0000
0000
0000
0000
,
0000
0000
0000
0000
,
0000
0000
0000
0000
,
0000
0000
0000
0000
,
0000
0000
0000
0000
,
0100
0000
0100
0000
,
0010
0000
0010
0000
,
1000
0000
1000
0000
,
0001
0000
0001
0000
,
0100
0000
0010
0000
,
1000
0000
0001
0000
,
0100
0000
0100
0000
,
0100
0100
0100
0100
,
0100
0000
0000
0000
,
0001
0000
0000
0000
,
0010
0000
0000
0000
,
0100
0000
0000
0000
,
1000
0000
0000
0000
,
0010
0000
0000
0000
,
0100
0000
0000
0000
,
0010
0000
0020
0000
,
0030
0000
0000
0000
,
0000
0000
0010
0010
,
0000
0000
0000
0000
,
0000
0000
0010
0020
,
0000
0030
0010
0000
,
1000
0000
0010
0000
,
1000
0000
0001
0000
,
0100
0000
0001
0000
,
0100
0000
0001
0000
,
0001
0000
1000
0000
,
1000
0000
0001
0000
,
1000
0000
0001
0000
,
1000
1000
0000
0000
,
1000
0000
0100
0000
,
0010
0000
0001
0000
,
1000
0000
0100
0000
,
0010
0010
0010
0000
,
0000
0000
0001
0000
,
0000
0000
0100
0000
,
0000
0000
1000
0000
,
0000
0000
0010
0000
,
0010
0000
0001
0000
,
0000
0000
0100
0000
,
0000
0000
1000
0000
,
0000
0000
0010
0000
,
0010
0000
0010
0000
,
0001
0000
0100
0000
,
0010
0000
1000
0000
,
0001
0000
0010
0000
,
0100
0000
1000
0000
,
0010
0010
0010
0000
,
0100
0000
0010
0000
,
1000
0000
0001
0000
,
0010
0000
0100
0000
,
0100
0000
0100
0100
,
0100
0000
1000
0000
,
1000
0000
0001
0000
,
0001
0000
0100
0000
,
0100
0000
0010
0000
,
0010
0000
1000
0000
,
0001
0000
0100
0000
,
0010
0000
1000
0000
,
0001
0000
1000
1000
,
1000
1000
1000
0000
,
0000
0000
0010
0000
,
0000
0000
0001
0000
,
0000
0000
0100
0000
,
0000
0000
1000
0000
,
0010
0000
0001
0000
,
0100
0000
1000
0000
,
0001
0000
0100
0100
,
0010
0010
0000
2002
,
0000
0000
0000
0000
,
0000
0000
3003
0000
;

//---------------dance-single - ----------------
#NOTEDATA:;
#CHARTNAME:;
#STEPSTYPE:dance-single;
#DESCRIPTION:;
#CHARTSTYLE:;
#DIFFICULTY:Easy;
#METER:7;
#RADARVALUES:0.311952,0.369734,0.207538,0.153398,0.000000,242.000000,219.000000,23.000000,17.000000,0.000000,0.000000,0.000000,0.000000,0.000000,0.311952,0.369734,0.207538,0.153398,0.000000,242.000000,219.000000,23.000000,17.000000,0.000000,0.000000,0.000000,0.000000,0.000000;
#CREDIT:MILEN;
#NOTES:
0000
0000
0000
0000
,
0000
0000
0000
0000
,
0000
0000
0000
0000
,
0000
0000
0000
0000
,
0000
0000
0000
0000
,
1000
0001
1000
0001
,
0100
0010
0100
0010
,
1000
1001
0000
1001
,
0001
0100
0020
0130
,
0010
1000
0100
0010
,
0001
0100
0010
1000
,
0100
0100
0100
0100
,
0010
0100
0010
0110
,
0001
0000
0100
0000
,
1000
0000
0010
0000
,
0001
0000
0100
0000
,
0010
0100
0010
0010
,
1000
0000
0001
0000
,
0100
0000
0010
0000
,
1000
0001
0100
0010
,
1000
0001
2002
3003
,
0020
0000
0030
0000
,
0200
0000
0300
0000
,
0002
0000
0003
0000
,
2000
0000
0000
0000
,
0000
3000
0010
0010
,
0100
0100
0001
1000
,
0100
0010
0001
0100
,
0010
1000
0001
0010
,
0100
1000
0020
0030
,
0100
0001
0020
0030
,
0100
0100
1000
0010
,
0100
0001
1000
0100
,
0010
0002
0000
1003
,
0000
1000
0010
1000
,
0010
0001
0100
0001
,
0100
1000
0010
0001
,
0100
1000
2002
0000
,
0000
3003
0001
0100
,
0010
0100
0001
0100
,
0010
0000
1000
0010
,
0100
0010
1000
0010
,
0100
0000
0000
1001
,
1000
0100
0010
0100
,
1000
0100
0010
0000
,
0010
0000
0010
0010
,
0001
0001
0100
1000
,
0100
0001
0100
1000
,
0100
0100
0010
0001
,
0010
1000
0010
0001
,
0010
0010
0000
0110
,
1000
0001
1001
0100
,
0010
0100
0010
0000
,
1000
0000
0001
0000
,
0100
0000
0110
0000
,
1001
0000
0110
1001
,
0220
0330
0001
1000
,
0001
1000
0010
0100
,
0010
0100
0001
1001
,
0000
1001
1000
0010
,
0200
0310
0100
0001
,
0010
0100
1000
0010
,
0100
0001
0010
0010
,
0010
0010
0100
0010
,
0100
0110
0001
0100
,
1000
0000
1000
0010
,
0001
0000
0001
0101
,
0000
1100
0000
1010
,
0000
0011
0001
1000
,
0010
0100
0001
1000
,
0100
0010
0001
0100
,
1000
0010
0001
1000
,
1001
1001
0000
0220
,
0000
0000
0000
0000
,
0000
0000
0330
0000
;

//---------------dance-single - ----------------
#NOTEDATA:;
#CHARTNAME:;
#STEPSTYPE:dance-single;
#DESCRIPTION:;
#CHARTSTYLE:;
#DIFFICULTY:Medium;
#METER:10;
#RADARVALUES:0.425389,0.537794,0.171445,0.297772,0.004512,330.000000,311.000000,19.000000,33.000000,0.000000,0.000000,0.000000,0.000000,0.000000,0.425389,0.537794,0.171445,0.297772,0.004512,330.000000,311.000000,19.000000,33.000000,0.000000,0.000000,0.000000,0.000000,0.000000;
#CREDIT:MILEN;
#NOTES:
0000
0000
0000
0000
,
0000
0000
0000
0000
,
0000
0000
0000
0000
,
0000
0000
0000
0000
,
0000
0000
0000
0000
,
1000
0100
0010
0001
,
0100
0010
1000
0100
,
0010
0002
0103
2000
,
3010
0000
0001
0000
1000
0001
1001
0000
,
0001
0100
0010
1000
,
0001
0100
0010
1000
,
0002
0013
2000
3100
,
0001
0000
1000
0000
0001
1000
1001
0000
,
0100
0100
0010
0010
,
1000
1000
0001
0001
,
0100
1000
0010
0001
,
0100
0010
0100
0010
0200
0000
0310
0000
,
0010
1000
0001
0010
,
0100
1000
0001
0100
,
0010
1000
0010
0000
0100
0001
0100
0000
,
0010
1000
0001
0100
0020
0000
0130
0000
,
0200
0000
0000
0300
,
0002
0000
0000
0003
,
2000
0000
0000
3000
,
0020
0000
0000
0200
,
0000
0000
0330
0000
0110
0100
0001
0100
,
0000
0010
1000
0010
0000
0100
0001
0100
,
0001
1000
0010
0000
2000
0000
3100
0000
,
0002
0103
2000
3010
,
0002
0000
0013
0000
1001
0000
0000
0100
,
0100
0000
0010
0000
1001
0000
0000
0100
,
0100
0000
0010
0100
0010
0000
1000
0000
,
0001
0000
0100
0000
0020
0000
0100
0130
,
0000
1010
0000
0102
0000
0000
1003
0000
,
1000
0100
0010
0000
0001
0000
1000
0000
,
0001
0010
0100
0000
1000
0000
0010
0000
,
0001
0000
0100
0000
2000
0000
0000
3001
,
0001
0010
0100
1000
0020
0000
0000
0000
,
0000
0100
0130
0000
0100
0001
0010
0000
,
0001
0000
1000
0000
0010
1000
0100
0000
,
1000
0000
0001
0000
0010
0001
0010
0000
,
0100
1000
0100
0000
0010
0001
0010
0100
,
1000
0100
0020
0000
0030
0000
1001
0000
,
1000
0010
0100
0000
0010
0000
0100
0000
,
0001
0100
0010
0000
0100
0000
0010
1000
,
0100
0000
0010
0002
0000
0103
0010
0100
,
0010
0100
0010
1000
1000
0000
0100
0000
,
0001
0100
1000
0100
,
0001
0100
0010
0001
,
0010
1000
0010
0001
,
0010
0000
0100
0010
0000
0000
0110
0000
,
1000
0000
0000
0001
0000
0000
2000
0000
0000
0000
3010
0000
0010
0000
0100
0000
,
0001
0000
0100
0010
1000
1000
0000
0000
,
0001
0001
0000
0000
0100
0100
0100
0000
,
0010
0010
0010
1000
0100
0010
0000
0001
,
0010
0100
0000
1000
1001
0000
0110
0000
,
2002
3003
0001
0010
,
0100
1000
0010
0100
,
0001
0010
0100
2000
,
3010
0002
0103
1000
,
0001
1000
1001
0000
1000
0000
0010
0000
,
0100
0001
1000
0010
,
0100
0001
2000
3100
,
0002
0013
1000
0001
,
1000
0001
1001
0000
1000
0010
1000
0000
,
0010
0001
0010
0000
0001
0100
0001
0000
,
0100
1000
0100
0000
1000
0000
1010
0000
,
0001
0011
1000
1100
,
0001
0000
0101
0100
0010
0010
1000
0000
,
0100
0100
0001
0000
0100
0100
1000
0000
,
0010
0010
0001
0000
0010
0100
0010
0100
,
0001
1000
0001
1000
0200
0000
0320
0000
,
0032
0000
1000
1003
0000
0000
2002
0000
,
0000
0000
0000
0000
,
0000
0000
3003
0000
;

//---------------dance-single - ----------------
#NOTEDATA:;
#CHARTNAME:;
#STEPSTYPE:dance-single;
#DESCRIPTION:;
#CHARTSTYLE:;
#DIFFICULTY:Hard;
#METER:13;
#RADARVALUES:0.639372,0.705855,0.559451,0.234608,0.175956,496.000000,434.000000,62.000000,26.000000,0.000000,0.000000,0.000000,0.000000,0.000000,0.639372,0.705855,0.559451,0.234608,0.175956,496.000000,434.000000,62.000000,26.000000,0.000000,0.000000,0.000000,0.000000,0.000000;
#CREDIT:MILEN;
#NOTES:
0000
0000
0000
0000
,
0000
0000
0000
0000
,
0000
0000
0000
0000
,
0000
0000
0000
0000
,
0000
0000
0000
0000
,
1000
0010
0100
0000
0001
0100
0010
0000
,
1000
0100
0010
0000
0001
0010
0100
0000
,
1000
0000
0000
0010
0100
0000
0000
0000
0001
0000
0000
0100
0010
0000
0000
0000
,
1000
0100
0010
0001
0100
0010
1010
0000
,
0001
0010
0100
0000
1000
0100
0010
0000
,
0001
0100
0010
0000
1000
0010
0100
0000
,
0101
0011
1100
1010
,
0010
0000
0100
0001
0100
0000
0010
0000
1000
0000
1000
0000
1100
0000
0000
0000
,
0001
0000
0100
0000
0010
1000
0100
0010
,
0001
0100
0010
1000
0001
0010
0100
1000
,
0010
0110
0101
1010
,
1000
0100
0010
0001
0100
0000
0010
0010
,
1000
0000
0000
0001
0100
0000
0000
0000
0001
0000
0000
1000
0010
0000
0010
0000
,
0100
0001
0010
0100
1000
0000
0010
0100
,
0110
0000
0000
0010
1000
0000
0000
1000
0001
0000
0000
0001
0200
0000
0000
0000
,
0310
1000
0100
0010
0001
0100
0110
0000
,
1001
0000
0001
0100
0000
0100
0010
0000
0010
1000
0000
1000
,
0200
0000
0000
0310
0000
0010
0001
0000
0001
0200
0000
0000
,
0320
0000
1030
0000
0000
1000
0100
0000
0100
0001
0000
0001
,
0020
0000
0000
1030
0000
1000
0001
0000
0000
0220
0000
0000
,
0000
0000
0330
0000
0010
1000
0100
1100
,
0000
0001
0100
0101
0000
1000
0100
0001
,
0100
1000
0100
0010
0001
0000
0010
0100
,
1000
0000
0010
0210
0000
0302
0000
0013
,
0100
1000
0010
0100
0102
0000
0000
0010
,
0013
0000
0110
0000
2100
0000
0000
0010
,
3010
0000
0110
0100
1001
0000
0101
0000
,
1010
0000
1100
0000
0011
0000
0101
0101
,
0000
0110
0000
2002
0000
3003
1001
0000
,
0001
0100
1000
0000
1000
0010
0001
0000
,
0001
0100
1000
0000
1000
0010
0001
0100
,
0001
0010
0001
0100
0001
0010
0100
1000
,
0010
0000
0000
0100
0000
0000
0001
0000
0000
1000
0000
0000
0100
0000
0010
0000
0100
0000
0010
0000
0100
0000
0010
0000
,
0002
1003
1001
0000
0220
0000
0300
0000
,
1000
1030
0000
1100
0000
0100
0001
0100
,
0010
0001
0100
1000
0000
0000
1100
0000
,
0110
0020
0000
0130
0100
0001
0010
1000
,
0010
0100
1000
0020
0000
0030
0101
0000
,
0001
1000
0100
0001
0100
0010
0001
0100
,
0000
1000
0100
0010
2000
0000
0001
3001
,
0001
0010
0100
0110
0000
0001
0100
1000
,
0100
0000
0010
0000
0100
0000
0001
0000
0010
0100
0010
0000
0100
0000
1000
0000
,
0010
0100
0001
1000
0100
0010
0001
0100
,
1000
0100
0010
0001
0010
1000
0100
0010
,
1000
0010
0001
0010
0100
0001
0100
1000
,
0100
0010
0001
0200
0000
0300
1010
0000
,
0110
0000
0000
0101
0000
0000
2100
0000
0000
0000
3010
0000
0010
0000
0100
0000
,
0001
0010
0100
1000
0010
0110
0000
0000
,
0001
1001
0000
0000
1010
0100
0001
0010
,
0011
0100
1000
0010
0010
0110
0000
0001
,
0001
1001
0000
1100
1100
0000
0011
0000
,
0220
0000
0330
0000
0001
0010
0100
0000
,
1000
0100
0010
0000
0001
0100
0010
0000
,
1000
0000
0010
0000
0100
0000
0000
0000
0001
0000
0000
0010
0100
0000
0000
0000
,
1000
0000
0000
0100
0010
0000
0000
0000
0001
0000
0100
0000
0010
0000
1000
0000
,
0100
0010
0011
0000
1000
0010
0100
0000
,
0001
0100
0010
0000
1000
0100
0010
0000
,
0001
0010
0100
0000
1100
0000
1010
0000
,
0101
0000
0000
0000
0011
0000
0000
0001
0100
0000
0000
0100
0010
0000
0000
0010
,
1000
0000
0000
1000
0001
0000
0100
0000
0010
0100
0010
0000
1000
0000
0100
0000
,
0001
0100
0010
0100
1000
0001
0010
0100
,
0010
0000
1000
0000
0010
0000
0001
0000
0100
0000
0010
1000
0001
0000
0000
0000
,
0100
0000
0010
1000
0001
0000
0000
0000
0010
0000
0100
0000
1000
0000
0010
0000
,
0100
0001
1001
0000
1000
0010
0110
0000
,
0001
0100
0110
0000
1000
0100
0110
0000
,
0001
0000
0010
0000
0110
0000
0000
0100
1000
0000
0000
1000
0010
0000
0000
0010
,
0100
0000
0000
0100
0001
0000
0010
0000
0100
0000
1000
0010
1000
0000
0001
0000
,
0200
0010
0010
0310
0000
0000
2002
0000
,
0000
0000
0000
0000
,
0000
0000
3003
0000
;

//---------------dance-double - ----------------
#NOTEDATA:;
#CHARTNAME:;
#STEPSTYPE:dance-double;
#DESCRIPTION:;
#CHARTSTYLE:;
#DIFFICULTY:Easy;
#METER:7;
#RADARVALUES:0.299061,0.336122,0.180468,0.153398,0.000000,232.000000,212.000000,20.000000,17.000000,0.000000,0.000000,0.000000,0.000000,0.000000,0.299061,0.336122,0.180468,0.153398,0.000000,232.000000,212.000000,20.000000,17.000000,0.000000,0.000000,0.000000,0.000000,0.000000;
#CREDIT:MILEN;
#NOTES:
00000000
00000000
00000000
00000000
,
00000000
00000000
00000000
00000000
,
00000000
00000000
00000000
00000000
,
00000000
00000000
00000000
00000000
,
00000000
00000000
00000000
00000000
,
00001000
00010000
00001000
00010000
,
00100000
01000000
00100000
01000000
,
00100000
10100000
00000000
01010000
,
00010000
00100000
00002000
00013000
,
00010000
00000100
00000010
00000001
,
00000100
00000010
00001000
00000100
,
00000010
00000001
00000100
00001000
,
00010000
00100000
01000000
01100000
,
10000000
00000000
01000000
00000000
,
00010000
00000000
01000000
00000000
,
10000000
00000000
01000000
00000000
,
00010000
00001000
00010000
00000010
,
00000110
00000000
00000001
00000000
,
00000010
00000000
00001000
00000000
,
00000010
00000000
00000001
00000000
,
00000010
00001000
00022000
00033000
,
02000000
00000000
03000000
00000000
,
00002000
00000000
00003000
00000000
,
00020000
00000000
00030000
00000000
,
00000200
00000000
00000000
00000000
,
00000000
00000300
00000010
00000010
,
00000001
00000001
00000100
00001000
,
00010000
00001000
00000100
00001000
,
00010000
01000000
00010000
00001000
,
00010000
01000000
20000000
30000000
,
00100000
01000000
00020000
00030000
,
00100000
00100000
01000000
00010000
,
00001000
00000010
00000100
00000010
,
00000001
00000200
00000000
00000310
,
00000000
00000010
00010000
00000010
,
00010000
00001000
00100000
00001000
,
00100000
00010000
01000000
00100000
,
00010000
00001000
00022000
00000000
,
00000000
00033000
00010000
00000100
,
00000010
00000000
00000001
00000100
,
00001000
00000000
00010000
00100000
,
10000000
00000000
01000000
00100000
,
00001000
00000000
00000000
00011000
,
00010000
01000000
00100000
01000000
,
10000000
01000000
00100000
00000000
,
00001000
00000000
00011000
00010000
,
00000100
00000100
00000010
00000001
,
00000100
00000000
00001000
00010000
,
01000000
00000000
10000000
00100000
,
00010000
00000000
00001000
00000100
,
00000001
00000001
00000000
00000011
,
00001000
00001000
00000100
00010000
,
00001000
00100000
01000000
00000000
,
00100000
00000000
01000000
00000000
,
00100000
00000000
01100000
00000000
,
10010000
00000000
01100000
00010000
,
00022000
00033000
00010000
00001000
,
00010000
00001000
00000100
00000010
,
00000100
00000010
00000100
00000101
,
00000000
00001010
00001000
00000100
,
00020000
00031000
00001000
00100000
,
01000000
10000000
00100000
01000000
,
00010000
00100000
01000000
10000000
,
00100000
00010000
00001000
00000100
,
00000010
00000110
00001000
00000100
,
00000010
00000000
00000001
00000010
,
00000100
00000000
00010000
00011000
,
00000000
01000000
00000000
00011000
,
00000000
00000010
00010000
00001000
,
00000100
00001000
00010000
01000000
,
00010000
00001000
00000010
00001000
,
00010000
00100000
00010000
00001000
,
00010000
00011000
00000000
00022000
,
00000000
00000000
00000000
00000000
,
00000000
00000000
00033000
00000000
;

//---------------dance-double - ----------------
#NOTEDATA:;
#CHARTNAME:;
#STEPSTYPE:dance-double;
#DESCRIPTION:;
#CHARTSTYLE:;
#DIFFICULTY:Medium;
#METER:10;
#RADARVALUES:0.424100,0.504182,0.234608,0.207538,0.004512,329.000000,303.000000,26.000000,23.000000,0.000000,0.000000,0.000000,0.000000,0.000000,0.424100,0.504182,0.234608,0.207538,0.004512,329.000000,303.000000,26.000000,23.000000,0.000000,0.000000,0.000000,0.000000,0.000000;
#CREDIT:MILEN;
#NOTES:
00000000
00000000
00000000
00000000
,
00000000
00000000
00000000
00000000
,
00000000
00000000
00000000
00000000
,
00000000
00000000
00000000
00000000
,
00000000
00000000
00000000
00000000
,
00001000
00010000
00100000
01000000
,
00100000
00010000
00001000
00000100
,
00000001
00000011
00000001
00000101
,
00000001
00000000
00000010
00000000
00001000
00010000
00001000
00000000
,
00010000
01000000
10000000
00100000
,
01000000
00010000
00100000
01000000
,
10000000
11000000
10000000
10100000
,
10000000
00000000
01000000
00000000
00010000
00001000
00010000
00000000
,
00000100
00000100
00000010
00000010
,
00000001
00000100
00001000
00010000
,
01000000
10000000
00100000
00010000
,
00001000
00010000
00001000
00010000
00002000
00000000
00003010
00000000
,
00000010
00000001
00000100
00000010
,
00010000
00001000
01000000
00100000
,
10000000
00010000
10000000
00000000
00010000
10000000
00010000
00000000
,
01000000
00100000
01000000
00100000
01000000
00000000
01100000
00000000
,
02000000
00000000
00000000
03000000
,
00002000
00000000
00000000
00003000
,
00020000
00000000
00000000
00030000
,
00000200
00000000
00000000
00000020
,
00000000
00000330
00000110
00000001
,
00000100
00000000
00001000
00000000
00010000
00000000
00100000
10000000
,
00100000
10000000
00100000
00000000
10000000
00000000
11000000
00000000
,
00010000
01010000
00001000
00011000
,
00000010
00000000
00001010
00000000
00000002
00000000
00000000
00000103
,
00000100
00000000
00001000
00000000
00020000
00000000
00000000
00130000
,
00100000
00000000
10000000
01000000
00100000
00000000
00010000
00000000
,
01000000
00000000
00001000
00000000
00020000
00000000
00030100
00000100
,
00000000
00001100
00000000
00000012
00000000
00000000
00000103
00000000
,
00000100
00001000
00010000
00000000
00001000
00000000
00010000
00000000
,
01000000
00010000
00001000
00000000
00010000
00000000
00001000
00000000
,
00000100
00000000
00000001
00000000
00000020
00000000
00000000
00001030
,
00001000
00010000
00001000
00010000
00200000
00000000
00000000
00000000
,
00000000
10000000
10300000
00000000
10000000
01000000
00010000
00000000
,
01000000
00000000
00010000
00000000
01000000
00010000
00001000
00000000
,
00010000
00000000
00001000
00000000
00010000
00001000
00000010
00000000
,
00000001
00000000
00000100
00000000
00010000
00001000
00010000
00001000
,
01000000
00100000
02000000
00000000
03000000
00000000
10010000
00000000
,
10000000
00100000
00010000
00000000
00100000
00000000
00010000
00000000
,
00100000
00010000
00001000
00000000
00010000
00000000
00001000
00010000
,
00000100
00000000
00001000
00000200
00000000
00000310
00000001
00000010
,
00000001
00000010
00002000
00000000
00013000
00000000
00010000
00000000
,
01000000
10000000
00100000
00010000
,
00100000
01000000
00100000
00010000
,
00001000
00000100
00000010
00000100
,
00001000
00000000
00000100
00000001
00000000
00000000
00000011
00000000
,
00001000
00000000
00000000
00001000
00000000
00000000
00002000
00000000
00000000
00000000
00003100
00000000
00000100
00000000
00010000
00000000
,
00001000
00000000
01000000
00001000
00010000
00010000
00000000
00000000
,
00001000
00001000
00000000
00000000
00010000
00001000
00011000
00000000
,
00001000
00010000
00011000
00000000
00001000
00010000
00000000
01000000
,
10000000
00100000
00000000
00010000
00001000
00000000
00010000
00000000
,
00022000
00033000
00010000
00001000
,
00000010
00000100
00000010
00001000
,
00010000
01000000
10000000
10100000
,
10000000
11000000
10000000
00100000
,
00010000
00001000
00010000
00000000
00001000
00000000
00000100
00000000
,
00000001
00000010
00000100
00001000
,
00000010
00000100
00000001
00000101
,
00000001
00000011
00000001
00000100
,
00001000
00010000
00001000
00000000
00010000
01000000
10000000
00000000
,
00100000
00000000
00010000
00000000
00001000
00000100
00000001
00000000
,
00000010
00001000
00010000
00010100
,
00001000
01001000
00010000
00010010
,
00001000
00000000
00101000
00100000
00010000
01000000
01000000
00000000
,
00001000
00010000
00010000
00000000
00000100
00001000
00001000
00000000
,
00000100
00000010
00000010
00000000
00000001
00000100
00001000
00000100
,
00001000
00010000
00100000
10000000
02000000
00000000
03200000
00000000
,
00302000
00000000
00010000
00013000
00000000
00000000
00022000
00000000
,
00000000
00000000
00000000
00000000
,
00000000
00000000
00033000
00000000
;

//---------------dance-double - ----------------
#NOTEDATA:;
#CHARTNAME:;
#STEPSTYPE:dance-double;
#DESCRIPTION:;
#CHARTSTYLE:;
#DIFFICULTY:Hard;
#METER:13;
#RADARVALUES:0.620036,0.672243,0.460193,0.225585,0.148886,481.000000,430.000000,51.000000,25.000000,0.000000,0.000000,0.000000,0.000000,0.000000,0.620036,0.672243,0.460193,0.225585,0.148886,481.000000,430.000000,51.000000,25.000000,0.000000,0.000000,0.000000,0.000000,0.000000;
#CREDIT:MILEN;
#NOTES:
// measure 0
00000000
00000000
00000000
00000000
,  // measure 1
00000000
00000000
00000000
00000000
,  // measure 2
00000000
00000000
00000000
00000000
,  // measure 3
00000000
00000000
00000000
00000000
,  // measure 4
00000000
00000000
00000000
00000000
,  // measure 5
00001000
00010000
01000000
00000000
00010000
00001000
00000100
00000000
,  // measure 6
00001000
00010000
00100000
00000000
00010000
00001000
00000010
00000000
,  // measure 7
00000001
00000000
00000000
00000100
00000010
00000000
00000000
00000000
00001000
00000000
00000000
00000010
00000100
00000000
00000000
00000000
,  // measure 8
00000001
00001000
00000100
00000010
00001000
00010000
01000000
00000000
,  // measure 9
00100000
10000000
01000000
00000000
00100000
00010000
01000000
00000000
,  // measure 10
00001000
00010000
00000100
00000000
00001000
00000100
00000010
00000000
,  // measure 11
00000011
00001100
01010000
10100000
,  // measure 12
10000000
00000000
01000000
00100000
01000000
00000000
00010000
00000000
00001000
00000000
00010000
00000000
00000020
00000000
00000000
00000000
,  // measure 13
00000130
00000000
00000001
00000000
00001000
00000100
00000010
00000001
,  // measure 14
00000100
00000010
00001000
00000100
00000010
00000001
00000100
00001000
,  // measure 15
00010000
00011000
01000000
10010000
,  // measure 16
00010000
00100000
01000000
10000000
00100000
00000000
01000000
01000000
,  // measure 17
00010000
00000000
00000000
00100000
01000000
00000000
00000000
00000000
10000000
00000000
00000000
01000000
00100000
00000000
00100000
00000000
,  // measure 18
01000000
00010000
00001000
00000010
00000001
00000000
00000100
00000010
,  // measure 19
00000110
00000000
00000000
00000010
00001000
00000000
00000000
00001000
00000100
00000000
00000000
00000100
00020000
00000000
00000000
00000000
,  // measure 20
00031000
00010000
01000000
10000000
01000000
00100000
00010000
00000000
,  // measure 21
10010000
00000000
00010000
01000000
00000000
01000000
00001000
00000000
00001000
00010000
00000000
00010000
,  // measure 22
00000200
00000000
00000000
00000310
00000000
00000010
00000001
00000000
00000001
00000200
00000000
00000000
,  // measure 23
00000320
00000000
00010030
00000000
00000000
00010000
00001000
00000000
00001000
00100000
00000000
00100000
,  // measure 24
02000000
00000000
00000000
13000000
00000000
10000000
00100000
00000000
00000000
02200000
00000000
00000000
,  // measure 25
00000000
00000000
03300000
00000000
01000000
00001000
00010000
00010000
,  // measure 26
00000000
01000000
00001000
00010000
00000000
00001000
01000000
00010000
,  // measure 27
01000000
00001000
00010000
00001000
00000100
00000000
00000001
00000010
,  // measure 28
00001000
00000000
00010000
00012000
00000000
00203000
00000000
01300000
,  // measure 29
10000000
00100000
00010000
00001000
00021000
00000000
00000000
00000100
,  // measure 30
00030100
00000000
00000110
00000000
00000012
00000000
00000000
00000100
,  // measure 31
00000103
00000000
00001100
00010000
00011000
00000000
01010000
00000000
,  // measure 32
11000000
00000000
10100000
00000000
00110000
00000000
00011000
00011000
,  // measure 33
00000000
00010010
00000000
00202000
00003000
00000000
00310000
00000000
,  // measure 34
00010000
01000000
10000000
00000000
10000000
00100000
00010000
00000000
,  // measure 35
00001000
00000100
00000001
00000000
00000001
00000010
00001000
00000100
,  // measure 36
00000010
00000100
00001000
00000100
00000001
00000100
00001000
00000100
,  // measure 37
00000001
00000100
00000010
00000001
00000100
00001000
00010000
00100000
,  // measure 38
10000000
00010000
10010000
00000000
02200000
00000000
03000000
00000000
,  // measure 39
10000000
10300000
00000000
11000000
00000000
01000000
00010000
00001000
,  // measure 40
00010000
00000100
00000010
00000001
00000000
00000000
00000101
00000000
,  // measure 41
00001100
00000200
00000000
00000310
00000010
00000001
00000010
00001000
,  // measure 42
00000010
00000100
00001000
00000020
00000000
00000030
00000101
00000000
,  // measure 43
00000001
00000010
00001000
00010000
00001000
00100000
01000000
10000000
,  // measure 44
00000000
00100000
00010000
00100000
02000000
00000000
03100000
00100000
,  // measure 45
10000000
01000000
00100000
00010000
00000000
00001000
00000010
00000100
,  // measure 46
00000010
00000000
00000001
00000000
00000010
00000000
00001000
00000000
00000100
00000010
00000100
00000000
00000010
00000000
00000001
00000000
,  // measure 47
00000100
00001000
00010000
00001000
00000010
00001000
00010000
00100000
,  // measure 48
00010000
00001000
00010000
01000000
00010000
00001000
00100000
01000000
,  // measure 49
10000000
00100000
00010000
00100000
01000000
00010000
00100000
01000000
,  // measure 50
00010000
00001000
00000010
00000002
00000000
00000003
00001100
00000000
,  // measure 51
00001000
00000000
00000000
00001000
00000000
00000000
00000020
00000000
00000000
00000000
00010030
00000000
00001000
00000000
00010000
00000000
,  // measure 52
00100000
01000000
00100000
10000000
01000000
01100000
00000000
00000000
,  // measure 53
00100000
00101000
00000000
00000000
00010010
00010000
00001000
00000100
,  // measure 54
00000001
00000010
00000100
00001000
00001000
00001010
00000000
00010000
,  // measure 55
00010000
00011000
00000000
01001000
01001000
00000000
00010100
00000000
,  // measure 56
00022000
00000000
00033000
00000000
00010000
00001000
00000100
00000000
,  // measure 57
00001000
00010000
01000000
00000000
00010000
00001000
00000010
00000000
,  // measure 58
00001000
00000000
00010000
00000000
00100000
00000000
00000000
00000000
10000000
00000000
00000000
01000000
00100000
00000000
00000000
00000000
,  // measure 59
00010000
00000000
00000000
00100000
01000000
00000000
00000000
00000000
10000000
00000000
00010000
00000000
01000000
00000000
00100000
00000000
,  // measure 60
00010000
00001000
00000100
00000000
00000010
00000001
00000100
00000000
,  // measure 61
00000010
00001000
00000100
00000000
00010000
00001000
01000000
00000000
,  // measure 62
00010000
01000000
00100000
00000000
10100000
00000000
01010000
00000000
,  // measure 63
00001100
00000000
00000000
00000000
00000011
00000000
00000000
00000001
00000100
00000000
00000000
00000100
00001000
00000000
00000000
00001000
,  // measure 64
00010000
00000000
00000000
00010000
01000000
00000000
10000000
00000000
00100000
01000000
00100000
00000000
00010000
00000000
00100000
00000000
,  // measure 65
01000000
00100000
10000000
01000000
00100000
00001000
00010000
00000100
,  // measure 66
00000010
00000001
00000100
00001000
00010000
00000100
00010100
00000000
,  // measure 67
00001000
01000000
01001000
00000000
00010000
00000010
00010000
00001000
,  // measure 68
00100000
00001000
00011000
00000000
00010000
00100000
11000000
00000000
,  // measure 69
00100000
00001000
00011000
00000000
00001000
00000010
00000101
00000000
,  // measure 70
00000010
00000000
00010000
00000000
00011000
00000000
00000000
00001000
00100000
00000000
00000000
00100000
01000000
00000000
00000000
01000000
,  // measure 71
10000000
00000000
00000000
10000000
00100000
00000000
00010000
00000000
00001000
00000000
00100000
01000000
00100000
00000000
01000000
00000000
,  // measure 72
00010000
00001000
00000010
00000100
00000000
00000000
00022000
00000000
,  // measure 73
00000000
00000000
00000000
00000000
,  // measure 74
00000000
00000000
00033000
00000000
;
