#VERSION:0.83;
#TITLE:Sarabande;
#SUBTITLE:;
#ARTIST:MAX;
#TITLETRANSLIT:;
#SUBTITLETRANSLIT:;
#ARTISTTRANSLIT:;
#GENRE:VARIETY;
#ORIGIN:;
#CREDIT:MUINELIM;
#BANNER:Sarabande.png;
#BACKGROUND:Sarabande-bg.png;
#PREVIEWVID:;
#JACKET:Sarabande-jacket.png;
#CDIMAGE:;
#DISCIMAGE:;
#LYRICSPATH:;
#CDTITLE:;
#MUSIC:Sarabande.mp3;
#OFFSET:0.150000;
#SAMPLESTART:56.792850;
#SAMPLELENGTH:10.700634;
#SELECTABLE:YES;
#DISPLAYBPM:157.000000;
#BPMS:0.000=157.000,
41.000=314.000,
43.000=157.000,
71.000=78.500,
72.000=157.000,
102.000=78.500,
103.000=157.000,
137.000=78.500,
139.000=314.000,
143.000=157.000,
217.000=78.500,
218.000=157.000,
232.000=78.500,
233.000=314.000,
237.000=157.000;
#STOPS:41.000=1.911,
175.000=0.382,
175.500=0.382;
#DELAYS:;
#WARPS:;
#TIMESIGNATURES:0.000=4=4;
#TICKCOUNTS:0.000=4;
#COMBOS:0.000=1;
#SPEEDS:0.000=1.000=0.000=0;
#SCROLLS:0.000=1.000;
#FAKES:;
#LABELS:0.000=Song Start;
#KEYSOUNDS:;
#ATTACKS:
;

//---------------dance-single - ----------------
#NOTEDATA:;
#CHARTNAME:;
#STEPSTYPE:dance-single;
#DESCRIPTION:;
#CHARTSTYLE:;
#DIFFICULTY:Challenge;
#METER:16;
#RADARVALUES:0.763488,1.028058,0.800763,0.629814,0.719787,594.000000,505.000000,89.000000,70.000000,0.000000,0.000000,0.000000,0.000000,0.000000,0.763488,1.028058,0.800763,0.629814,0.719787,594.000000,505.000000,89.000000,70.000000,0.000000,0.000000,0.000000,0.000000,0.000000;
#CREDIT:MILEN;
#DISPLAYBPM:157.000000;
#NOTES:
// measure 0
0000
0000
0000
0000
,  // measure 1
0000
0000
0000
0000
,  // measure 2
0000
0000
0000
0000
2002
0000
0000
0000
3000
0000
0000
0000
0023
0000
0000
0230
,  // measure 3
0000
2300
0020
0000
0000
0000
0000
0000
,  // measure 4
3030
0000
0000
0000
0202
0000
0003
0000
0000
0000
0320
0000
2030
0000
0000
3200
,  // measure 5
0000
0320
0002
0000
0000
0000
0033
0000
,  // measure 6
0101
0000
0100
0010
2000
0000
0000
0000
0000
0000
3002
0000
0023
0000
0000
0230
,  // measure 7
0000
2300
0002
0000
0000
0000
3003
0000
,  // measure 8
0011
0000
0000
0000
2200
0000
0300
0000
0000
0000
3020
0000
0032
0000
0000
0203
,  // measure 9
0000
2300
0002
0000
0000
0000
0000
0000
,  // measure 10
0000
0000
3003
0101
,  // measure 11
1100
1010
0011
1010
,  // measure 12
1100
0101
0011
0101
,  // measure 13
1100
0000
1010
0000
0011
0000
1001
0100
,  // measure 14
0020
0000
0000
0000
0130
0000
0100
0001
0100
0000
0010
1000
0020
0000
0030
0000
,  // measure 15
1010
1100
0101
0011
,  // measure 16
0101
1100
1010
0011
,  // measure 17
1010
0000
1100
0000
0101
0000
0022
0033
,  // measure 18
0001
0010
0100
1000
0001
0010
0100
1000
0020
0000
0000
0000
0130
0000
0101
0000
,  // measure 19
0000
0001
0011
0000
0010
0110
0000
0100
,  // measure 20
1100
0000
1000
1010
0000
0001
0011
0000
,  // measure 21
1000
1100
0000
0001
0101
0000
1000
1001
,  // measure 22
0000
0000
0010
0000
0110
0000
0100
0001
0020
0000
0030
0000
0100
1000
0200
0000
,  // measure 23
0000
0000
0310
0001
0020
0000
0000
0000
0031
0100
0002
0000
0000
0000
1003
0010
,  // measure 24
2000
0000
0000
0000
3100
0010
0002
0000
0000
0000
1003
0010
0200
0000
0000
0000
,  // measure 25
0301
1000
0020
0000
0000
0000
0130
0001
2000
0000
0000
0000
3100
0010
0001
1000
,  // measure 26
0100
0010
0001
1000
0200
0000
0300
0000
0110
0000
0000
0000
1001
0000
0000
0000
,  // measure 27
1010
0000
0002
0000
0000
0000
0000
0000
0200
0000
0303
0000
0001
0010
0100
1000
,  // measure 28
0001
0010
0100
1000
0020
0000
0030
0000
0110
0000
2002
0000
0000
0000
3003
0000
,  // measure 29
1010
0000
0000
0000
0202
0000
0000
0000
0303
0000
0000
0000
0001
0100
0010
1000
,  // measure 30
0001
0100
0010
1000
0001
0000
0010
0000
0100
1000
0100
0000
1000
0000
0100
0000
,  // measure 31
0010
0001
0010
0000
0001
0000
0100
0000
0010
1000
0010
0000
1000
0000
0010
0000
,  // measure 32
0100
0001
0100
0000
0001
0010
0100
0000
1000
0010
0100
0000
0001
0100
0010
0000
,  // measure 33
1000
0100
0010
0000
0001
0100
0001
0100
0001
1000
0001
1000
0010
1000
0010
1000
,  // measure 34
0100
0010
0001
0200
0020
0000
0000
0000
0000
0000
0000
0000
0000
0000
0000
0000
,  // measure 35
0000
0000
0000
0000
0000
0000
0000
0000
0330
0000
0000
0000
1010
0000
0000
0101
,  // measure 36
0000
0000
0001
0010
0100
0000
0000
1100
0000
0000
0011
0000
0001
0100
0000
0100
,  // measure 37
0010
0000
0010
1000
0000
1000
0100
0000
0010
0100
0010
0000
0011
0000
0000
1100
,  // measure 38
0000
0000
1000
0010
0200
0000
0000
0000
0301
0010
0001
0010
0001
1000
0000
1000
,  // measure 39
0010
0000
0010
0100
0000
0100
0001
0000
0010
0000
0100
1000
0010
0000
0000
0110
,  // measure 40
0000
0000
0100
0001
0010
0000
0000
0110
0000
0000
0100
0000
1000
0000
0010
0100
,  // measure 41
0000
0100
0001
0000
0001
1000
0000
1000
0010
0000
0100
0001
1000
0000
0010
1000
,  // measure 42
0000
1000
0001
0000
0101
0000
0000
1010
0000
0000
1100
0000
0022
0000
0000
0000
,  // measure 43
0000
0000
0000
0000
0000
0000
0033
0000
0001
0100
0010
1000
1001
0000
0110
0000
,  // measure 44
1001
0000
1000
0100
0020
0000
0031
0100
0010
0000
1000
0010
0100
0000
0001
1000
,  // measure 45
0100
0000
1000
0001
0010
0000
0001
0100
1000
0000
0100
0010
0100
0000
1000
0100
,  // measure 46
0001
0000
0010
0100
1000
0100
0000
0100
0010
0000
0010
0001
0000
0001
0100
0000
,  // measure 47
0110
0000
0010
1000
0200
0000
0310
0100
1000
0000
0010
0100
0001
0000
0100
0010
,  // measure 48
1000
0000
0001
0010
0100
0000
1000
0010
0001
0000
0010
0100
0010
0000
0001
0010
,  // measure 49
1000
0000
0100
0010
0002
0000
1000
0000
1000
0000
1003
0000
1000
0010
1000
0010
,  // measure 50
1000
0010
1000
0010
0100
0001
0010
0100
1000
0010
0100
0001
1000
0100
0010
0001
,  // measure 51
0100
0010
1000
0001
0200
0000
0300
0000
1100
0000
0000
0000
1010
0000
0000
0000
,  // measure 52
0011
0101
0011
1010
,  // measure 53
1100
0101
1100
1010
,  // measure 54
0011
0000
0000
0000
0202
0000
0303
0000
1010
0000
1000
0010
0100
0000
0001
0100
,  // measure 55
0020
0030
1010
0000
1100
0000
0101
0000
,  // measure 56
0011
0101
1100
1010
,  // measure 57
0011
1010
1100
0101
,  // measure 58
0022
0000
0000
0000
,  // measure 59
0033
0000
0000
0000
0001
0100
0001
0100
0010
0000
0100
0001
0100
0001
0010
0000
,  // measure 60
0001
0010
0200
0000
1300
0010
1000
0010
0100
0000
0010
1000
0010
1000
0100
0000
,  // measure 61
0010
0100
2000
0000
3100
0010
0001
0000
0010
0100
1000
0000
0010
0100
0001
0000
,  // measure 62
0100
0010
1000
0000
0001
0010
0001
0010
0100
1000
0100
1000
0001
0100
0010
1000
,  // measure 63
0100
0010
0001
1000
0020
0000
0130
0001
1000
0000
0010
1000
0001
0000
0010
0100
,  // measure 64
1000
0000
1010
0000
0020
0100
0031
0000
0020
0100
1030
0000
0020
0100
0031
1000
,  // measure 65
0100
0000
0010
0001
0100
0010
0100
0001
0100
0010
0100
1000
0100
0010
0100
0001
,  // measure 66
0100
0010
0100
1000
0100
0010
1000
0100
0010
0001
0100
0010
0001
0010
0100
0001
,  // measure 67
0010
0100
1000
0200
0020
0000
0000
0000
0000
0000
0000
0000
0000
0000
0000
0000
,  // measure 68
0000
0000
0000
0000
,  // measure 69
0000
0330
0000
0000
;

//---------------dance-double - ----------------
#NOTEDATA:;
#CHARTNAME:;
#STEPSTYPE:dance-double;
#DESCRIPTION:;
#CHARTSTYLE:;
#DIFFICULTY:Challenge;
#METER:16;
#RADARVALUES:0.757062,0.965752,0.791766,0.620816,0.692795,589.000000,501.000000,88.000000,69.000000,0.000000,0.000000,0.000000,0.000000,0.000000,0.757062,0.965752,0.791766,0.620816,0.692795,589.000000,501.000000,88.000000,69.000000,0.000000,0.000000,0.000000,0.000000,0.000000;
#CREDIT:MILEN;
#DISPLAYBPM:157.000000;
#NOTES:
00000000
00000000
00000000
00000000
,
00000000
00000000
00000000
00000000
,
00000000
00000000
00000000
00000000
00022000
00000000
00000000
00000000
00003000
00000000
00000000
00000000
00230000
00000000
00000000
20300000
,
00000000
32000000
00020000
00000000
00000000
00000000
00000000
00000000
,
03030000
00000000
00000000
00000000
00022000
00000000
00030000
00000000
00000000
00000000
00003200
00000000
00000302
00000000
00000000
00000023
,
00000000
00002030
00020000
00000000
00000000
00000000
00033000
00000000
,
00011000
00000000
00001000
01000000
00020000
00000000
00000000
00000000
00000000
00000000
00230000
00000000
02300000
00000000
00000000
23000000
,
00000000
30200000
00020000
00000000
00000000
00000000
00330000
00000000
,
00011000
00000000
00000000
00000000
00022000
00000000
00030000
00000000
00000000
00000000
00003200
00000000
00000302
00000000
00000000
00000023
,
00000000
00002030
00020000
00000000
00000000
00000000
00000000
00000000
,
00000000
00000000
00033000
00011000
,
01010000
11000000
01010000
00011000
,
00001010
00000011
00001010
00011000
,
00110000
00000000
10100000
00000000
11000000
00000000
01010000
00010000
,
00002000
00000000
00000000
00000000
00003010
00000000
00000010
00000001
00000100
00000000
00000010
00001000
00000200
00000000
00000300
00000000
,
00010100
00011000
01001000
00011000
,
00010010
00011000
00101000
00011000
,
00001010
00000000
00011000
00000000
01010000
00000000
00022000
00033000
,
00001000
00010000
00100000
01000000
00001000
00010000
00100000
01000000
00200000
00000000
00000000
00000000
10300000
00000000
11000000
00000000
,
00000000
01000000
01010000
00000000
00010000
00011000
00000000
00001000
,
00001010
00000000
00000010
00000011
00000000
00000001
00000101
00000000
,
00000100
00001100
00000000
00001000
00011000
00000000
00010000
00110000
,
00000000
00000000
00100000
00000000
10100000
00000000
10000000
01000000
00200000
00000000
00300000
00000000
01000000
00010000
00002000
00000000
,
00000000
00000000
00013000
00001000
00000020
00000000
00000000
00000000
00001030
00000010
00000002
00000000
00000000
00000000
00000103
00001000
,
00020000
00000000
00000000
00000000
00031000
00010000
00200000
00000000
00000000
00000000
00310000
00100000
20000000
00000000
00000000
00000000
,
31000000
00100000
00002000
00000000
00000000
00000000
00013000
00000100
00000020
00000000
00000000
00000000
00000031
00000100
00000010
00001000
,
00000001
00000100
00000010
00001000
00000200
00000000
00000300
00000000
00000110
00000000
00000000
00000000
00000011
00000000
00000000
00000000
,
00001100
00000000
00000100
00000000
00010000
00000000
00001000
00000000
02000000
00000000
00000000
00000000
03010000
00100000
01000000
10000000
,
00010000
00100000
01000000
10000000
00020000
00000000
00030000
00000000
00110000
00000000
22000000
00000000
00000000
00000000
33000000
00000000
,
10100000
00000000
00000000
00000000
02020000
00000000
00000000
00000000
03030000
00000000
00000000
00000000
01000000
00100000
00010000
00001000
,
01000000
00100000
00010000
00001000
00010000
00000000
00000100
00000000
00000010
00000000
00000001
00000000
00000100
00000000
00001000
00000000
,
00010000
00100000
10000000
01000000
00100000
00001000
00010000
00000100
,
00000010
00000000
00000001
00000000
00000100
00001000
00000100
00000000
00001000
00010000
00001000
00000000
00010000
01000000
00010000
00000000
,
01000000
10000000
01000000
00000000
10000000
00100000
10000000
00100000
01000000
00010000
01000000
00010000
00100000
00001000
00100000
00001000
,
00010000
00000100
00010000
00000100
00000020
00000000
00000000
00000000
00000000
00000000
00000000
00000000
00000000
00000000
00000000
00000000
,
00000000
00000000
00000000
00000000
00000000
00000000
00000000
00000000
00000030
00000000
00000000
00000000
00000011
00000000
00000000
00001100
,
00000000
00000000
00000100
00010000
00001000
00000000
00000000
00011000
00000000
00000000
01010000
00000000
01000000
10000000
00000000
01000000
,
00100000
00000000
01000000
10000000
00000000
01000000
00010000
00000000
00001000
00010000
00001000
00000000
00101000
00000000
00000000
00010010
,
00000000
00000000
00010000
00001000
00000200
00000000
00000000
00000000
00000301
00000010
00000001
00000010
00000100
00001000
00000000
00000100
,
00000001
00000000
00000100
00001000
00000000
00000100
00000010
00000000
00000001
00000000
00000100
00001000
00010000
00000000
00000000
00011000
,
00000000
00000000
00001000
00010000
00100000
00000000
00000000
01100000
00000000
00000000
01000000
00000000
00010000
00000000
00100000
10000000
,
00000000
00100000
01000000
00000000
00100000
10000000
00000000
00100000
00010000
00000000
00100000
01000000
00100000
00000000
00001000
00010000
,
00000000
00000100
00000010
00000000
00000011
00000000
00000000
00000101
00000000
00000000
00001100
00000000
00022000
00000000
00000000
00000000
,
00000000
00000000
00000000
00000000
00000000
00000000
00033000
00000000
00001000
00010000
00001000
00010000
00001000
00000000
01001000
00000000
,
00010100
00000000
00000100
00000010
00000002
00000000
00000103
00001000
00000100
00000000
00001000
00010000
00001000
00000000
00010000
00100000
,
00010000
00000000
00100000
10000000
00100000
00000000
10000000
01000000
10000000
00000000
01000000
00010000
01000000
00000000
00010000
00001000
,
00010000
00000000
00001000
00000010
00001000
00000010
00000000
00000100
00000010
00000000
00001000
00000010
00000000
00000001
00000010
00000000
,
00000110
00000000
00000100
00000010
00002000
00000000
00013000
00001000
00010000
00000000
00001000
00000100
00001000
00000000
00000100
00000001
,
00000100
00000000
00000001
00000010
00000001
00000000
00000010
00001000
00000010
00000000
00001000
00010000
00001000
00000000
00010000
00100000
,
00010000
00000000
00100000
10000000
00200000
00000000
00320000
00000000
00032000
00000000
00003200
00000000
00000301
00000010
00000001
00000010
,
00000001
00000010
00000001
00000010
00000100
00001000
00000100
00001000
00000010
00010000
00000010
00010000
00001000
00100000
00001000
00100000
,
01000000
10000000
01000000
10000000
00200000
00000000
00300000
00000000
00110000
00000000
00000000
00000000
00011000
00000000
00000000
00000000
,
00001010
00000011
00000101
00001100
,
00011000
01010000
11000000
10100000
,
00110000
00000000
00000000
00000000
00022000
00000000
00033000
00000000
00011000
00000000
00001000
00010000
00100000
00000000
00010000
00001000
,
00000020
00000030
00000011
00000000
00001100
00000000
01010000
00000000
,
10100000
11000000
00110000
00001010
,
00000101
00010010
01001000
00010100
,
00202000
00000000
00000000
00000000
,
00303000
00000000
00000000
00000000
00001000
00010000
00001000
00010000
00100000
00000000
00010000
00001000
00010000
00001000
00100000
00000000
,
00001000
00010000
02000000
00000000
03010000
00001000
00010000
00001000
00000010
00000000
00001000
00010000
00001000
00010000
00000010
00000000
,
00010000
00001000
00000200
00000000
00000301
00000010
00000100
00000000
00000010
00000100
00001000
00000000
00000100
00001000
00010000
00000000
,
00001000
00010000
00100000
00000000
00010000
01000000
00010000
01000000
00100000
10000000
00100000
10000000
01000000
00100000
01000000
00100000
,
00001000
00010000
00001000
00010000
00000200
00000000
00000310
00000001
00000100
00000000
00001000
00010000
00100000
00000000
10000000
01000000
,
00010000
00000000
00011000
00000000
00001000
00010000
01000000
00000000
00010000
00001000
00000100
00000000
00001000
00010000
00100000
00010000
,
00002000
00000000
00003010
00000001
00000100
00001000
00000100
00000010
00000100
00001000
00000100
00000000
00010000
01000000
00100000
01000000
,
00010000
01000000
00100000
00000000
10000000
01000000
00100000
00010000
01000000
00100000
00010000
00001000
00000100
00000010
00001000
00000100
,
00000010
00000001
00000100
00002000
00020000
00000000
00000000
00000000
00000000
00000000
00000000
00000000
00000000
00000000
00000000
00000000
,
00000000
00000000
00000000
00000000
,
00000000
00033000
00000000
00000000
;

//---------------dance-single - ----------------
#NOTEDATA:;
#CHARTNAME:;
#STEPSTYPE:dance-single;
#DESCRIPTION:;
#CHARTSTYLE:;
#DIFFICULTY:Hard;
#METER:13;
#RADARVALUES:0.562976,0.747679,0.503851,0.341899,0.175448,438.000000,382.000000,56.000000,38.000000,0.000000,0.000000,0.000000,0.000000,0.000000,0.562976,0.747679,0.503851,0.341899,0.175448,438.000000,382.000000,56.000000,38.000000,0.000000,0.000000,0.000000,0.000000,0.000000;
#CREDIT:MILEN;
#DISPLAYBPM:157.000000;
#NOTES:
0000
0000
0000
0000
,
0000
0000
0000
0000
,
0000
0000
0000
0000
2002
0000
0000
0000
3003
0000
0000
0000
1000
0000
0000
0010
,
0000
0100
0202
0000
0000
0000
0000
0000
,
0303
0000
0000
0000
2002
0000
0000
0000
3003
0000
0000
0000
0001
0000
0000
0010
,
0000
0100
2200
0000
0000
0000
3300
0000
,
1001
0000
0001
0000
0200
0000
0000
0000
0000
0000
0310
0000
1000
0000
0000
1100
,
0000
0110
0022
0000
0000
0000
0033
0000
,
1001
0000
0000
0000
2200
0000
0000
0000
3300
0000
0000
0000
1000
0000
0000
0010
,
0000
0100
0220
0000
0000
0000
0000
0000
,
0000
0000
0330
0110
,
1000
0110
0001
0101
,
1100
1010
0011
0110
,
0001
0110
1000
2002
,
3003
0000
1001
0001
0100
0010
1000
0000
,
1100
0001
0101
1000
,
1010
0001
0011
1000
,
0110
0000
0001
0000
0110
0000
2002
3003
,
1000
0100
0010
0001
0110
0000
0001
0100
,
0000
0100
1000
0000
1000
0010
0000
0010
,
0001
0000
0001
0010
0000
0010
1000
0000
,
1000
0100
0000
0100
0001
0000
0001
0100
,
0000
0100
1000
0010
0110
0000
0100
0100
,
0001
0010
0010
0100
1000
1000
0010
0100
,
0100
0001
1000
1000
0100
0010
0010
0001
,
0100
0100
0010
1000
2002
3003
0001
0010
,
0100
1000
1002
0000
0100
0000
0010
0000
,
1000
1000
0000
0100
0100
0000
1003
0010
,
0100
0001
2000
0000
0100
0100
0000
0010
,
0010
0000
0002
0000
3003
0000
0001
0100
,
0010
1000
0001
0010
0100
0001
0100
1000
,
0100
0010
1000
0010
0001
0010
0100
1000
,
0010
0000
0100
0000
0001
1000
0001
0000
0100
0000
0010
0000
1000
0001
1000
0000
,
0010
0000
0100
0000
0001
0010
0001
0000
1000
0010
1000
0000
0001
0100
0001
0000
,
1000
0100
1000
0000
0020
0000
0000
0000
0000
0000
0000
0000
0000
0000
0000
0000
,
0000
0000
0000
0000
0000
0000
0000
0000
0030
0000
0000
0000
0100
0000
0000
0001
,
0000
0000
1000
0000
0010
0000
0000
1000
0000
0000
0001
0000
0010
0000
0100
0000
,
1000
0000
0010
0000
0100
0000
0001
0000
2000
0000
0000
0000
3100
0000
0000
0010
,
0000
0000
0001
0000
0101
0000
0000
0000
0100
0000
0010
0000
1000
0100
1000
0000
,
0010
0000
0100
0000
0001
0010
0001
0000
0100
0000
0010
0000
1000
0000
0000
0001
,
0000
0000
0010
0000
0001
0000
0000
1000
0000
0000
0010
0000
0100
0000
0001
0000
,
1000
0000
0100
0000
0010
0000
1000
0000
0010
0000
0001
0000
0100
0000
0000
0010
,
0000
0000
1000
0000
0001
0000
0000
0010
0000
0000
0100
0000
2002
0000
0000
0000
,
0000
0000
0000
0000
0000
0000
3003
0000
1000
0001
1000
0001
0100
0000
0010
0000
,
1001
0000
0001
1000
0001
0000
0100
0000
0010
0000
1000
0000
0001
0000
0010
0000
,
0100
1000
0010
0001
0010
0100
1000
0100
,
0001
0000
0010
0000
0100
0000
0000
1100
0000
0000
0010
0000
0000
0011
0000
0000
,
1000
0000
0010
0100
0010
0000
0100
0000
0001
0000
0010
0000
0100
0000
0001
0000
,
0100
0010
1000
0010
0100
1000
0010
0100
,
0001
1000
0200
0010
0010
0010
0320
0000
,
0032
0000
1000
1000
1000
1000
1000
1000
,
1000
1003
1001
0000
0010
0000
1001
0000
,
0100
0101
0011
1010
,
1100
1001
0010
1001
,
0100
0000
0220
0330
0110
0010
1000
0001
,
0100
0101
0010
1010
,
0100
1100
0010
0011
,
0100
1001
0010
1001
,
0220
0000
0000
0000
,
0330
0000
0010
1000
0100
0010
0100
0001
,
1000
0010
0100
0010
0001
0100
0010
1000
,
0001
0000
0010
0000
0100
0000
0000
0100
1000
0000
0000
1000
0010
0000
0000
0010
,
0100
0000
0000
0100
0001
0000
0000
0001
0010
0000
0000
0010
0100
0000
0000
0100
,
1000
0000
0010
0000
0010
0000
0100
0001
0100
0000
0010
1000
0010
0000
1000
0001
,
1000
0000
0100
0000
0010
0001
0010
0000
0100
1000
0100
0000
0010
0100
0010
0100
,
0010
0001
0200
0010
0010
0010
0010
0010
,
0010
0310
0110
0001
0010
0100
1000
0100
,
0010
0001
2002
0000
0000
0000
0000
0000
,
0000
0000
0000
0000
,
0000
3003
0000
0000
;

//---------------dance-double - ----------------
#NOTEDATA:;
#CHARTNAME:;
#STEPSTYPE:dance-double;
#DESCRIPTION:;
#CHARTSTYLE:;
#DIFFICULTY:Hard;
#METER:13;
#RADARVALUES:0.548838,0.716525,0.476859,0.332901,0.103469,427.000000,374.000000,53.000000,37.000000,0.000000,0.000000,0.000000,0.000000,0.000000,0.548838,0.716525,0.476859,0.332901,0.103469,427.000000,374.000000,53.000000,37.000000,0.000000,0.000000,0.000000,0.000000,0.000000;
#CREDIT:MILEN;
#DISPLAYBPM:157.000000;
#NOTES:
00000000
00000000
00000000
00000000
,
00000000
00000000
00000000
00000000
,
00000000
00000000
00000000
00000000
00022000
00000000
00000000
00000000
00033000
00000000
00000000
00000000
00010000
00000000
00000000
00001000
,
00000000
00000010
00000022
00000000
00000000
00000000
00000000
00000000
,
00000033
00000000
00000000
00000000
00002200
00000000
00000000
00000000
00003300
00000000
00000000
00000000
00000100
00000000
00000000
00010000
,
00000000
00001000
02002000
00000000
00000000
00000000
03003000
00000000
,
01010000
00000000
00010000
00000000
20000000
00000000
00000000
00000000
00000000
00000000
31000000
00000000
00100000
00000000
00000000
00101000
,
00000000
00011000
00020020
00000000
00000000
00000000
00030030
00000000
,
00001010
00000000
00000000
00000000
00000202
00000000
00000000
00000000
00000303
00000000
00000000
00000000
00000001
00000000
00000000
00000010
,
00000000
00001000
00022000
00000000
00000000
00000000
00000000
00000000
,
00000000
00000000
00033000
00011000
,
00010000
00010100
00000100
00001100
,
00001000
00001010
00000010
00010010
,
00010000
00011000
00001000
00202000
,
00303000
00000000
00110000
00010000
01000000
00100000
10000000
00000000
,
11000000
01000000
01010000
00010000
,
00011000
00001000
00001100
00000100
,
00000101
00000000
00000001
00000000
00000011
00000000
00002002
00003003
,
00001000
00000100
00000010
00000001
00000100
00000000
00000100
00001000
,
00000000
00001000
00010000
00000000
00010000
00100000
00000000
00100000
,
10000000
00000000
10000000
01000000
00000000
01000000
00010000
00000000
,
00010000
00001000
00000000
00001000
00000010
00000000
00000010
00000001
,
00000000
00000001
00000100
00001000
00011000
00000000
00010000
00000100
,
00000010
00000001
00001000
00000100
00000010
00001000
00010000
00100000
,
10000000
00010000
00100000
01000000
00010000
00001000
00000010
00000100
,
00001000
00000001
00000100
00001000
00022000
00033000
00001000
00100000
,
01000000
10000000
10200000
00000000
00010000
00000000
00001000
00000000
,
00010000
00010000
00000000
10000000
10000000
00000000
00310000
00001000
,
00000100
00000001
00000021
00000000
00001000
00001000
00000000
00000001
,
00000001
00000000
00000200
00000000
00000330
00000000
00000010
00000001
,
00000100
00000010
00010000
00001000
00100000
01000000
10000000
00100000
,
00010000
00001000
00000100
00000001
00000010
00000100
00001000
00000010
,
00010000
00001000
00100000
01000000
10000000
00100000
00010000
00001000
,
00000100
00000001
00000010
00001000
00010000
01000000
10000000
00100000
,
00010000
00001000
00022000
00000000
00000000
00000000
00000000
00000000
,
00000000
00000000
00000000
00000000
00000000
00000000
00000000
00000000
00033000
00000000
00000000
00000000
00010000
00000000
00000000
00000100
,
00000000
00000000
00000010
00000000
00000100
00000000
00000000
00001000
00000000
00000000
00000001
00000000
00000100
00000000
00000010
00000000
,
00001000
00000000
00000100
00000000
00010000
00000000
00001000
00000000
00200000
00000000
00000000
00000000
01300000
00000000
00000000
10000000
,
00000000
00100000
01100000
00000000
01000000
00010000
00100000
01000000
,
00010000
00000000
00001000
00000000
00000010
00000000
00000100
00000000
00001000
00000000
00000010
00000000
00000001
00000000
00000000
00000010
,
00000000
00000000
00000100
00000000
00000001
00000000
00000000
00001000
00000000
00000000
00000010
00000000
00010000
00000000
00001000
00000000
,
00100000
00000000
01000000
00000000
10000000
00000000
00100000
00000000
00010000
00000000
00001000
00000000
00000100
00000000
00000000
00000001
,
00000000
00000000
00000010
00000000
00000100
00000000
00000000
00010000
00000000
00000000
00001000
00000000
00022000
00000000
00000000
00000000
,
00000000
00000000
00000000
00000000
00033000
00000000
00000000
00000000
00010000
00001000
00010000
00001000
00010000
00000000
00001000
00000000
,
00011000
00000000
00010000
00001000
00010000
00000000
01000000
00000000
10000000
00000000
01000000
00000000
00100000
00000000
00010000
00000000
,
01000000
00100000
00010000
00001000
00000100
00000010
00001000
00000100
,
00000010
00000000
00000001
00000000
00000100
00000000
00000000
00001010
00000000
00000000
00001000
00000000
00000000
00010100
00000000
00000000
,
00010000
00000000
00001000
00010000
00001000
00000000
00100000
00000000
01000000
00000000
10000000
00000000
00100000
00000000
01000000
00000000
,
00010000
00100000
00001000
00010000
00000100
00000010
00000001
00000100
,
00001000
00010000
00100000
10000000
01000000
00100000
00010000
01000000
,
00002000
00000000
00010000
00010000
00010000
00010000
00010000
00010000
,
00010000
00013000
00011000
00000000
00001000
00000000
01001000
00000000
,
01000000
01010000
00010000
00110000
,
00100000
00101000
00001000
00011000
,
00010000
00000000
00020020
00030030
00001100
00001000
00000010
00000100
,
00000001
00000011
00000010
00001010
,
00001000
00011000
00010000
00110000
,
00100000
10100000
10000000
11000000
,
20020000
00000000
00000000
00000000
,
30030000
00000000
10000000
00100000
01000000
00010000
00100000
00001000
,
00010000
00000100
00001000
00000010
00000100
00000001
00001000
00000100
,
00000010
00000001
00000100
00001000
00010000
00001000
00000100
00001000
,
00010000
01000000
00010000
00001000
00010000
01000000
10000000
00100000
,
00010000
00000000
00001000
00000000
00001000
00000000
00100000
00010000
00100000
00000000
00001000
00010000
00001000
00000000
00000100
00000001
,
00000100
00000000
00000010
00000000
00010000
00001000
00010000
00000000
00100000
01000000
00100000
00000000
10000000
01000000
10000000
00000000
,
01000000
00010000
00002000
00010000
00010000
00010000
00010000
00010000
,
00010000
00013000
00011000
00001000
00100000
01000000
00010000
00001000
,
00000010
00000100
00022000
00000000
00000000
00000000
00000000
00000000
,
00000000
00000000
00000000
00000000
,
00000000
00033000
00000000
00000000
;

//---------------dance-single - ----------------
#NOTEDATA:;
#CHARTNAME:;
#STEPSTYPE:dance-single;
#DESCRIPTION:;
#CHARTSTYLE:;
#DIFFICULTY:Beginner;
#METER:3;
#RADARVALUES:0.136245,0.211775,0.008997,0.000000,0.000000,106.000000,105.000000,1.000000,0.000000,0.000000,0.000000,0.000000,0.000000,0.000000,0.136245,0.211775,0.008997,0.000000,0.000000,106.000000,105.000000,1.000000,0.000000,0.000000,0.000000,0.000000,0.000000,0.000000;
#CREDIT:MILEN;
#DISPLAYBPM:157.000000;
#NOTES:
0000
0000
0000
0000
,
0000
0000
0000
0000
,
0000
1000
0000
0000
,
0000
1000
0000
0000
,
0000
0001
0000
0000
,
0000
0001
0000
0000
,
0000
1000
0000
0000
,
0000
0001
0000
0000
,
0000
1000
0000
0000
,
0000
0001
0000
0000
,
0000
0000
0000
0100
,
0000
0100
0000
0100
,
0000
0000
0000
0010
,
0000
0010
0000
0010
,
0000
0000
0000
1000
,
0000
1000
0000
1000
,
0000
0000
0000
0001
,
0000
0001
0000
0001
,
0000
0000
0100
0000
,
0000
0000
1000
0000
,
0000
0000
0010
0000
,
0000
0000
0001
0000
,
0000
0000
1000
0000
,
0000
0000
0100
0000
,
0000
0000
0001
0000
,
0000
0000
0010
0000
,
0000
1000
0000
1000
,
0000
1000
0000
1000
,
0000
0001
0000
0001
,
0000
0001
0000
0001
,
0000
0100
0000
0100
,
0000
0010
0000
0010
,
0000
1000
0000
0001
,
0000
0100
0000
0010
,
0010
0010
0000
0000
,
0000
0000
0000
0010
,
0000
1000
0000
0010
,
0000
1000
0000
0001
,
0000
0100
0000
0001
,
0000
0100
0000
0001
,
0000
0010
0000
0001
,
0000
0010
0000
0100
,
0000
1000
0000
0100
,
0000
0000
0100
0100
,
0000
0100
0000
1000
,
0000
0010
0000
0100
,
0000
0001
0000
0010
,
0000
1000
0000
0100
,
0000
0001
0000
1000
,
0000
0010
0000
0100
,
0000
0010
0010
0010
,
0010
0010
0000
0000
,
0000
1000
0000
0000
,
0000
0001
0000
0000
,
0000
0100
0000
0000
,
0010
0000
0000
0000
,
1000
0000
0000
0000
,
0001
0000
0000
0000
,
0100
0000
0000
0000
,
0000
0100
0000
0001
,
0000
0100
0000
0001
,
0000
1000
0000
0010
,
0000
1000
0000
0010
,
0000
1000
0000
0100
,
0000
0010
0000
0001
,
0000
0100
0100
0100
,
0100
0100
0000
0000
,
0000
1001
0000
0000
;

//---------------dance-single - ----------------
#NOTEDATA:;
#CHARTNAME:;
#STEPSTYPE:dance-single;
#DESCRIPTION:;
#CHARTSTYLE:;
#DIFFICULTY:Easy;
#METER:7;
#RADARVALUES:0.264779,0.373839,0.215936,0.080976,0.000000,206.000000,182.000000,24.000000,9.000000,0.000000,0.000000,0.000000,0.000000,0.000000,0.264779,0.373839,0.215936,0.080976,0.000000,206.000000,182.000000,24.000000,9.000000,0.000000,0.000000,0.000000,0.000000,0.000000;
#CREDIT:MILEN;
#DISPLAYBPM:157.000000;
#NOTES:
0000
0000
0000
0000
,
0000
0000
0000
0000
,
0000
1001
0000
1000
,
1000
1000
0000
0000
,
0000
1001
0000
0001
,
0001
0001
0000
0000
,
0100
0100
0000
0010
,
0010
0010
0000
0000
,
0100
0010
0000
0010
,
0100
0220
0000
0000
,
0000
0330
0000
0110
,
0000
1000
0000
0110
,
0000
0001
0000
0110
,
0000
1000
0000
1001
,
0000
0001
1000
0110
,
0000
0001
0000
0110
,
0000
1000
0000
0110
,
0000
0001
0000
1001
,
0000
0000
1000
0001
,
0000
0100
0000
0000
0010
0000
0000
1000
,
0000
0000
0001
0000
0000
0100
0000
0000
,
0010
0000
0000
1000
0000
0000
0001
0000
,
0000
0100
0100
0010
,
0000
1000
0000
0000
0100
0000
0000
0010
,
0000
0000
0001
0000
0000
1000
0000
0000
,
0100
0000
0000
0010
0010
0000
0000
0000
,
0000
1001
0000
0001
,
1000
0010
0100
0001
,
0001
1001
0000
1000
,
0010
0100
0001
1000
,
1000
0100
0010
0001
,
0100
0010
1000
0001
,
0010
0100
1000
0010
,
0100
0001
0001
1000
,
1000
2002
0000
3003
,
0000
0000
0000
0001
,
0000
0100
0000
1000
,
0010
0001
0001
1000
,
0000
0100
0000
0001
,
0010
1000
1000
0001
,
0000
0100
0000
1000
,
0010
0001
0001
1000
,
0000
0010
0000
0200
,
0000
0000
0000
0000
0301
0000
0001
1000
,
0001
1001
0100
0010
,
1000
0001
0010
0100
,
1000
0010
0010
0010
,
0010
0001
0100
0010
,
1000
0001
0010
0100
,
1000
0010
0010
0100
,
0100
0010
0100
0010
,
0100
0110
0000
0001
,
0000
0110
0000
1000
,
0000
0110
0000
0001
,
0000
1001
0100
0100
,
0110
0000
1000
0000
,
0110
0000
0001
0000
,
0110
0000
1000
0000
,
2002
3003
0000
0000
,
0000
1000
0000
0100
,
0000
0001
0000
0010
,
0000
1000
0000
0100
,
0000
0001
0000
0010
,
0000
1000
1000
0100
,
0100
0010
0010
0001
,
0001
0100
0010
0100
,
0010
0000
1000
0010
1000
0000
0001
0100
,
0001
2002
0000
0000
,
0000
0000
0000
0000
,
0000
3003
0000
0000
;

//---------------dance-double - ----------------
#NOTEDATA:;
#CHARTNAME:;
#STEPSTYPE:dance-double;
#DESCRIPTION:;
#CHARTSTYLE:;
#DIFFICULTY:Easy;
#METER:7;
#RADARVALUES:0.263493,0.373839,0.242928,0.089973,0.000000,205.000000,178.000000,27.000000,10.000000,0.000000,0.000000,0.000000,0.000000,0.000000,0.263493,0.373839,0.242928,0.089973,0.000000,205.000000,178.000000,27.000000,10.000000,0.000000,0.000000,0.000000,0.000000,0.000000;
#CREDIT:MILEN;
#DISPLAYBPM:157.000000;
#NOTES:
00000000
00000000
00000000
00000000
,
00000000
00000000
00000000
00000000
,
00000000
00011000
00000000
00001000
,
00001000
00001000
00000000
00000000
,
00000000
00011000
00000000
00010000
,
00010000
00010000
00000000
00000000
,
00001000
00001000
00000000
00010000
,
00010000
00010000
00000000
00000000
,
00001000
00010000
00000000
00010000
,
00001000
00022000
00000000
00000000
,
00000000
00033000
00000000
00011000
,
00000000
01000000
00000000
00011000
,
00000000
00000100
00000000
00011000
,
00000000
01000000
00000000
00011000
,
00000000
00010000
00001000
00011000
,
00000000
00000010
00000000
00011000
,
00000000
00100000
00000000
00011000
,
00000000
00000010
00000000
00011000
,
00000000
00000000
00001000
00010000
,
00000000
00000100
00000000
00000000
00001000
00000000
00000000
00000100
,
00000000
00000000
00010000
00000000
00000000
00001000
00000000
00000000
,
01000000
00000000
00000000
00010000
00000000
00000000
01000000
00000000
,
00000000
00001000
00001000
00010000
,
00000000
00000100
00000000
00000000
00010000
00000000
00000000
00001000
,
00000000
00000000
01000000
00000000
00000000
00001000
00000000
00000000
,
00010000
00000000
00000000
00001000
00001000
00000000
00000000
00000000
,
00000000
00011000
00000000
00010000
,
01000000
10000000
00100000
00010000
,
00010000
00011000
00000000
00001000
,
00000100
00000001
00000010
00001000
,
00001000
00011000
00100000
00010000
,
00100000
01000000
10000000
00100000
,
00010000
00001000
00000100
00000001
,
00000010
00001000
00001000
00010000
,
00010000
00022000
00000000
00033000
,
00000000
00000000
00000000
00001000
,
00000000
00010000
00000000
00100000
,
10000000
01000000
01000000
00010000
,
00000000
00001000
00000000
00000010
,
00000001
00000100
00000100
00001000
,
00000000
00010000
00000000
01000000
,
10000000
00100000
00100000
00010000
,
00000000
00001000
00000000
00022000
,
00000000
00000000
00033000
00000000
00011000
00000000
00010000
00001000
,
00010000
00011000
00000100
00001000
,
00000100
00000010
00000001
00000100
,
00001000
00010000
00000000
00001000
,
00000000
00010000
00001000
00010000
,
00100000
10000000
00100000
01000000
,
00010000
01000000
00001000
00010000
,
00001000
00000100
00000010
00000100
,
00000001
00001001
00000000
00000100
,
00000000
00011000
00000000
01000000
,
00000000
10010000
00000000
00100000
,
00000000
00011000
00010000
01000000
,
10010000
00000000
00100000
00000000
,
00011000
00000000
00000010
00000000
,
00001001
00000000
00000100
00000000
,
00022000
00033000
00000000
00000000
,
00000000
00001000
00000000
00010000
,
00000000
01000000
00000000
10000000
,
00000000
00100000
00000000
00010000
,
00000000
00001000
00000000
00000100
,
00000000
00000001
00000001
00000010
,
00000010
00000100
00000100
00010000
,
00010000
00001000
00001000
00100000
,
00100000
01000000
10000000
00100000
,
00010000
00022000
00000000
00000000
,
00000000
00000000
00000000
00000000
,
00000000
00033000
00000000
00000000
;

//---------------dance-single - ----------------
#NOTEDATA:;
#CHARTNAME:;
#STEPSTYPE:dance-single;
#DESCRIPTION:;
#CHARTSTYLE:;
#DIFFICULTY:Medium;
#METER:9;
#RADARVALUES:0.401024,0.467299,0.413878,0.206939,0.013496,312.000000,266.000000,46.000000,23.000000,0.000000,0.000000,0.000000,0.000000,0.000000,0.401024,0.467299,0.413878,0.206939,0.013496,312.000000,266.000000,46.000000,23.000000,0.000000,0.000000,0.000000,0.000000,0.000000;
#CREDIT:MILEN;
#DISPLAYBPM:157.000000;
#NOTES:
0000
0000
0000
0000
,
0000
0000
0000
0000
,
1001
0000
0000
0100
,
0010
2002
0000
0000
,
3003
1001
0000
0010
,
0100
2002
0000
3003
,
0100
0010
1001
0000
0000
0000
0010
0000
,
0100
2002
0000
0000
,
3003
0000
0000
0000
1001
0000
0000
0000
0000
0000
0000
0000
0010
0000
0000
0100
,
0000
0010
2002
0000
0000
0000
0000
0000
,
0000
3003
0000
1000
,
0010
0001
0100
1000
,
1100
0001
0101
1000
,
0010
0001
0100
2002
,
3003
0000
1000
0001
1000
0001
0100
0000
,
1000
0010
0001
0100
,
1010
0010
0101
0001
,
0010
1000
0100
1001
,
0220
0000
0330
0000
0110
0000
0000
1010
,
0000
0000
1100
0000
0000
0011
0000
0000
,
0101
0000
0000
1001
0000
0000
1100
0000
,
0000
1010
0000
0000
0101
0000
0000
0011
,
0000
0000
1001
0000
0110
0000
0010
1000
,
0000
1000
0100
0000
0100
0010
0000
0010
,
0001
0000
0001
0100
0000
0100
0010
0000
,
0010
1000
0000
2000
0002
3003
0001
0000
,
1000
0110
0001
0100
,
1000
0000
0010
0000
0001
0000
1000
0001
,
1000
0110
1000
0100
,
0001
0000
0010
0000
1000
0000
0001
1000
,
0001
1000
0100
0010
,
0001
1000
0010
0100
,
0001
0000
1000
0010
0100
0000
0001
0100
,
0010
0000
1000
0001
1000
0001
0100
0010
,
0100
0220
0000
0330
,
0000
0000
0000
0110
,
1000
0000
0001
0000
0100
0000
0010
1000
,
0010
0000
0100
0001
0100
0000
0110
0000
,
0001
0000
1000
0000
0010
0000
0100
0001
,
0100
0000
0010
1000
0010
0000
1000
0100
,
0010
0000
0001
0000
0100
0000
0010
1000
,
0100
0000
0010
0000
0001
0000
0100
0010
,
1000
0100
0010
0220
,
0000
0000
0000
0000
0330
0000
1000
0001
,
1001
0110
0010
1000
,
0001
0000
0100
0010
1000
0000
0010
0100
,
0001
0000
0000
0000
1000
0000
0000
1000
0000
0000
0001
0000
0000
0001
0000
0000
,
0100
0100
0010
0000
1000
0100
0010
0000
,
0010
0001
0100
0000
0010
1000
0100
0000
,
0100
0010
0001
0000
0100
0000
1000
0000
,
0010
0000
0001
1000
0001
1000
0010
0100
,
0010
1000
0100
0001
,
0010
1000
1010
0001
,
0011
1000
0100
0001
,
0010
0000
1001
0000
1000
0001
1000
0001
,
0010
1000
0100
0001
,
0010
0011
0100
1100
,
0001
0100
1000
0010
,
2002
3003
0000
0000
,
0000
0001
0001
0100
,
0100
1000
1000
0010
,
0010
0000
0001
0100
0010
0000
1000
0010
,
0100
0000
0001
0010
0100
1000
0100
0010
,
0001
0100
0100
0010
,
0010
1001
0110
1001
,
0110
0020
0000
0000
,
0000
0000
1030
0100
0010
0001
0010
0100
,
1000
2002
0000
0000
,
0000
0000
0000
0000
,
0000
3003
0000
0000
;

//---------------dance-double - ----------------
#NOTEDATA:;
#CHARTNAME:;
#STEPSTYPE:dance-double;
#DESCRIPTION:;
#CHARTSTYLE:;
#DIFFICULTY:Medium;
#METER:9;
#RADARVALUES:0.389456,0.436146,0.377888,0.206939,0.013496,303.000000,261.000000,42.000000,23.000000,0.000000,0.000000,0.000000,0.000000,0.000000,0.389456,0.436146,0.377888,0.206939,0.013496,303.000000,261.000000,42.000000,23.000000,0.000000,0.000000,0.000000,0.000000,0.000000;
#CREDIT:MILEN;
#DISPLAYBPM:157.000000;
#NOTES:
00000000
00000000
00000000
00000000
,
00000000
00000000
00000000
00000000
,
00011000
00000000
00000000
01000000
,
00001000
00022000
00000000
00000000
,
00033000
00011000
00000000
00000100
,
00010000
00022000
00000000
00033000
,
00011000
00011000
00000000
00100000
,
00001000
00022000
00000000
00000000
,
00033000
00000000
00000000
00000000
00011000
00000000
00000000
00000000
00000000
00000000
00000000
00000000
00000010
00000000
00000000
00010000
,
00000000
00001000
00022000
00000000
00000000
00000000
00000000
00000000
,
00000000
00033000
00000000
00001000
,
00010000
00100000
10000000
01000000
,
01100000
00010000
10010000
10000000
,
00100000
00010000
00001000
00022000
,
00033000
00000000
00010000
00001000
00010000
00001000
00010000
00000000
,
00001000
00000100
00000001
00000010
,
00000110
00001000
00001001
00000001
,
00000100
00001000
00010000
00011000
,
00022000
00000000
00033000
00000000
00011000
00000000
00000000
01000000
,
00000000
00000000
00011000
00000000
00000000
00000100
00000000
00000000
,
00011000
00000000
00000000
00100000
00000000
00000000
00011000
00000000
,
00000000
00000010
00000000
00000000
00011000
00000000
00000000
01000000
,
00000000
00000000
00011000
00000000
00011000
00000000
00001000
00000010
,
00000000
00000010
00000001
00000000
00000001
00000100
00000000
00000100
,
00001000
00000000
00001000
00010000
00000000
00010000
00100000
00000000
,
00100000
10000000
00000000
20000000
00020000
30030000
00010000
00000000
,
10000000
01100000
00100000
00010000
,
00001000
00000000
00000100
00000000
00000010
00000000
00001000
00000001
,
00001000
00000110
00000100
00001000
,
00010000
00000000
00100000
00000000
01000000
00000000
00010000
10000000
,
00010000
10000000
01000000
00100000
,
00001000
00010000
00000100
00000010
,
00000001
00000000
00000100
00001000
00010000
00000000
01000000
00010000
,
00001000
00000000
00000010
00001000
00010000
00000000
00100000
00010000
,
00001000
00022000
00000000
00033000
,
00000000
00000000
00000000
00011000
,
00010000
00000000
01000000
00000000
10000000
00000000
00100000
01000000
,
00010000
00000000
00100000
01000000
00010000
00000000
00011000
00000000
,
00001000
00000000
00000010
00000000
00000001
00000000
00000100
00000010
,
00001000
00000000
00000100
00000010
00001000
00000000
00010000
00001000
,
00010000
00100000
10000000
01000000
,
00010000
00001000
00000010
00000001
,
00000100
00001000
00010000
00022000
,
00000000
00000000
00000000
00000000
00033000
00000000
00001000
00010000
,
00001000
00011000
00010000
00000100
,
00000010
00000000
00000001
00000100
00001000
00000000
00010000
00100000
,
10000000
00000000
00000000
00000000
01000000
00000000
00000000
01000000
00000000
00000000
01000000
00000000
00000000
01000000
00000000
00000000
,
00100000
00100000
00010000
00000000
00100000
00001000
00010000
00000000
,
00000010
00010000
00001000
00000000
01000000
00001000
00010000
00000000
,
00000100
00010000
00001000
00000000
00010000
00000000
00000100
00000000
,
00000010
00000000
00000001
00000100
00000001
00000100
00001000
00010000
,
00001000
00010000
00001000
00000000
00010000
00000000
01000000
00000000
,
10000000
00100000
01100000
00010000
,
10010000
10000000
01000000
00010000
,
00001000
00000000
00011000
00000000
00010000
00001000
00010000
00001000
,
00010000
00001000
00000010
00000001
,
00000100
00000110
00001000
00001001
,
00000001
00000010
00001000
00010000
,
00022000
00033000
00000000
00000000
,
00000000
00010000
00000100
00010000
,
00001000
01000000
00001000
00010000
,
00011000
00000000
00001000
00000100
00000001
00000000
00000001
00000100
,
00001000
00000000
00010000
00100000
10000000
00000000
10000000
00100000
,
00010000
00001000
00001000
00010000
,
00010000
00010100
01001000
00010010
,
00101000
00002000
00000000
00000000
,
00000000
00000000
00013000
00001000
00000100
00000000
00001000
00010000
,
01000000
00022000
00000000
00000000
,
00000000
00000000
00000000
00000000
,
00000000
00033000
00000000
00000000
;
