#TITLE:さいたま2000;
#SUBTITLE:;
#ARTIST:Linda AI-CUE;
#TITLETRANSLIT:Saitama2000;
#SUBTITLETRANSLIT:;
#ARTISTTRANSLIT:;
#GENRE:VARIETY;
#CREDIT:MUINELIM;
#BANNER:Saitama2000.png;
#BACKGROUND:Saitama2000-bg.png;
#LYRICSPATH:;
#CDTITLE:;
#MUSIC:Saitama2000.ogg;
#OFFSET:0.000000;
#SAMPLESTART:40.799999;
#SAMPLELENGTH:12.000004;
#SELECTABLE:YES;
#BPMS:0.000000=200,233.000000=100,235.500000=200
;
#STOPS:233.000000=0.9,235.500000=1.05
;
#BGCHANGES:;
#KEYSOUNDS:;
#ATTACKS:;

//---------------dance-single - ----------------
#NOTES:
     dance-single:
     :
     Hard:
     12:
     0.626390,0.640981,0.316968,0.017609,0.000000,498.000000,462.000000,36.000000,2.000000,0.000000,0.000000,0.626390,0.640981,0.316968,0.017609,0.000000,498.000000,462.000000,36.000000,2.000000,0.000000,0.000000:
0000
0000
0000
0000
,
0000
0000
0000
0000
,
0000
0000
0000
0000
,
0000
0000
0000
0000
,
0000
0000
0000
0000
,
0000
0000
0000
0000
,
0000
0100
0100
1000
,
1000
0010
0010
1001
,
1001
0100
0100
0001
,
0001
0010
0010
0100
,
1001
0000
1000
0010
1000
0000
0001
0000
,
0100
0000
0010
1000
0100
0000
1000
0100
,
0010
0000
0001
0100
0001
0000
1000
0000
,
0010
0000
0100
0001
0010
0000
0001
0010
,
0100
0000
1000
0001
1000
0000
0010
0000
,
0100
0000
0001
0010
0100
0000
0010
0001
,
0100
0000
0001
1000
0001
0000
0100
0000
,
0010
0000
1000
0100
0010
0000
0100
1000
,
0010
0000
0100
0001
0010
0001
0100
0000
,
1000
0000
0100
0001
0010
0100
0010
0100
,
1000
0000
0010
1000
0100
1000
0010
0000
,
0001
0000
0010
1000
0100
0010
0100
0010
,
0001
0000
1000
0010
0100
0010
1000
0000
,
0100
0000
0001
0100
0010
0001
0010
0001
,
1000
0000
0001
0100
0010
0100
0001
0000
,
0010
0000
1000
0010
0100
1000
0100
1000
,
0001
0000
1000
0000
0010
0000
0100
0100
,
0000
0000
1000
0000
0010
0000
0001
0001
,
0000
0000
1000
0000
0010
0000
0100
0100
,
0000
0000
1000
0000
0010
0000
0001
0001
,
0000
0000
1000
0000
0010
0000
0001
0100
,
1000
0000
0001
0000
0010
0000
1000
0100
,
0001
0000
1000
0000
0100
0000
0001
0010
,
1000
0000
0001
0000
0100
0000
1000
0010
,
0001
0000
0110
0000
1000
0000
0001
0100
,
0010
0000
0110
0000
0001
0000
1000
0010
,
0100
0000
0110
0000
0001
0000
1000
0100
,
0001
0000
0100
0010
0001
0010
0100
1000
,
0100
0000
0110
0000
1000
0000
0010
0001
,
0100
0000
0110
0000
0001
0000
0010
1000
,
0100
0000
0110
0000
1000
0000
0001
0010
,
1000
0000
0010
0100
1000
0100
0010
0001
,
0010
0000
0001
0100
0001
0000
0001
0010
,
0001
0000
1000
0100
1000
0000
1000
0010
,
1000
0000
0001
1000
0100
0000
1000
0001
,
0100
0000
0001
1000
0100
0001
0100
0010
,
0001
0000
0100
1000
0100
0000
0100
0001
,
0100
0000
0010
1000
0010
0000
0010
0001
,
0010
0000
1000
0100
0010
0000
0001
0010
,
0100
0000
1000
0010
0001
0010
0100
0001
,
0010
0011
0100
1000
,
0100
1100
0010
0001
,
0010
0110
1000
0001
,
1000
0000
0010
0100
0001
0100
1000
0001
,
0010
1010
0100
0001
,
0100
0101
0010
0100
,
0010
0110
0001
1000
,
0001
0000
0100
0010
0001
0010
1000
0100
,
0020
0000
0000
0200
0000
0000
0000
0330
,
0001
0000
1000
0000
0010
0001
0100
0000
,
0010
0001
0100
0010
0100
0000
1001
0000
,
1000
0000
0001
0000
0100
1000
0010
0000
,
0100
1000
0010
0100
0010
0100
0001
0000
,
1000
0000
0001
0000
0010
1000
0100
0010
,
0100
1000
0100
0010
0001
0000
0110
0000
,
1000
0010
0100
0000
1000
0100
0010
0000
,
1000
0010
0100
1000
0100
0001
0010
0000
,
0110
0000
1100
0000
1000
0010
0001
0000
,
0010
0000
0100
0000
1000
0010
0001
0000
,
0010
0000
0100
0000
1000
0010
0001
0000
,
0100
0010
0001
1000
0100
0100
0000
0000
,
0101
0000
0110
0000
1000
0010
0001
0000
,
0100
0000
0010
0000
1000
0010
0001
0000
,
0100
0000
0010
0000
1000
0010
0001
0000
,
0010
0100
1000
0001
0010
0010
0000
0000
,
1010
0000
0101
0000
0001
0010
1000
0000
,
1100
0000
0011
0000
0001
0100
1000
0000
,
1001
0000
0110
0000
0001
0010
1000
0000
,
0100
0010
1000
0010
0001
0001
0000
0000
,
0101
0000
1010
0000
0001
0100
1000
0000
,
1100
0000
0011
0000
1000
0010
0001
0000
,
1001
0000
0110
0000
0010
1000
0100
0000
,
0001
0100
1000
0010
0100
0100
0000
0000
,
1000
0000
0001
0000
0010
1000
0100
0000
,
0010
1000
0100
0010
0100
0000
1001
0000
,
0001
0000
1000
0000
0100
0001
0010
0000
,
0100
0001
0010
0100
0010
0100
1000
0000
,
0001
0000
1000
0000
0010
0001
0100
0010
,
0100
0001
0100
0010
1000
0000
0110
0000
,
0001
0010
0100
0000
0001
0100
0010
0000
,
0001
0010
0100
0001
0100
1000
0010
0000
,
0110
0000
0000
0000
;

//---------------dance-double - ----------------
#NOTES:
     dance-double:
     :
     Hard:
     13:
     0.657835,0.681042,0.360992,0.026414,0.004402,523.000000,482.000000,41.000000,3.000000,0.000000,0.000000,0.657835,0.681042,0.360992,0.026414,0.004402,523.000000,482.000000,41.000000,3.000000,0.000000,0.000000:
00000000
00000000
00000000
00000000
,
00000000
00000000
00000000
00000000
,
00000000
00000000
00000000
00000000
,
00000000
00000000
00000000
00000000
,
00000000
00000000
00000000
00000000
,
00000000
00000000
00000000
00000000
,
00000000
01000000
01000000
00010000
,
00010000
00001000
00001000
00011000
,
00011000
00000010
00000010
00001000
,
00001000
00010000
00010000
00001000
,
00011000
00000000
00010000
00100000
01000000
00010000
00100000
01000000
,
10000000
00100000
00010000
00001000
,
00011000
00000000
00001000
00000100
00000010
00001000
00000100
00000010
,
00000001
00000000
00000100
00000000
00001000
00000000
00010000
00010000
,
00000000
00000000
00001000
00010000
00100000
00010000
00001000
00010000
,
00100000
10000000
01000000
00010000
,
00011000
00000000
00010000
00001000
00000010
00001000
00010000
00001000
,
00000010
00000000
00000001
00000000
00000100
00000000
00001000
00010000
,
00001000
00000000
00010000
00000100
00010000
00000100
00010000
00000100
,
00010000
00000000
00001000
01000000
00001000
01000000
00001000
01000000
,
00001000
00000000
00010000
00000010
00010000
00000010
00010000
00000010
,
00010000
00000000
00001000
00100000
00001000
00100000
00001000
00001000
,
00000000
00000000
00010000
00100000
00010000
00100000
10000000
01000000
,
00010000
00000000
00001000
00000010
00001000
00000010
00000001
00000100
,
00001000
00000000
00010000
01000000
00010000
01000000
10000000
00100000
,
00010000
00000000
00001000
00000100
00001000
00000100
00000001
00000001
,
00000000
00000000
00001001
00000000
00000010
00000000
00001000
00010000
,
00100000
00000000
10010000
00000000
01000000
00000000
00010000
00001000
,
00000100
00000000
00001001
00000000
00000100
00000000
00001000
00010000
,
01000000
00000000
10010000
00000000
00100000
00000000
00010000
00001000
,
00000010
00000000
00000001
00000100
00000001
00000000
00000001
00000010
,
00000001
00000000
00001000
00000100
00001000
00000000
00001000
00000010
,
00001000
00000000
00010000
00100000
00010000
00000000
00010000
01000000
,
00010000
00000000
10000000
00100000
10000000
00000000
10000000
01000000
,
10000000
10100000
00010000
00001000
,
00000100
00000101
00001000
00010000
,
00100000
10100000
00010000
00001000
,
00000010
00000000
00000001
00000100
00000010
00001000
00000010
00000100
,
00000001
00000011
00001000
00010000
,
01000000
11000000
00010000
00001000
,
00000010
00000011
00001000
00010000
,
00100000
00000000
10000000
01000000
00100000
00010000
00100000
01000000
,
10000000
00000000
10100000
00000000
00100000
00010000
00001000
00010000
,
00000010
00000000
00000101
00000000
00000100
00001000
00010000
00001000
,
01000000
00000000
10100000
00000000
00100000
00010000
00001000
00010000
,
00000010
00000000
00010000
00001000
00000010
00000100
00001000
00000010
,
00000100
00000000
00000101
00000000
00000001
00000010
00001000
00010000
,
01000000
00000000
11000000
00000000
10000000
00100000
00010000
00001000
,
00000010
00000000
00000011
00000000
00000001
00000100
00001000
00010000
,
00100000
00000000
10000000
01000000
00010000
00001000
00000010
00000001
,
00000100
00000000
00001000
01000000
00001000
01000000
00001000
01000000
,
00001000
00000000
00010000
00000010
00010000
00000010
00010000
00000010
,
00010000
00000000
00001000
00100000
00001000
00100000
00001000
00100000
,
00001000
00000000
00010000
00000100
00010000
00000100
00010000
00000100
,
00010000
00000000
00001000
00100000
01000000
00100000
01000000
10000000
,
00100000
00000000
00010000
00000010
00000100
00000010
00000100
00000001
,
00000010
00000000
00001000
01000000
00100000
01000000
00100000
10000000
,
01000000
00000000
00010000
00000100
00000010
00000100
00000010
00000001
,
00000200
00000000
00000300
00022000
00000000
00000000
00000000
00033000
,
01000000
00000000
01000000
00000000
10000000
00100000
00010000
00000000
,
01000000
10000000
00100000
00010000
00001000
00000000
00011000
00000000
,
00000100
00000000
00000100
00000000
00001000
00000010
00000001
00000010
,
00001000
00000100
00000010
00000100
00001000
00000000
00001000
00000000
,
00000010
00000000
00000001
00000000
00000010
00001000
00000100
00000010
,
00001000
00010000
01000000
00100000
00010000
00000000
00010000
00000000
,
10000000
00100000
01000000
10000000
01000000
00100000
10000000
00100000
,
00010000
00001000
00000100
00000001
00000010
00000100
00000010
00000000
,
00001010
00000000
00001000
00000000
00010000
01000000
10000000
00000000
,
01010000
00000000
00010000
00000000
00001000
00000010
00000001
00000000
,
00001010
00000000
00001000
00000000
00010000
00100000
10000000
00000000
,
01000000
00100000
00010000
10000000
01000000
01000000
00100000
00000000
,
00110000
00000000
00010000
00000000
00001000
00000100
00000001
00000000
,
00001100
00000000
00001000
00000000
00010000
00100000
10000000
00000000
,
00110000
00000000
00010000
00000000
00001000
00000010
00000001
00000000
,
00000100
00000010
00001000
00000001
00000100
00000100
00000010
00000000
,
00010010
00000000
00010000
00000000
00001000
00000100
00010000
00000000
,
01001000
00000000
00001000
00000000
00010000
00100000
00001000
00000000
,
00010010
00000000
00010000
00000000
00001000
00000100
00010000
00000000
,
01000000
00100000
10000000
01000000
00100000
00100000
00001000
00000000
,
00101000
00000000
00100000
00000000
01000000
00010000
00001000
00000000
,
00010100
00000000
00000100
00000000
00000010
00001000
00010000
00000000
,
00101000
00000000
00100000
00000000
01000000
00010000
00001000
00000000
,
00000010
00000100
00001000
00000001
00000010
00000010
00001000
00000000
,
00010000
01000000
10000000
00100000
,
00010000
00000000
00001000
00000000
00011000
00000000
00011000
00010000
,
00001000
00000100
00000001
00000010
,
00001000
00000000
00010000
00000000
00011000
00001000
00010000
00001000
,
00010000
00100000
10000000
01000000
,
00010000
00000000
00001000
00000000
00011000
00000000
00011000
00010000
,
00001000
00000100
00000001
00000010
,
00001000
00000000
00000000
00000000
00010000
00000000
00000000
00001000
00010000
00000000
00001000
00000000
00010000
00000000
00001000
00000000
,
00011000
00000000
00000000
00000000
;

//---------------dance-single - ----------------
#NOTES:
     dance-single:
     :
     Beginner:
     4:
     0.178609,0.240368,0.061633,0.000000,0.000000,142.000000,135.000000,7.000000,0.000000,0.000000,0.000000,0.178609,0.240368,0.061633,0.000000,0.000000,142.000000,135.000000,7.000000,0.000000,0.000000,0.000000:
0000
0000
0000
0000
,
0000
0000
0000
0000
,
0000
0000
0000
0000
,
0000
0000
0000
0000
,
0000
0000
0000
0000
,
0000
0000
0000
0000
,
0000
0100
0000
0000
,
0000
0000
0000
0000
,
0000
0100
0000
0000
,
0000
0000
0000
0000
,
0000
0100
0000
0100
,
0000
0001
0000
0000
,
0000
0100
0000
0100
,
0000
1000
0000
0000
,
0000
0010
0000
0010
,
0000
0001
0000
0000
,
0000
0010
0000
0010
,
0000
1000
0000
0000
,
0000
0100
0000
0100
,
0000
0001
0000
0001
,
0000
0100
0000
0100
,
0000
1000
0000
1000
,
0000
0010
0000
0010
,
0000
0001
0000
0001
,
0000
0010
0000
0010
,
0000
1000
0000
1000
,
0000
0100
0000
0000
,
0000
0100
0000
0000
,
0000
0100
0000
0000
,
0000
0100
0000
0000
,
0000
1001
0000
0000
,
0000
1001
0000
0000
,
0000
1001
0000
0000
,
0000
1001
0000
0000
,
0000
0010
0000
0100
,
0000
0010
0000
0100
,
0000
0010
0000
0100
,
0000
0010
0000
0000
,
0000
0100
0000
0001
,
0000
0100
0000
0001
,
0000
0100
0000
0001
,
0000
0100
0000
0000
,
0000
0010
0000
1000
,
0000
0010
0000
1000
,
0000
0010
0000
1000
,
0000
0010
0000
0000
,
0000
1000
0000
0001
,
0000
1000
0000
0001
,
0000
1000
0000
0001
,
0000
1000
0000
0000
,
0000
1001
0000
0000
,
0000
1001
0000
0000
,
0000
1001
0000
0000
,
0000
0100
0000
0010
,
0000
0100
0000
0000
,
0000
0100
0000
0000
,
0000
0100
0000
0000
,
0000
0100
0000
0100
,
0000
0100
0000
0000
,
0010
0000
0010
0000
,
0010
0000
0000
0000
,
1000
0000
1000
0000
,
1000
0000
0000
0000
,
0001
0000
0001
0000
,
0001
0000
0000
0000
,
0100
0000
0100
0000
,
0100
0000
0000
0000
,
0010
0000
0010
0000
,
1000
0000
1000
0000
,
0001
0000
0001
0000
,
0100
0000
0100
0000
,
0010
0000
0010
0000
,
1000
0000
1000
0000
,
0001
0000
0001
0000
,
0100
0000
0100
0000
,
1000
0000
1000
0000
,
0010
0000
0010
0000
,
0001
0000
0001
0000
,
0100
0000
0100
0000
,
1000
0000
1000
0000
,
0010
0000
0010
0000
,
0001
0000
0001
0000
,
0100
0000
0100
0000
,
1000
0000
0000
0000
,
0001
0000
0000
0000
,
1000
0000
0000
0000
,
0001
0000
0000
0000
,
1000
0000
0001
0000
,
1000
0000
0001
0000
,
1000
0000
0001
0000
,
1000
0000
0001
0001
,
0001
0000
0000
0000
;

//---------------dance-single - ----------------
#NOTES:
     dance-single:
     :
     Easy:
     8:
     0.368539,0.480735,0.228922,0.017609,0.000000,293.000000,267.000000,26.000000,2.000000,0.000000,0.000000,0.368539,0.480735,0.228922,0.017609,0.000000,293.000000,267.000000,26.000000,2.000000,0.000000,0.000000:
0000
0000
0000
0000
,
0000
0000
0000
0000
,
0000
0000
0000
0000
,
0000
0000
0000
0000
,
0000
0000
0000
0000
,
0000
0000
0000
0000
,
0000
0100
0000
0100
,
0000
0100
0000
0001
,
0001
0100
0000
0100
,
0000
0100
0000
1000
,
0100
0100
0001
1000
,
0000
0100
1000
0001
,
0000
0010
0001
1000
,
0000
0000
0010
0000
1000
0000
0001
0001
,
0000
1000
0100
0010
,
0000
0001
0100
0010
,
0000
1000
0100
0010
,
0000
0000
0001
0000
0100
0000
0010
0010
,
0000
0010
1000
0001
,
0000
0010
0001
1000
,
0000
0010
1000
0001
,
0000
0000
0010
0000
0001
0000
1000
1000
,
0000
0100
0010
0001
,
0000
0100
0010
1000
,
0000
0100
0010
0001
,
0000
0000
0100
0000
0010
0000
0100
0100
,
0000
0010
0000
1000
,
0000
0100
0000
0001
,
0000
0010
0000
1000
,
0000
0100
0000
0001
,
0000
0010
0000
1001
,
0000
0100
0000
1001
,
0000
0010
0000
1001
,
0000
0100
0000
1001
,
0000
0010
0100
0010
,
0010
1000
0100
0010
,
0010
0001
0100
0010
,
0010
1000
0001
1000
,
1001
0100
0010
0100
,
0100
1000
0010
0100
,
0100
0001
0010
0100
,
0100
1000
0001
1000
,
1001
0010
1000
0001
,
0001
0100
1000
0001
,
0001
0010
1000
0001
,
0001
0100
1000
0001
,
1001
0100
0001
1000
,
1000
0010
0001
1000
,
1000
0100
0001
1000
,
1000
0010
0001
1000
,
1001
0010
0000
0000
,
0000
0010
0000
0000
,
0000
0010
0000
0000
,
0000
0010
0001
0100
,
0010
0100
0000
0000
,
0000
0100
0000
0000
,
0000
0100
0000
0000
,
0000
0100
1000
0010
,
0220
0330
0000
0000
,
1000
0000
1000
0000
,
1000
1000
0010
0010
,
0001
0000
0001
0000
,
0001
0001
0100
0100
,
1000
0000
1000
0000
,
1000
0010
0100
0010
,
0001
0000
0001
0000
,
0001
0100
0010
0110
,
1001
1000
0100
1000
,
1001
0001
0010
0001
,
1001
1000
0100
1000
,
0001
0010
0100
0010
,
1001
0001
0100
0001
,
1001
1000
0010
1000
,
1001
0001
0100
0001
,
1000
0010
0100
0010
,
0110
1000
0100
0010
,
0110
0001
0100
0010
,
0110
1000
0100
0010
,
0001
0100
1000
0010
,
0110
0001
0010
0100
,
0110
1000
0010
0100
,
0110
0001
0010
0100
,
1000
0010
0001
0100
,
0110
0000
0001
0000
,
0100
0000
0000
0000
1000
1000
1000
0000
,
0110
0000
1000
0000
,
0010
0000
0000
0000
0001
0001
0001
0000
,
0110
0000
0001
0000
,
0100
0000
1000
0000
,
0010
0000
0001
0000
,
1000
0000
0000
0000
0010
0010
0100
0000
,
0110
0000
0000
0000
;

//---------------dance-double - ----------------
#NOTES:
     dance-double:
     :
     Easy:
     9:
     0.364765,0.480735,0.202508,0.017609,0.000000,290.000000,267.000000,23.000000,2.000000,0.000000,0.000000,0.364765,0.480735,0.202508,0.017609,0.000000,290.000000,267.000000,23.000000,2.000000,0.000000,0.000000:
00000000
00000000
00000000
00000000
,
00000000
00000000
00000000
00000000
,
00000000
00000000
00000000
00000000
,
00000000
00000000
00000000
00000000
,
00000000
00000000
00000000
00000000
,
00000000
00000000
00000000
00000000
,
00000000
01000000
00000000
01000000
,
00000000
01000000
00000000
00001000
,
00010000
00000010
00000000
00000010
,
00000000
00000010
00000000
00010000
,
00011000
00001000
00010000
01000000
,
00000000
01000000
00010000
00001000
,
00000000
00001000
00010000
01000000
,
00000000
00000000
01000000
00000000
00010000
00000000
00001000
00001000
,
00000000
00010000
00001000
00000100
,
00000000
00000100
00001000
00010000
,
00000000
00010000
00001000
00000100
,
00000000
00000000
00000100
00000000
00001000
00000000
00010000
00010000
,
00000000
00001000
00000010
00000001
,
00000000
00000001
00000100
00001000
,
00000000
00010000
00100000
10000000
,
00000000
00000000
10000000
00000000
01000000
00000000
00010000
00010000
,
00000000
00010000
00100000
10000000
,
00000000
10000000
01000000
00010000
,
00000000
00001000
00000010
00000001
,
00000000
00000000
00000001
00000000
00000100
00000000
00001000
00001000
,
00000000
00100000
00000000
00010000
,
00000000
00000010
00000000
00001000
,
00000000
00100000
00000000
00010000
,
00000000
00000010
00000000
00001000
,
00000000
01000000
00000000
00010000
,
00000000
00000100
00000000
00001000
,
00000000
01000000
00000000
00010000
,
00000000
00000100
00000000
00001000
,
00000000
00010000
00001000
00010000
,
00010000
01000000
10000000
00010000
,
00010000
01000000
00001000
00010000
,
00010000
01000000
00010000
00001000
,
00011000
00001000
00010000
00001000
,
00001000
00000010
00000001
00001000
,
00001000
00000010
00010000
00001000
,
00001000
00000010
00001000
00010000
,
00011000
00010000
00001000
00000010
,
00000010
00000100
00000010
00000001
,
00000001
00000010
00000001
00000100
,
00000100
00001000
00010000
00001000
,
00011000
00001000
00010000
01000000
,
01000000
00100000
01000000
10000000
,
10000000
01000000
10000000
00100000
,
00100000
00010000
00001000
00010000
,
00011000
00000010
00000000
00000000
,
00000000
00100000
00000000
00000000
,
00000000
00000010
00000000
00000000
,
00000000
00100000
00001000
00010000
,
00011000
00000100
00000000
00000000
,
00000000
01000000
00000000
00000000
,
00000000
00000100
00000000
00000000
,
00000000
01000000
00001000
00010000
,
00022000
00033000
00000000
00000000
,
00001000
00000000
00010000
00000000
,
00100000
10000000
01000000
00010000
,
00010000
00000000
00001000
00000000
,
00000010
00000001
00000100
00001000
,
00001000
00000000
00010000
00000000
,
01000000
10000000
00100000
00010000
,
00010000
00000000
00001000
00000000
,
00000100
00000001
00000010
00001000
,
00011000
00010000
01000000
00010000
,
00011000
00001000
00000100
00001000
,
00011000
00010000
01000000
00010000
,
00001000
00000100
00001000
00010000
,
00011000
00001000
00000010
00001000
,
00011000
00010000
00100000
00010000
,
00011000
00001000
00000010
00001000
,
00010000
00100000
00010000
00001000
,
00011000
00010000
00001000
00000010
,
00001001
00000010
00001000
00010000
,
00011000
00001000
00000010
00000001
,
00000100
00001000
00010000
00001000
,
00011000
00001000
00010000
01000000
,
10010000
01000000
00010000
00001000
,
00011000
00010000
01000000
10000000
,
00100000
00010000
00001000
00010000
,
00011000
00000000
00010000
00000000
,
00001000
00000000
00000000
00000000
00000010
00000100
00000010
00000000
,
00011000
00000000
00001000
00000000
,
00010000
00000000
00000000
00000000
01000000
00100000
01000000
00000000
,
00011000
00000000
00000100
00000000
,
00000001
00000000
00000010
00000000
,
00001000
00000000
00010000
00000000
,
00100000
00000000
00000000
00000000
10000000
10000000
01000000
00000000
,
00011000
00000000
00000000
00000000
;

//---------------dance-single - ----------------
#NOTES:
     dance-single:
     :
     Medium:
     11:
     0.523249,0.560858,0.220117,0.017609,0.000000,416.000000,391.000000,25.000000,2.000000,0.000000,0.000000,0.523249,0.560858,0.220117,0.017609,0.000000,416.000000,391.000000,25.000000,2.000000,0.000000,0.000000:
0000
0000
0000
0000
,
0000
0000
0000
0000
,
0000
0000
0000
0000
,
0000
0000
0000
0000
,
0000
0000
0000
0000
,
0000
0000
0000
0000
,
0000
0100
0100
0001
,
0001
0100
0100
1000
,
1001
0010
0010
1000
,
1000
0010
0010
0001
,
1001
0000
1000
0100
1000
0000
0010
0000
,
0001
0000
0010
0000
1000
0000
0100
0100
,
0010
0000
0001
0010
0001
0000
0100
0000
,
1000
0000
0100
0000
0001
0000
0010
0010
,
0100
0000
1000
0010
1000
0000
0100
0000
,
0001
0000
0100
0000
0010
0000
0100
0100
,
1000
0000
0001
0100
0001
0000
0010
0000
,
1000
0000
0010
0000
0100
0000
0010
0010
,
0001
0000
1000
0100
0010
0000
0010
0001
,
0100
0000
1000
0000
0100
0000
0001
0001
,
0010
0000
0001
0010
0100
0000
0100
1000
,
0010
0000
0001
0000
0010
0000
1000
1000
,
0100
0000
1000
0010
0100
0000
0100
0001
,
1000
0000
0100
0000
0001
0000
0100
0100
,
0010
0000
0001
0100
0010
0000
0010
1000
,
0001
0000
0010
0000
1000
0000
0010
0010
,
0100
0000
0110
0000
1000
0000
0010
0010
,
0000
0000
0100
0000
0001
0000
0010
0010
,
0000
0000
0100
0000
1000
0000
0010
0010
,
0000
0000
0100
0000
0001
0000
0010
0010
,
0000
0000
0110
0000
1000
0000
0001
0001
,
0000
0000
0100
0000
0001
0000
1000
1000
,
0000
0000
0010
0000
1000
0000
0001
0001
,
0000
0000
0100
0000
0001
0000
1000
1000
,
0010
0110
0001
0100
,
1000
0110
1000
0010
,
0001
0110
0001
0100
,
1000
0000
0010
0100
0001
0000
1000
0100
,
0010
0110
1000
0010
,
0001
0110
0001
0100
,
1000
0110
1000
0010
,
0001
0000
0100
0010
1000
0000
0001
0010
,
0100
0110
1000
0010
,
0001
1100
0001
0010
,
1000
0101
1000
0010
,
0001
0000
0010
0100
0010
0100
0010
0000
,
0100
0110
1000
0010
,
0001
1100
0001
0010
,
1000
0101
1000
0010
,
0001
0000
0100
0010
0100
0010
0100
0000
,
0110
1000
0000
0001
,
0000
1000
0000
0001
,
0000
1000
0000
0001
,
0000
0000
1000
0010
1000
0001
0010
0001
,
0100
0001
0000
1000
,
0000
0001
0000
1000
,
0000
0001
0000
1000
,
0000
0000
0001
0100
0001
1000
0100
1000
,
0010
0000
0220
0000
0000
0000
0000
0330
,
0001
0001
1000
1000
,
0001
0100
1000
0000
0001
0000
1001
0000
,
1000
1000
0001
0001
,
1000
0010
0001
0000
1000
0000
1001
0000
,
0010
0010
1000
1000
,
0100
0001
0010
0000
0100
0000
1001
0000
,
0100
0100
0001
0001
,
0010
1000
0100
0000
0010
0000
1001
0000
,
1000
0010
0100
0000
1000
0000
0001
0000
,
1000
0010
0100
0000
1000
0000
0001
0000
,
1000
0010
0100
0000
1000
0000
0001
0000
,
1000
0010
0100
0001
1000
0000
1000
0000
,
0001
0010
0100
0000
0001
0000
1000
0000
,
0001
0010
0100
0000
0001
0000
1000
0000
,
0001
0010
0100
0000
0001
0000
1000
0000
,
0001
0010
0100
1000
0001
0000
0001
0000
,
0100
1000
0010
0000
0001
0000
1000
0000
,
0100
1000
0010
0000
0001
0000
1000
0000
,
0100
1000
0010
0000
0010
1000
0100
0000
,
0100
0001
0010
0100
0010
0000
0110
0000
,
0010
0001
0100
0000
1000
0000
0001
0000
,
0010
0001
0100
0000
1000
0000
0001
0000
,
0010
0001
0100
0000
0100
0001
0010
0000
,
0010
1000
0100
0010
0100
0000
0110
0000
,
0001
0100
1000
0010
,
0001
0000
0100
0000
0010
0010
0010
0000
,
1000
0100
0001
0010
,
1000
0000
0100
0000
0010
0010
0010
0000
,
1000
0010
0001
0100
,
1000
0000
0010
0000
0100
0100
0100
0000
,
0001
0010
1000
0100
,
0001
0000
0010
0000
0100
0100
0100
0000
,
0110
0000
0000
0000
;

//---------------dance-double - ----------------
#NOTES:
     dance-double:
     :
     Medium:
     12:
     0.506898,0.560858,0.334578,0.017609,0.000000,403.000000,365.000000,38.000000,2.000000,0.000000,0.000000,0.506898,0.560858,0.334578,0.017609,0.000000,403.000000,365.000000,38.000000,2.000000,0.000000,0.000000:
// measure 0
00000000
00000000
00000000
00000000
,  // measure 1
00000000
00000000
00000000
00000000
,  // measure 2
00000000
00000000
00000000
00000000
,  // measure 3
00000000
00000000
00000000
00000000
,  // measure 4
00000000
00000000
00000000
00000000
,  // measure 5
00000000
00000000
00000000
00000000
,  // measure 6
00000000
01000000
01000000
00010000
,  // measure 7
00010000
00001000
00001000
00000010
,  // measure 8
00001001
00000100
00000100
00001000
,  // measure 9
00001000
00010000
00010000
00100000
,  // measure 10
10010000
10000000
01000000
00010000
,  // measure 11
01000000
10000000
00100000
00001000
,  // measure 12
00001001
00000001
00000010
00001000
,  // measure 13
00000010
00000001
00000100
00010000
,  // measure 14
10010000
10000000
01000000
00001000
,  // measure 15
00010000
01000000
00001000
00000010
,  // measure 16
00001001
00000001
00000010
00010000
,  // measure 17
00001000
00000010
00010000
01000000
,  // measure 18
10010000
00000000
10000000
01000000
00100000
00000000
00100000
00010000
,  // measure 19
01000000
00001000
00000100
00000001
,  // measure 20
00001001
00000000
00000001
00000010
00000100
00000000
00000100
00001000
,  // measure 21
00000010
00010000
00100000
10000000
,  // measure 22
10010000
00000000
10000000
00100000
00010000
00000000
00010000
01000000
,  // measure 23
10000000
00100000
00001000
00000010
,  // measure 24
00001001
00000000
00000001
00000010
00001000
00000000
00001000
00000100
,  // measure 25
00000001
00000010
00010000
00100000
,  // measure 26
10010000
01100000
10000000
00100000
,  // measure 27
00000000
00100000
00010000
00000010
,  // measure 28
00000000
01000000
00001000
00000100
,  // measure 29
00000000
00000100
00000001
00000010
,  // measure 30
00000000
00000110
00000001
00001000
,  // measure 31
00000000
00000001
00001000
00010000
,  // measure 32
00000000
00001000
00010000
10000000
,  // measure 33
00000000
00010000
10000000
00100000
,  // measure 34
01000000
01100000
10000000
01000000
,  // measure 35
00010000
00011000
00001000
00000010
,  // measure 36
00000001
00000110
00001000
00010000
,  // measure 37
01000000
00000000
10000000
01000000
00100000
00000000
00010000
00001000
,  // measure 38
00000010
00000110
00000001
00000010
,  // measure 39
00001000
00011000
00010000
01000000
,  // measure 40
10000000
01100000
00010000
00001000
,  // measure 41
00000010
00000000
00000001
00000010
00000100
00000000
00001000
00010000
,  // measure 42
01000000
11000000
10000000
00100000
,  // measure 43
00010000
00001100
00010000
00100000
,  // measure 44
10000000
01010000
10000000
00100000
,  // measure 45
00010000
00000000
00001000
00000010
00000001
00000010
00001000
00000000
,  // measure 46
00000100
00000101
00000001
00000010
,  // measure 47
00001000
01010000
00001000
00000010
,  // measure 48
00000001
00001100
00000001
00000010
,  // measure 49
00001000
00000000
00010000
00100000
10000000
00100000
00010000
00000000
,  // measure 50
00100000
01000000
00000000
00010000
,  // measure 51
00000000
00000100
00000000
00001000
,  // measure 52
00000000
01000000
00000000
00010000
,  // measure 53
00000000
00000000
00000100
00000010
00001000
00000000
00010000
01000000
,  // measure 54
00100000
00100000
00000000
00001000
,  // measure 55
00000000
00000010
00000000
00010000
,  // measure 56
00000000
00100000
00000000
00001000
,  // measure 57
00000000
00000000
00000010
00000100
00001000
00000000
01000000
00100000
,  // measure 58
00010000
00000000
00022000
00000000
00000000
00000000
00000000
00033000
,  // measure 59
00001000
00001000
00010000
00001000
,  // measure 60
00000010
00000001
00000100
00000000
00001000
00000000
00011000
00000000
,  // measure 61
00010000
00010000
00001000
00010000
,  // measure 62
01000000
10000000
00100000
00000000
00010000
00000000
00011000
00000000
,  // measure 63
00001000
00001000
00000010
00000001
,  // measure 64
00000100
00001000
00010000
00000000
00001000
00000000
00011000
00000000
,  // measure 65
00010000
00010000
01000000
10000000
,  // measure 66
00100000
00010000
00001000
00000000
00010000
00000000
00011000
00000000
,  // measure 67
00000100
00000010
00000001
00000000
00001000
00000000
00000001
00000000
,  // measure 68
00000010
00000100
00001000
00000000
00000001
00000000
00001000
00000000
,  // measure 69
00000100
00000010
00000001
00000000
00000100
00000000
00010000
00000000
,  // measure 70
01000000
00100000
01000000
00000000
10100000
00000000
01010000
00000000
,  // measure 71
01000000
00100000
10000000
00000000
00010000
00000000
10000000
00000000
,  // measure 72
00100000
01000000
00010000
00000000
10000000
00000000
00010000
00000000
,  // measure 73
01000000
00100000
10000000
00000000
01000000
00000000
00001000
00000000
,  // measure 74
00000100
00000010
00000100
00000000
00001100
00000000
00000011
00000000
,  // measure 75
00000001
00000100
00001000
00000000
00010000
00000000
00100000
00000000
,  // measure 76
10000000
01000000
00010000
00000000
00001000
00000000
00000010
00000000
,  // measure 77
00000001
00000100
00001000
00000000
00001000
00000010
00000001
00000000
,  // measure 78
00000001
00000100
00001000
00000000
00110000
00000000
11000000
00000000
,  // measure 79
10000000
01000000
00010000
00000000
00001000
00000000
00000010
00000000
,  // measure 80
00000001
00000100
00001000
00000000
00010000
00000000
01000000
00000000
,  // measure 81
10000000
00100000
00010000
00000000
00010000
01000000
10000000
00000000
,  // measure 82
10000000
00100000
00010000
00000000
00001010
00000000
00000101
00000000
,  // measure 83
00000001
00000010
00000100
00001000
,  // measure 84
00010000
00000000
01000000
00000000
00100000
00100000
00100000
00000000
,  // measure 85
10000000
01000000
00100000
00010000
,  // measure 86
00001000
00000000
00000010
00000000
00000100
00000100
00000100
00000000
,  // measure 87
00000001
00000100
00000010
00001000
,  // measure 88
00010000
00000000
00100000
00000000
01000000
01000000
01000000
00000000
,  // measure 89
10000000
00100000
01000000
00010000
,  // measure 90
00001000
00000000
00000100
00000000
00000010
00000010
00000010
00000000
,  // measure 91
00001001
00000000
00000000
00000000
;
