#VERSION:0.83;
#TITLE:Running in the Dark;
#SUBTITLE:;
#ARTIST:Monkey Majik;
#TITLETRANSLIT:;
#SUBTITLETRANSLIT:;
#ARTISTTRANSLIT:;
#GENRE:J-MUSIC;
#ORIGIN:;
#CREDIT:MUINELIM;
#BANNER:Running in the Dark.png;
#BACKGROUND:Running in the Dark-bg.png;
#PREVIEWVID:;
#JACKET:Running in the Dark-jacket.png;
#CDIMAGE:;
#DISCIMAGE:;
#LYRICSPATH:;
#CDTITLE:;
#MUSIC:Running in the Dark.ogg;
#OFFSET:0.000000;
#SAMPLESTART:46.560001;
#SAMPLELENGTH:11.520000;
#SELECTABLE:YES;
#BPMS:0.000=125.000;
#STOPS:;
#DELAYS:;
#WARPS:;
#TIMESIGNATURES:0.000=4=4;
#TICKCOUNTS:0.000=4;
#COMBOS:0.000=1;
#SPEEDS:0.000=1.000=0.000=0;
#SCROLLS:0.000=1.000;
#FAKES:;
#LABELS:0.000=Song Start;
#BGCHANGES:0.000=Running in the Dark.avi=1.000=1=0=0=StretchNoLoop==CrossFade==,
99999=-nosongbg-=1.000=0=0=0 // don't automatically add -songbackground-
;
#KEYSOUNDS:;
#ATTACKS:
;

//---------------dance-single - ----------------
#NOTEDATA:;
#CHARTNAME:;
#STEPSTYPE:dance-single;
#DESCRIPTION:;
#CHARTSTYLE:;
#DIFFICULTY:Hard;
#METER:11;
#RADARVALUES:0.371385,0.442745,0.030826,0.534325,0.046240,253.000000,250.000000,3.000000,52.000000,0.000000,0.000000,0.000000,0.000000,0.000000,0.371385,0.442745,0.030826,0.534325,0.046240,253.000000,250.000000,3.000000,52.000000,0.000000,0.000000,0.000000,0.000000,0.000000;
#CREDIT:MILEN;
#NOTES:
0000
0000
0000
0000
,
0000
0000
0000
0000
,
0000
0000
0000
0000
,
0000
0000
0000
0000
,
2000
0010
0000
3010
,
0002
0100
0000
0103
,
2000
0001
0000
3001
,
0020
0000
0000
0000
0100
0000
0000
0000
0000
0000
0130
0000
0100
0010
0100
0000
,
0001
0000
1000
0010
0000
0100
0001
0000
,
0010
0000
0100
1000
0000
0001
0020
0000
,
0130
0000
1000
0010
0000
0001
0100
0000
,
1000
0000
0000
0000
0001
0000
0010
0000
0000
0000
1000
0000
0100
0010
0100
0000
,
0001
0000
1000
0100
0000
0010
0001
0000
,
0100
0000
0010
1000
0000
0001
0200
0000
,
0310
0000
1000
0100
0000
0001
0010
0000
,
1000
0000
0000
0000
0001
0000
0100
0000
0000
0000
1000
0000
0010
0100
0010
0000
,
0001
0001
0010
0100
2000
0000
0010
3010
,
0000
0000
0001
0010
0100
0001
0100
0010
,
0001
0000
1000
0100
0010
1000
0010
0100
,
2000
0000
0000
0000
3020
0000
0000
0000
0230
0000
0000
0000
0301
1000
0001
0000
,
1000
1000
0010
0100
0002
0000
0010
0013
,
0000
0000
1000
0010
0100
1000
0001
0010
,
0200
0000
0000
0010
0020
0000
0330
0000
,
1001
0000
0000
0000
0110
0000
0220
0000
0000
0000
0330
0000
0001
1000
0001
0000
,
1000
1000
0010
0100
0001
0010
0100
1000
,
0002
0203
0320
2030
,
0000
3001
0001
0100
0010
1000
0100
0010
,
0002
0203
0320
2030
,
3001
0001
0010
1000
0001
0100
1000
0010
,
0200
0302
2003
3020
,
0230
0000
0000
0001
0301
0000
0000
0000
,
0020
0000
0000
0000
0000
0000
1000
0000
1030
0000
0000
0000
1000
0100
1000
0000
,
0010
0100
0001
1000
0100
0010
1000
0010
,
0002
0100
2003
0100
3002
0100
0103
0000
,
0100
0010
1000
0001
0010
0100
0001
0100
,
2000
0010
3002
0010
2003
0010
3010
0000
,
0010
0100
0001
0010
1000
0001
0100
1000
,
0002
0010
2003
0100
3002
0010
2003
0100
,
3020
0000
0000
0100
0200
0000
0330
0000
,
2000
0000
0000
0000
0000
0000
0001
0000
3001
0000
0000
0000
0001
0100
0001
0000
,
0010
0100
2000
0001
0000
0000
3100
0000
,
0100
0010
0002
1000
0000
0000
0013
0000
,
0010
0100
2000
0010
0000
0000
3001
0000
,
0002
0000
0000
0000
0203
0000
0000
0000
0000
0000
0000
0000
0310
1000
0010
0000
,
1000
0100
0001
0200
1000
0000
0310
0000
,
0001
0010
1000
0020
0001
0000
0130
0000
,
1000
0010
0001
0200
1000
0000
0310
0001
,
0200
0000
0020
0000
0000
0000
0000
0000
0300
0000
0000
0000
1030
0001
1000
0000
;

//---------------dance-double - ----------------
#NOTEDATA:;
#CHARTNAME:;
#STEPSTYPE:dance-double;
#DESCRIPTION:;
#CHARTSTYLE:;
#DIFFICULTY:Hard;
#METER:11;
#RADARVALUES:0.374321,0.467342,0.051377,0.431570,0.046240,255.000000,250.000000,5.000000,42.000000,0.000000,0.000000,0.000000,0.000000,0.000000,0.374321,0.467342,0.051377,0.431570,0.046240,255.000000,250.000000,5.000000,42.000000,0.000000,0.000000,0.000000,0.000000,0.000000;
#CREDIT:MILEN;
#NOTES:
00000000
00000000
00000000
00000000
,
00000000
00000000
00000000
00000000
,
00000000
00000000
00000000
00000000
,
00000000
00000000
00000000
00000000
,
00002000
00100000
00000000
00103000
,
00020000
00000010
00000000
00030010
,
00002000
01000000
00000000
01003000
,
00020000
00000000
00000000
00000000
00000100
00000000
00000000
00000000
00000000
00000000
00030100
00000000
00000100
00001000
00000100
00000000
,
00000010
00000000
00000001
00000100
00000000
00001000
00010000
00000000
,
00100000
00000000
10000000
01000000
00000000
00010000
00002000
00000000
,
00103000
00000000
00100000
01000000
00000000
00010000
00001000
00000000
,
00010000
00000000
00000000
00000000
00000100
00000000
00000010
00000000
00000000
00000000
00001000
00000000
01000000
00010000
01000000
00000000
,
00100000
00000000
10000000
01000000
00000000
00010000
00001000
00000000
,
00000010
00000000
00000001
00000100
00000000
00001000
00020000
00000000
,
00030010
00000000
00000010
00000100
00000000
00001000
00010000
00000000
,
00001000
00000000
00000000
00000000
01000000
00000000
00100000
00000000
00000000
00000000
00010000
00000000
00000010
00001000
00000010
00000000
,
00000100
00000100
00000001
00000010
00002000
00000000
00010000
00013000
,
00000000
00000000
00010000
01000000
10000000
00100000
01000000
00010000
,
00100000
00000000
00001000
00010000
01000000
10000000
00100000
01000000
,
00020000
00000000
00000000
00000000
00230000
00000000
00000000
00000000
00302000
00000000
00000000
00000000
00013000
00000100
00010000
00000000
,
01000000
01000000
10000000
00100000
00020000
00000000
00001000
00031000
,
00000000
00000000
00001000
00000100
00000001
00000010
00000100
00010000
,
00002000
00000000
00000000
00100000
00200000
00000000
00303000
00000000
,
00010010
00000000
00000000
00000000
01001000
00000000
02002000
00000000
00000000
00000000
03003000
00000000
01000000
00010000
01000000
00000000
,
00100000
00100000
10000000
01000000
00010000
00000100
00010000
01000000
,
20000000
30200000
00320000
00032000
,
00000000
00003010
00000001
00000100
00001000
01000000
00001000
00000100
,
00000002
00000023
00000230
00020300
,
00031000
00100000
01000000
10000000
00100000
00001000
00100000
10000000
,
02000000
03020000
00032000
00003020
,
00000032
00000000
00000000
00000100
00000103
00000000
00000000
00000000
,
00002000
00000000
00000000
00000000
00000000
00000000
00000010
00000000
00003010
00000000
00000000
00000000
00000010
00000100
00000010
00000000
,
00001000
00000100
00000010
00000001
00001000
00000100
00000010
00001000
,
00010000
01000000
00100000
00001000
00010000
01000000
01100000
00000000
,
00010000
01000000
00100000
10000000
00010000
01000000
00100000
00010000
,
00001000
00000100
00000010
00010000
00001000
00000100
00000110
00000000
,
00000001
00000010
00001000
00010000
01000000
10000000
00100000
00010000
,
00001000
00000010
00001000
00010000
00100000
00010000
00001000
00000100
,
00002000
00000000
00000000
01000000
02000000
00000000
03003000
00000000
,
00020000
00000000
00000000
00000000
00000000
00000000
00000100
00000000
00030100
00000000
00000000
00000000
00000100
00000010
00000100
00000000
,
00000010
00000001
00000100
00002000
00000000
00000000
00013000
00000000
,
00100000
10000000
01000000
00020000
00000000
00000000
00031000
00000000
,
00000100
00000001
00000010
00002000
00000000
00000000
00013000
00000000
,
00020000
00000000
00000000
00000000
00230000
00000000
00000000
00000000
00000000
00000000
00000000
00000000
10300000
01000000
10000000
00000000
,
01000000
00010000
00001000
00100000
02000000
00000000
03010000
00000000
,
00001000
00010000
00000100
00000010
00002000
00000000
00013000
00000000
,
00100000
10000000
01000000
00010000
00002000
00000000
00003010
00000001
,
00000200
00000000
00002000
00000000
00000000
00000000
00000000
00000000
00000300
00000000
00000000
00000000
00013000
01000000
00010000
00000000
;

//---------------dance-single - ----------------
#NOTEDATA:;
#CHARTNAME:;
#STEPSTYPE:dance-single;
#DESCRIPTION:;
#CHARTSTYLE:;
#DIFFICULTY:Beginner;
#METER:3;
#RADARVALUES:0.117434,0.147967,0.010275,0.030826,0.000000,80.000000,79.000000,1.000000,3.000000,0.000000,0.000000,0.000000,0.000000,0.000000,0.117434,0.147967,0.010275,0.030826,0.000000,80.000000,79.000000,1.000000,3.000000,0.000000,0.000000,0.000000,0.000000,0.000000;
#CREDIT:MILEN;
#NOTES:
0000
0000
0000
0000
,
0000
0000
0000
0000
,
0000
0000
0000
0000
,
0000
0000
0000
0000
,
1000
0000
0000
0000
,
0001
0000
0000
0000
,
0100
0000
0000
0000
,
0010
0000
0000
0100
,
0100
0000
0001
0000
,
0100
0000
0001
0000
,
0100
0000
0001
0000
,
0000
0000
0000
1000
,
1000
0000
0010
0000
,
1000
0000
0010
0000
,
1000
0000
0010
0000
,
0000
0000
0000
0100
,
0100
0000
0001
0000
,
0010
0000
0100
0000
,
1000
0000
0010
0000
,
0100
0000
0000
0001
,
0001
0000
1000
0000
,
0100
0000
0010
0000
,
0001
0000
1000
0000
,
1001
0000
0000
0000
,
0001
0000
0001
0000
,
0001
0001
0001
0000
,
1000
0000
1000
0000
,
1000
1000
1000
0000
,
0010
0000
0010
0000
,
0010
0010
0010
0000
,
0100
0000
0010
0000
,
0200
0000
0300
0000
,
0010
0000
1000
0000
,
0010
0010
0010
0000
,
0100
0000
0001
0000
,
0100
0100
0100
0000
,
0001
0000
1000
0000
,
0001
0001
0001
0000
,
1000
0000
0001
0000
,
2000
0000
3000
0000
,
0001
0000
0000
0000
,
0100
0000
0000
0000
,
1000
0000
0000
0000
,
0010
0000
0000
0000
,
0001
0000
0000
0000
,
0100
0000
0000
0000
,
1000
0000
0000
0000
,
0010
0020
0000
0000
,
0030
0000
0000
0000
;

//---------------dance-single - ----------------
#NOTEDATA:;
#CHARTNAME:;
#STEPSTYPE:dance-single;
#DESCRIPTION:;
#CHARTSTYLE:;
#DIFFICULTY:Easy;
#METER:5;
#RADARVALUES:0.186427,0.221950,0.010275,0.246612,0.000000,127.000000,126.000000,1.000000,24.000000,0.000000,0.000000,0.000000,0.000000,0.000000,0.186427,0.221950,0.010275,0.246612,0.000000,127.000000,126.000000,1.000000,24.000000,0.000000,0.000000,0.000000,0.000000,0.000000;
#CREDIT:MILEN;
#NOTES:
0000
0000
0000
0000
,
0000
0000
0000
0000
,
0000
0000
0000
0000
,
0000
0000
0000
0000
,
1000
0000
0000
0000
,
0100
0000
0000
0000
,
0010
0000
0000
0000
,
0001
0000
0000
1000
,
1000
0010
1000
0010
,
0000
0100
0001
0100
,
0001
0100
0200
0000
,
0300
0000
0000
0001
,
0001
0010
0001
0010
,
0000
0100
1000
0100
,
1000
0100
0200
0000
,
0300
0000
0000
1000
,
1000
0001
1000
0100
,
0000
1000
0001
0010
,
0000
0001
1000
0010
,
0100
0010
0020
0030
,
0000
1000
0100
0010
,
0000
0001
0010
0100
,
1000
0000
0001
0000
,
1001
0000
2000
3002
,
1003
0010
1000
0100
,
1000
0010
1000
0100
,
0000
0010
0001
0100
,
0001
0010
0001
0100
,
0000
1000
0001
1000
,
0010
0100
0010
1000
,
0002
0000
0103
0000
,
2000
0000
3010
0000
,
0001
0010
0100
0010
,
0001
0010
0100
1000
,
0000
0100
0010
0100
,
1000
0100
0010
0001
,
0000
0010
0100
0010
,
0001
1000
0001
0100
,
0020
0000
1030
0000
,
0200
0000
0301
0000
,
0001
1000
0002
2003
,
3000
0010
0200
0320
,
0030
1000
0002
2003
,
3020
0000
0000
0030
,
1000
0001
0020
0230
,
0300
1000
0200
0320
,
0030
0001
0200
0320
,
2030
0000
0000
0002
,
3003
0000
0000
0000
;

//---------------dance-double - ----------------
#NOTEDATA:;
#CHARTNAME:;
#STEPSTYPE:dance-double;
#DESCRIPTION:;
#CHARTSTYLE:;
#DIFFICULTY:Easy;
#METER:5;
#RADARVALUES:0.184959,0.221950,0.010275,0.164408,0.000000,126.000000,125.000000,1.000000,16.000000,0.000000,0.000000,0.000000,0.000000,0.000000,0.184959,0.221950,0.010275,0.164408,0.000000,126.000000,125.000000,1.000000,16.000000,0.000000,0.000000,0.000000,0.000000,0.000000;
#CREDIT:MILEN;
#NOTES:
00000000
00000000
00000000
00000000
,
00000000
00000000
00000000
00000000
,
00000000
00000000
00000000
00000000
,
00000000
00000000
00000000
00000000
,
00001000
00000000
00000000
00000000
,
00010000
00000000
00000000
00000000
,
00001000
00000000
00000000
00000000
,
00010000
00000000
00000000
00001000
,
00001000
00100000
00010000
00100000
,
00000000
00001000
00010000
00001000
,
00010000
00001000
00002000
00000000
,
00003000
00000000
00000000
00010000
,
00010000
00000010
00001000
00000010
,
00000000
00010000
00001000
00010000
,
00001000
00010000
00020000
00000000
,
00030000
00000000
00000000
00001000
,
00001000
00010000
01000000
10000000
,
00000000
10000000
01000000
00010000
,
00000000
00010000
01000000
10000000
,
00100000
00010000
00020000
00030000
,
00000000
00001000
00000100
00000001
,
00000000
00000001
00000100
00001000
,
00010000
00000000
00001000
00000000
,
00011000
00000000
00020000
00032000
,
00013000
00100000
10000000
01000000
,
10000000
00100000
00010000
00001000
,
00000000
00000100
00000001
00000010
,
00000001
00000100
00001000
00010000
,
00000000
01000000
10000000
00100000
,
10000000
01000000
00010000
00001000
,
00200000
00000000
01300000
00000000
,
00020000
00000000
00031000
00000000
,
00000010
00000001
00000100
00001000
,
00010000
00100000
10000000
01000000
,
00000000
10000000
01000000
00010000
,
00001000
00000010
00000001
00000100
,
00000000
00000001
00000000
00000100
,
00001000
00010000
00000100
00000010
,
00002000
00000000
00013000
00000000
,
02000000
00000000
03100000
00000000
,
00010000
10000000
00100000
00020000
,
00030000
00001000
00000100
00000002
,
00000003
00000010
00001000
00010000
,
00200000
00000000
00000000
00300000
,
10000000
01000000
00100000
00020000
,
00030000
00001000
00000100
00000020
,
00000030
00000001
00000100
00000010
,
00020000
00000000
00000000
00002000
,
00033000
00000000
00000000
00000000
;

//---------------dance-single - ----------------
#NOTEDATA:;
#CHARTNAME:;
#STEPSTYPE:dance-single;
#DESCRIPTION:;
#CHARTSTYLE:;
#DIFFICULTY:Medium;
#METER:9;
#RADARVALUES:0.284778,0.345256,0.061653,0.637080,0.000000,194.000000,188.000000,6.000000,62.000000,0.000000,0.000000,0.000000,0.000000,0.000000,0.284778,0.345256,0.061653,0.637080,0.000000,194.000000,188.000000,6.000000,62.000000,0.000000,0.000000,0.000000,0.000000,0.000000;
#CREDIT:MILEN;
#NOTES:
0000
0000
0000
0000
,
0000
0000
0000
0000
,
0000
0000
0000
0000
,
0000
0000
0000
0000
,
2000
0000
0000
3000
,
0200
0000
0000
0300
,
0020
0000
0000
0030
,
0002
0000
0000
0000
0000
1000
1003
0000
,
1000
0000
0001
0100
0000
0100
0001
0000
,
1000
0000
0001
0010
0000
0010
0002
0000
,
1003
0000
0001
0100
0000
0100
0001
0000
,
1000
0000
0001
0000
1000
0000
0001
1000
,
0001
0000
1000
0010
0000
0010
1000
0000
,
0001
0000
1000
0100
0000
0100
2000
0000
,
3001
0000
1000
0010
0000
0010
1000
0000
,
0001
0000
1000
0000
0001
0000
1000
0001
,
1000
0000
0100
1000
0200
0000
0320
0000
,
0031
0000
0010
0001
0020
0000
0230
0000
,
1300
0000
0100
1000
0200
0000
0320
0000
,
0032
0000
2003
0000
3020
0000
0130
0010
,
0100
0000
0001
0010
0002
0000
2003
0000
,
3100
0000
1000
0100
2000
0000
3002
0000
,
0023
0000
0000
0100
0200
0000
0330
0000
,
1001
0000
0000
0110
0000
0000
0001
1000
,
0002
0023
0230
2300
,
3020
0001
0100
1030
,
2000
3200
0320
0032
,
0203
1000
0010
0301
,
0002
0203
0320
2030
,
3200
0001
0010
1000
,
0320
0000
0000
0001
0031
0000
0000
0000
,
0200
0000
0000
1000
1300
0000
1001
0000
,
0002
0203
2300
3200
,
0301
0100
1000
0000
1000
0100
0001
0000
,
2000
3020
0032
0023
,
1030
0010
0001
0000
0001
0010
1000
0000
,
0002
0203
2300
3020
,
0032
0023
2030
3200
,
0302
0000
0000
0010
0013
0000
0000
0000
,
2000
0000
0000
0100
3100
0000
1001
0000
,
0001
0000
1000
0010
0100
0000
0010
0000
,
1000
0000
0001
0100
0010
0000
0100
0000
,
0001
0000
1000
0010
0100
0000
0020
0000
,
0100
0200
0000
0000
0330
0000
0110
0000
,
0100
0001
0010
0000
0001
0100
0010
0000
,
1000
0010
0100
0000
0010
1000
0100
0000
,
1000
0001
0010
0000
0001
1000
0200
0000
,
0010
0020
0000
0000
0330
0000
2002
0000
,
3003
0000
0000
0000
;

//---------------dance-double - ----------------
#NOTEDATA:;
#CHARTNAME:;
#STEPSTYPE:dance-double;
#DESCRIPTION:;
#CHARTSTYLE:;
#DIFFICULTY:Medium;
#METER:9;
#RADARVALUES:0.277438,0.345256,0.061653,0.678182,0.000000,189.000000,183.000000,6.000000,66.000000,0.000000,0.000000,0.000000,0.000000,0.000000,0.277438,0.345256,0.061653,0.678182,0.000000,189.000000,183.000000,6.000000,66.000000,0.000000,0.000000,0.000000,0.000000,0.000000;
#CREDIT:MILEN;
#NOTES:
// measure 0
00000000
00000000
00000000
00000000
,  // measure 1
00000000
00000000
00000000
00000000
,  // measure 2
00000000
00000000
00000000
00000000
,  // measure 3
00000000
00000000
00000000
00000000
,  // measure 4
00002000
00000000
00000000
00003000
,  // measure 5
00020000
00000000
00000000
00030000
,  // measure 6
00000200
00000000
00000000
00000300
,  // measure 7
00000020
00000000
00000000
00000000
00000000
00000001
00000031
00000000
,  // measure 8
00000100
00000000
00001000
00010000
00000000
00010000
00001000
00000000
,  // measure 9
00000100
00000000
00000001
00000010
00000000
00000010
00000002
00000000
,  // measure 10
00000103
00000000
00001000
01000000
00000000
01000000
00001000
00000000
,  // measure 11
00010000
00000000
01000000
00000000
10000000
00000000
00100000
01000000
,  // measure 12
00100000
00000000
00010000
00001000
00000000
00001000
00010000
00000000
,  // measure 13
00100000
00000000
10000000
01000000
00000000
01000000
20000000
00000000
,  // measure 14
30100000
00000000
00010000
00000010
00000000
00000010
00010000
00000000
,  // measure 15
00001000
00000000
00000010
00000000
00000001
00000000
00000100
00000010
,  // measure 16
00000100
00000000
00000001
00000010
00002000
00000000
00023000
00000000
,  // measure 17
00130000
00000000
10000000
01000000
00020000
00000000
00032000
00000000
,  // measure 18
00003100
00000000
00000001
00000010
00002000
00000000
00103000
00000000
,  // measure 19
00020000
00030010
00002000
00013000
,  // measure 20
01000000
00000000
10000000
00100000
00020000
00000000
00032000
00000000
,  // measure 21
00003010
00000000
00000001
00000100
00002000
00000000
00023000
00000000
,  // measure 22
00230000
00000000
00000000
01000000
02000000
00000000
03300000
00000000
,  // measure 23
10010000
00000000
00000000
00011000
00000000
00000000
00001000
00000100
,  // measure 24
00000002
00000023
00000230
00002300
,  // measure 25
00023000
01000000
00100000
10030000
,  // measure 26
20000000
32000000
03200000
00320000
,  // measure 27
00032000
00000010
00000100
00003001
,  // measure 28
00000002
00000203
00000320
00002030
,  // measure 29
00023000
00100000
01000000
10000000
,  // measure 30
00230000
00000000
00000000
00001000
00301000
00000000
00000000
00000000
,  // measure 31
00000020
00000000
00000000
00010000
00010030
00000000
00011000
00000000
,  // measure 32
00002000
00023000
02030000
23000000
,  // measure 33
32000000
03020000
00032000
00013000
,  // measure 34
00020000
00032000
00003020
00000032
,  // measure 35
00000023
00002030
00023000
00031000
,  // measure 36
00002000
00023000
02030000
23000000
,  // measure 37
30200000
00320000
00032000
00003200
,  // measure 38
00000302
00000000
00000000
00000010
00000013
00000000
00000000
00000000
,  // measure 39
00002000
00000000
00000000
00000100
00003100
00000000
00001001
00000000
,  // measure 40
00000001
00000000
00001000
00000010
00010000
00000000
00001000
00000000
,  // measure 41
00100000
00000000
00010000
01000000
00001000
00000000
00010000
00000000
,  // measure 42
00000100
00000000
00001000
00000010
00010000
00000000
00200000
00000000
,  // measure 43
01000000
02000000
00000000
00000000
03300000
00000000
10010000
00000000
,  // measure 44
10000000
00100000
00010000
00000000
00100000
00010000
00001000
00000000
,  // measure 45
00010000
00001000
00000010
00000000
00001000
00000010
00000001
00000000
,  // measure 46
00000100
00001000
00010000
00000000
00001000
00010000
02000000
00000000
,  // measure 47
00100000
00200000
00000000
00000000
03300000
00000000
20020000
00000000
,  // measure 48
30030000
00000000
00000000
00000000
;
