#VERSION:0.83;
#TITLE:Rooftop;
#SUBTITLE:;
#ARTIST:N.Flying;
#TITLETRANSLIT:;
#SUBTITLETRANSLIT:;
#ARTISTTRANSLIT:;
#GENRE:K-POP;
#ORIGIN:;
#CREDIT:MUINELIM;
#BANNER:Rooftop.png;
#BACKGROUND:Rooftop-bg.png;
#PREVIEWVID:;
#JACKET:Rooftop-jacket.png;
#CDIMAGE:;
#DISCIMAGE:;
#LYRICSPATH:;
#CDTITLE:;
#MUSIC:Rooftop.mp3;
#OFFSET:0.303000;
#SAMPLESTART:22.583599;
#SAMPLELENGTH:12.371132;
#SELECTABLE:YES;
#DISPLAYBPM:97.000000;
#BPMS:0.000=97.000;
#STOPS:;
#DELAYS:;
#WARPS:;
#TIMESIGNATURES:0.000=4=4;
#TICKCOUNTS:0.000=4;
#COMBOS:0.000=1;
#SPEEDS:0.000=1.000=0.000=0;
#SCROLLS:0.000=1.000;
#FAKES:;
#LABELS:0.000=Song Start;
#BGCHANGES:;
#KEYSOUNDS:;
#ATTACKS:
;

//---------------dance-single - ----------------
#NOTEDATA:;
#CHARTNAME:;
#STEPSTYPE:dance-single;
#DESCRIPTION:;
#CHARTSTYLE:;
#DIFFICULTY:Beginner;
#METER:2;
#RADARVALUES:0.091760,0.117466,0.017598,0.000000,0.000000,73.000000,71.000000,2.000000,0.000000,0.000000,0.000000,0.000000,0.000000,0.000000,0.091760,0.117466,0.017598,0.000000,0.000000,73.000000,71.000000,2.000000,0.000000,0.000000,0.000000,0.000000,0.000000,0.000000;
#CREDIT:MILEN;
#DISPLAYBPM:97.000000;
#NOTES:
0000
0000
0000
0000
,
0000
0000
1000
0000
,
1000
0000
1000
0000
,
1000
0000
0001
0000
,
0001
0000
0001
0000
,
0001
0000
1000
0000
,
1000
0000
0001
0000
,
0001
0000
1000
0000
,
0001
0000
1000
0000
,
0001
0000
1000
0000
,
0100
0000
0010
0000
,
0001
0000
1000
0000
,
0100
0000
0010
0000
,
0001
0000
0010
0000
,
0000
0000
0100
0000
,
0000
0000
1000
0000
,
0001
0000
1000
0000
,
1001
0000
0001
0000
,
0000
0000
0100
0000
,
0000
0000
0010
0000
,
0000
0000
1000
0000
,
0000
0000
0100
0000
,
0000
0000
0010
0000
,
0000
0000
0001
0000
,
0000
0000
1000
0000
,
0000
0000
0010
0000
,
0010
0000
0010
0000
,
0000
0000
0100
0000
,
0100
0100
0000
0000
,
0000
0000
0001
0000
,
0100
0000
0010
0000
,
1000
0000
0001
0000
,
0100
0000
0010
0000
,
1000
0000
0010
0000
,
0000
0000
0100
0000
,
0000
0000
0001
0000
,
1000
0000
0001
0000
,
1001
0000
0100
0000
,
0000
0000
0010
0000
,
0000
0000
0100
0000
,
0010
0010
0010
0000
,
0000
0000
1000
0000
,
0100
0000
0001
0000
,
0010
0000
1000
0000
,
0100
0000
0010
0000
;

//---------------dance-single - ----------------
#NOTEDATA:;
#CHARTNAME:;
#STEPSTYPE:dance-single;
#DESCRIPTION:;
#CHARTSTYLE:;
#DIFFICULTY:Easy;
#METER:5;
#RADARVALUES:0.183521,0.234932,0.263968,0.000000,0.000000,146.000000,116.000000,30.000000,0.000000,0.000000,0.000000,0.000000,0.000000,0.000000,0.183521,0.234932,0.263968,0.000000,0.000000,146.000000,116.000000,30.000000,0.000000,0.000000,0.000000,0.000000,0.000000,0.000000;
#CREDIT:MILEN;
#DISPLAYBPM:97.000000;
#NOTES:
0000
0000
0000
0000
,
0000
0000
1000
0000
,
0100
0000
0010
0000
,
0001
0000
0001
0000
,
0010
0000
0100
0000
,
1000
0000
1000
0000
,
0010
0000
0100
0000
,
0001
0000
0001
0000
,
0100
0000
0010
0000
,
1000
0000
1001
0000
,
1100
0000
1001
0000
,
1100
0000
1001
0000
,
0101
0000
1001
0000
,
0101
0000
0001
0010
,
0001
0000
1000
0100
,
1000
0000
1001
0000
,
1100
0000
0101
0000
,
1001
0000
1000
0100
,
0010
0100
1000
0100
,
0100
0000
0001
0010
,
0100
0010
0001
0010
,
0010
0000
1000
0001
,
0100
1000
0010
0001
,
1001
0000
0010
0100
,
0010
0110
1000
0100
,
0010
0001
0100
0000
,
0100
0000
0100
1000
,
0010
0000
0010
0010
,
0010
0001
0100
0000
,
0000
0000
1001
0000
,
0011
0000
1001
0000
,
0011
0000
1001
0000
,
1010
0000
1001
0000
,
1010
0000
1000
0100
,
0010
0000
0001
0010
,
0100
0000
1001
0000
,
0011
0000
1010
0000
,
1001
0000
0001
0100
,
1000
0000
0001
0010
,
1000
0000
0001
0100
,
1000
0001
1001
0000
,
0000
0100
0100
1000
,
0010
0001
1000
0100
,
0001
0010
0110
1000
,
0110
0001
1001
0000
;

//---------------dance-double - ----------------
#NOTEDATA:;
#CHARTNAME:;
#STEPSTYPE:dance-double;
#DESCRIPTION:;
#CHARTSTYLE:;
#DIFFICULTY:Easy;
#METER:4;
#RADARVALUES:0.158381,0.195777,0.123185,0.000000,0.000000,126.000000,112.000000,14.000000,0.000000,0.000000,0.000000,0.000000,0.000000,0.000000,0.158381,0.195777,0.123185,0.000000,0.000000,126.000000,112.000000,14.000000,0.000000,0.000000,0.000000,0.000000,0.000000,0.000000;
#CREDIT:MILEN;
#DISPLAYBPM:97.000000;
#NOTES:
00000000
00000000
00000000
00000000
,
00000000
00000000
00010000
00000000
,
01000000
00000000
00010000
00000000
,
01000000
00000000
00001000
00000000
,
00010000
00000000
00001000
00000000
,
00010000
00000000
00000010
00000000
,
00001000
00000000
00000010
00000000
,
00001000
00000000
00000100
00000000
,
00010000
00000000
00001000
00000000
,
00100000
00000000
00101000
00000000
,
00001000
00000000
00101000
00000000
,
00001000
00000000
00010010
00000000
,
00010000
00000000
00010010
00000000
,
00010000
00000000
00001000
01000000
,
00001000
00000000
00010000
00000100
,
00010000
00000000
00011000
00000000
,
00001000
00000000
00011000
00000000
,
00010000
00000000
00001000
00100000
,
00010000
01000000
00001000
00100000
,
00001000
00000000
00010000
00000100
,
00001000
00000010
00010000
00000100
,
00010000
00000000
00001000
00010000
,
00100000
10000000
01000000
00100000
,
01000000
00000000
10000000
00100000
,
00010000
00001000
00000100
00000001
,
00000010
00000100
00000010
00000000
,
00000010
00000000
00001000
00000000
,
00010000
00000000
00100000
00000000
,
00100000
10000000
01000000
00010000
,
00001000
00000000
01001000
00000000
,
00001000
00000000
01001000
00000000
,
00001000
00000000
00010100
00000000
,
00010000
00000000
00010100
00000000
,
00010000
00000000
00001000
00100000
,
00001000
00000000
00010000
00000010
,
00010000
00000000
00011000
00000000
,
00001000
00000000
00011000
00000000
,
00010000
00000000
00001000
00000000
,
00000100
00000000
00000001
00000000
,
00000010
00000000
00001000
00000000
,
00010000
00000000
00011000
00000000
,
00000000
01000000
01000000
00010000
,
00100000
01000000
00010000
00001000
,
00000010
00000100
00001000
00000001
,
00000010
00001000
00011000
00000000
;

//---------------dance-single - ----------------
#NOTEDATA:;
#CHARTNAME:;
#STEPSTYPE:dance-single;
#DESCRIPTION:;
#CHARTSTYLE:;
#DIFFICULTY:Medium;
#METER:7;
#RADARVALUES:0.300421,0.332820,0.448746,0.000000,0.000000,239.000000,188.000000,51.000000,0.000000,0.000000,0.000000,0.000000,0.000000,0.000000,0.300421,0.332820,0.448746,0.000000,0.000000,239.000000,188.000000,51.000000,0.000000,0.000000,0.000000,0.000000,0.000000,0.000000;
#CREDIT:MILEN;
#DISPLAYBPM:97.000000;
#NOTES:
0000
0000
0000
0000
,
0000
0000
1000
0100
,
1000
0100
0010
0001
,
0010
0001
0100
0010
,
0100
0010
1000
0001
,
1000
0001
0100
0010
,
1000
0001
0010
0100
,
1000
0010
0100
0010
,
1000
0001
1000
1001
,
0010
0100
0010
0000
0110
0000
1010
0000
,
0110
1010
0110
1001
,
0110
0000
0110
0101
,
0110
0101
0110
1001
,
0110
0000
1000
0100
1000
0000
0001
0000
,
1000
0000
0001
0010
0001
0000
1000
0000
,
0001
1000
1010
0110
,
0101
0110
1001
0110
,
1001
0000
0000
0001
1000
0000
0001
0000
,
0100
0000
0010
0000
1000
0000
0100
0010
,
0001
0000
1000
0001
1000
0000
0010
0000
,
0100
0000
0001
0000
0010
0000
0100
1000
,
0010
0000
0000
0100
0001
0000
0100
0010
,
1000
0000
0010
0100
0001
0000
0100
0010
,
0110
0000
0000
1000
0100
0000
1000
0000
,
0001
0010
0100
0000
1000
0010
0100
0001
,
1000
0001
0100
0000
,
0100
0000
0100
1000
,
0010
0000
0010
0010
,
0010
0000
0001
1000
1001
0000
0000
0000
,
0000
0000
1100
1001
,
1100
1001
1010
0110
,
0101
0000
0011
1001
,
0011
1001
0101
0110
,
1010
0000
1000
0100
0010
0000
0001
0000
,
0100
0000
0001
0010
0100
0000
1000
0000
,
0010
1000
1100
0011
,
0101
1010
0110
1001
,
0110
0000
0000
0000
1000
0001
0100
0000
,
0001
1000
0010
0000
1000
0001
0010
0000
,
0001
1000
0100
0000
1000
0010
0100
0000
,
0001
0100
0010
0000
0110
0000
0000
0000
,
0000
0000
0100
0010
0100
0000
0010
0100
,
0010
0000
1000
0100
0010
0000
0001
0010
,
0100
0000
1000
0001
0101
0000
1100
0000
,
1010
0011
1001
0000
;

//---------------dance-double - ----------------
#NOTEDATA:;
#CHARTNAME:;
#STEPSTYPE:dance-double;
#DESCRIPTION:;
#CHARTSTYLE:;
#DIFFICULTY:Medium;
#METER:7;
#RADARVALUES:0.279052,0.313242,0.281566,0.000000,0.000000,222.000000,190.000000,32.000000,0.000000,0.000000,0.000000,0.000000,0.000000,0.000000,0.279052,0.313242,0.281566,0.000000,0.000000,222.000000,190.000000,32.000000,0.000000,0.000000,0.000000,0.000000,0.000000,0.000000;
#CREDIT:MILEN;
#DISPLAYBPM:97.000000;
#NOTES:
00000000
00000000
00000000
00000000
,
00000000
00000000
00010000
01000000
,
00010000
01000000
00001000
00010000
,
00001000
00010000
00000100
00001000
,
00000100
00001000
00000010
00010000
,
00000010
00010000
00001000
00100000
,
00010000
01000000
00001000
00010000
,
00000100
00001000
00000010
00010000
,
00001000
00100000
00010000
10010000
,
01000000
00100000
01000000
00000000
01100000
00000000
00010000
00000000
,
00011000
00000100
00000110
00001000
,
00001001
00000000
00000110
00001000
,
00011000
00100000
01100000
00010000
,
10010000
00000000
10000000
01000000
00100000
00000000
00001000
00000000
,
00010000
00000000
00000100
00000010
00000001
00000000
00000100
00000000
,
00001000
00010000
00010010
00001000
,
00101000
00010000
00010100
00001000
,
01001000
00000000
00000000
00010000
00001000
00000000
00000100
00000000
,
00000001
00000000
00000010
00000000
00000100
00000000
00010000
00001000
,
00010000
00000000
00001000
00010000
00001000
00000000
00100000
00000000
,
01000000
00000000
10000000
00000000
00100000
00000000
00010000
00001000
,
00010000
00000000
00000000
00000100
00001000
00000000
00000100
00000010
,
00000001
00000000
00000010
00000100
00001000
00000000
00000100
00010000
,
00011000
00000000
00000000
00001000
00100000
00000000
00010000
00000000
,
00100000
01000000
10000000
00000000
00100000
01000000
00010000
01000000
,
00001000
00010000
00000100
00000000
,
00000100
00000000
00000100
00001000
,
00000010
00000000
00000010
00010000
,
00001000
00000000
00100000
01000000
10000000
00000000
00100000
00000000
,
00010000
00000000
00011000
01000000
,
00011000
00000100
00011000
00100000
,
00011000
00000000
00011000
00000100
,
00011000
00100000
00011000
00000010
,
00011000
00000000
00001000
00010000
01000000
00000000
10000000
00000000
,
00100000
00000000
00010000
00001000
00000100
00000000
00000001
00000000
,
00000010
00001000
00011000
01000000
,
00011000
00000010
00011000
00100000
,
00011000
00000000
00000000
00000000
00001000
00010000
01000000
00000000
,
01000000
10000000
00100000
00000000
00100000
00010000
00001000
00000000
,
00001000
00000100
00000001
00000000
00000001
00000010
00000100
00000000
,
00000100
00010000
00001000
00000000
00011000
00000000
00000000
00000000
,
00000000
00000000
00001000
01000000
00001000
00000000
00010000
00000100
,
00010000
00000000
00001000
00100000
00001000
00000000
00010000
00000010
,
00010000
00000000
00001000
00010000
00011000
00000000
00010010
00000000
,
00101000
00010100
01001000
00000000
;

//---------------dance-single - ----------------
#NOTEDATA:;
#CHARTNAME:;
#STEPSTYPE:dance-single;
#DESCRIPTION:;
#CHARTSTYLE:;
#DIFFICULTY:Hard;
#METER:10;
#RADARVALUES:0.400980,0.352398,0.369556,0.000000,0.008799,319.000000,277.000000,42.000000,0.000000,0.000000,0.000000,0.000000,0.000000,0.000000,0.400980,0.352398,0.369556,0.000000,0.008799,319.000000,277.000000,42.000000,0.000000,0.000000,0.000000,0.000000,0.000000,0.000000;
#CREDIT:MILEN;
#DISPLAYBPM:97.000000;
#NOTES:
0000
0000
0000
0000
,
0000
0000
1000
0001
,
1000
0100
1000
0001
0100
0001
1000
0100
,
1000
1001
0001
1000
,
0001
0010
0001
1000
0010
1000
0001
0010
,
0001
0000
1000
0000
0010
0100
0000
0001
,
0100
0000
0010
0000
0100
0010
0000
1000
,
0010
0000
0100
0000
0110
0000
0000
0010
,
1000
0010
0100
0001
0100
0010
1000
0100
,
0010
0001
0100
0010
1010
0000
1100
0000
,
0001
0010
0100
1000
0100
0010
0001
0100
,
0110
0000
0010
0100
0101
0000
0011
0000
,
1000
0100
0010
0001
0010
0100
1000
0010
,
0110
1000
0100
0010
0001
0100
0000
1010
,
0000
0001
0010
0100
1000
0010
0000
0101
,
0000
1000
0010
0100
0101
0000
1010
0000
,
0011
0001
0010
0100
1000
0001
0010
0100
,
1000
0000
0000
0010
0010
1000
0010
0100
,
0001
0100
0010
1000
0100
0010
0001
0100
,
0110
0000
1000
1000
0010
0100
0001
0010
,
0001
1000
0100
1000
0010
0100
0001
1000
,
1010
0000
0101
0000
0001
0010
0100
0001
,
0100
1000
0100
0001
0100
1000
0100
0010
,
0011
0000
1100
0000
1000
0010
0100
0001
,
0010
0100
0100
1000
0010
0001
0010
1000
,
0010
0001
0010
0100
0101
0000
0000
1010
,
0000
0000
1000
0100
0010
0001
0100
0010
,
0100
0000
0001
0010
0011
0000
1100
0000
,
0110
0000
0000
0000
0001
1000
0001
1000
0000
0000
0000
0000
0000
0000
0000
0000
,
0000
0000
0010
1000
0101
0000
0011
0000
,
1000
0100
0001
0100
1000
0010
0100
0001
,
0110
0000
0100
0001
1010
0000
1100
0000
,
0001
0010
1000
0010
0001
0100
0010
1000
,
0110
0001
0100
1000
0010
0001
0000
1100
,
0000
1000
0100
0001
0010
1000
0000
0011
,
0000
1000
0010
0001
0101
0000
1010
0000
,
1100
0001
0010
0100
0001
1000
0010
0100
,
1000
0000
0010
0010
0100
0001
0100
1000
,
0100
0001
0110
0000
0010
1000
0010
0001
,
0010
1000
0110
0000
0001
0010
1000
0001
,
0100
1000
0010
0100
1001
0000
0000
0000
,
0000
1000
1000
1000
0100
0010
0001
1100
,
0000
0001
0010
0100
0001
0100
1000
0011
,
0000
1000
0100
0010
0011
0000
1100
0000
,
0001
0010
1000
0100
1001
0000
0000
0000
;

//---------------dance-double - ----------------
#NOTEDATA:;
#CHARTNAME:;
#STEPSTYPE:dance-double;
#DESCRIPTION:;
#CHARTSTYLE:;
#DIFFICULTY:Hard;
#METER:10;
#RADARVALUES:0.390925,0.352398,0.299164,0.000000,0.008799,311.000000,277.000000,34.000000,0.000000,0.000000,0.000000,0.000000,0.000000,0.000000,0.390925,0.352398,0.299164,0.000000,0.008799,311.000000,277.000000,34.000000,0.000000,0.000000,0.000000,0.000000,0.000000,0.000000;
#CREDIT:MILEN;
#DISPLAYBPM:97.000000;
#NOTES:
// measure 0
00000000
00000000
00000000
00000000
,  // measure 1
00000000
00000000
00001000
00010000
,  // measure 2
00000100
00001000
00000100
00000010
00000001
00000010
00000100
00010000
,  // measure 3
00001000
00011000
00010000
00001000
,  // measure 4
00100000
00010000
00100000
01000000
10000000
01000000
00100000
00001000
,  // measure 5
00010000
00000000
00001000
00000000
00000100
00000010
00000000
00000001
,  // measure 6
00000100
00000000
00001000
00000000
01000000
00100000
00000000
10000000
,  // measure 7
01000000
00000000
00010000
00000000
00011000
00000000
00000000
00001000
,  // measure 8
00100000
00001000
00010000
00000010
00010000
00001000
01000000
00010000
,  // measure 9
00100000
01000000
10000000
00100000
00010000
00000000
00011000
00000000
,  // measure 10
00001000
00100000
01000000
00010000
00001000
00000010
00000100
00000010
,  // measure 11
00000110
00000000
00000001
00000100
00001000
00000000
00011000
00000000
,  // measure 12
00010000
00000100
00000010
00001000
00010000
01000000
00100000
01000000
,  // measure 13
01100000
10000000
00100000
00010000
00001000
00000100
00000000
00000011
,  // measure 14
00000000
00000001
00000010
00001000
00010000
00100000
00000000
11000000
,  // measure 15
00000000
10000000
00100000
00010000
00011000
00000000
01001000
00000000
,  // measure 16
00010100
00000100
00000010
00000001
00001000
00000100
00000010
00001000
,  // measure 17
00010000
00000000
00000000
00001000
00001000
00100000
01000000
10000000
,  // measure 18
00100000
00010000
00001000
00000100
00000001
00000010
00000100
00000010
,  // measure 19
00000110
00000000
00001000
00001000
00000010
00000001
00000010
00001000
,  // measure 20
00000100
00000010
00001000
00010000
01000000
00100000
00010000
10000000
,  // measure 21
01000000
00000000
01100000
00000000
00010000
10000000
00100000
00010000
,  // measure 22
00001000
00000100
00000001
00000010
00001000
00010000
01000000
10000000
,  // measure 23
00100000
00000000
01010000
00000000
00010000
00100000
01000000
00010000
,  // measure 24
00001000
00010000
00010000
00000100
00000010
00000001
00001000
00000010
,  // measure 25
00000100
00001000
00010000
00100000
10100000
00000000
00000000
01010000
,  // measure 26
00000000
00000000
00010000
00001000
00000100
00000010
00000100
00001000
,  // measure 27
00000001
00000000
00000010
00000001
00000101
00000000
00001100
00000000
,  // measure 28
00011000
00000000
00000000
00000000
00010000
00001000
00010000
00001000
00000000
00000000
00000000
00000000
00000000
00000000
00000000
00000000
,  // measure 29
00000000
00000000
00010000
00100000
10000000
00000000
01010000
00000000
,  // measure 30
00010000
00100000
01000000
00010000
00001000
00000010
00000100
00001000
,  // measure 31
00000001
00000000
00001000
00000010
00000001
00000000
00001010
00000000
,  // measure 32
00001000
00000100
00000010
00001000
00010000
01000000
00100000
00010000
,  // measure 33
10000000
00100000
00010000
00001000
00000100
00000001
00000000
00001010
,  // measure 34
00000000
00000001
00000010
00001000
00010000
01000000
00000000
10100000
,  // measure 35
00000000
10000000
01000000
00100000
00101000
00000000
00010010
00000000
,  // measure 36
00001100
00000100
00000010
00000001
00001000
00000100
00000010
00000001
,  // measure 37
00001000
00000000
00010000
00010000
01000000
00100000
10000000
01000000
,  // measure 38
00100000
00001000
00011000
00000000
00000010
00000100
00000001
00000010
,  // measure 39
00000100
00010000
00011000
00000000
00100000
01000000
10000000
00100000
,  // measure 40
00010000
00001000
00000100
00000001
00000011
00000000
00000000
00000000
,  // measure 41
00000000
00010000
00010000
00010000
00001000
00100000
01000000
10010000
,  // measure 42
00000000
01000000
00010000
00001000
00000010
00000100
00000001
00001010
,  // measure 43
00000000
00000100
00001000
00010000
01100000
00000000
10010000
00000000
,  // measure 44
00010000
00001000
00000100
00000010
00001001
00000000
00000000
00000000
;
