#TITLE:Rolling Christmas;
#SUBTITLE:;
#ARTIST:BanYa;
#TITLETRANSLIT:;
#SUBTITLETRANSLIT:;
#ARTISTTRANSLIT:;
#GENRE:VARIETY;
#CREDIT:;
#BANNER:Rolling Christmas.png;
#BACKGROUND:Rolling Christmas-bg.PNG;
#LYRICSPATH:;
#CDTITLE:;
#MUSIC:Rolling Christmas.MP3;
#OFFSET:-0.129000;
#SAMPLESTART:72.293556;
#SAMPLELENGTH:11.839996;
#LASTBEATHINT:235.073380;
#SELECTABLE:YES;
#BPMS:0.000000=142;
#STOPS:
;
#BGCHANGES:0.000=Rolling Christmas.avi=1.000=0=0=0=StretchNoLoop====,
99999=-nosongbg-=1.000=0=0=0 // don't automatically add -songbackground-
;
#KEYSOUNDS:;
#ATTACKS:;

//---------------dance-single - ----------------
#NOTES:
     dance-single:
     :
     Beginner:
     4:
     0.133939,0.197597,0.020163,0.000000,0.000000,93.000000,91.000000,2.000000,0.000000,0.000000,0.000000,0.133939,0.197597,0.020163,0.000000,0.000000,93.000000,91.000000,2.000000,0.000000,0.000000,0.000000:
0000
0000
0000
0000
,
0000
0000
0000
0000
,
0000
0000
0000
0000
,
0000
0000
0000
0000
,
0000
0100
0100
0100
,
0100
0000
0000
0000
,
0001
0000
0001
0000
,
0001
0000
0000
0000
,
1000
0000
0000
0000
,
0010
0000
0000
0000
,
0100
0000
0100
0000
,
0100
0100
0000
0000
,
0001
0000
1000
0000
,
0001
0000
1000
0000
,
0100
0000
0010
0000
,
0100
0000
0010
0000
,
0001
0000
1000
0000
,
0100
0000
0000
0000
,
1000
0000
0001
0000
,
0010
0000
0000
0000
,
0001
0000
1000
0000
,
0010
0000
0000
0000
,
1000
0000
0001
0000
,
0100
0000
0000
0000
,
0000
0000
0000
0000
,
0010
0000
0010
0000
,
1000
0000
1000
0000
,
0001
0000
0001
0000
,
0100
0000
0100
0000
,
0010
0000
1000
0000
,
0010
0000
0100
0000
,
0001
0000
0100
0000
,
0010
0000
0110
0000
,
1000
0000
1000
0000
,
1000
1000
1000
0000
,
0001
0000
0001
0000
,
0001
0001
0001
0000
,
1000
0000
0001
0000
,
0100
0100
0100
0000
,
0001
0000
1000
0000
,
0010
0010
0010
0010
,
0000
0000
0000
0000
,
0000
0000
0000
0000
,
0001
0000
0000
0000
,
0100
0000
0000
0000
,
1000
0000
0000
0000
,
0010
0000
0000
0000
,
0001
0000
0001
0000
,
0100
0000
0000
0000
,
1000
0000
1000
0000
,
0010
0000
0000
0000
,
0001
0000
0001
0000
,
0100
0000
0100
0000
,
1000
0000
1000
0000
,
0010
0000
0010
0000
,
0001
0000
1000
0000
,
1001
0000
0000
0000
;

//---------------dance-single - ----------------
#NOTES:
     dance-single:
     :
     Easy:
     4:
     0.165624,0.225825,0.040326,0.141140,0.000000,115.000000,111.000000,4.000000,14.000000,0.000000,0.000000,0.165624,0.225825,0.040326,0.141140,0.000000,115.000000,111.000000,4.000000,14.000000,0.000000,0.000000:
0000
0000
0000
0000
,
0000
0000
0000
0000
,
0000
0000
0000
0000
,
0000
0000
0000
0000
,
0000
0100
0100
0100
,
0200
0000
0300
0001
,
1000
0000
0001
0000
,
2000
0000
3000
1000
,
1000
0000
0000
0001
,
0001
0000
0000
0000
,
1000
0002
0000
0003
,
2000
0000
3000
0001
,
0100
0000
1000
0000
,
0010
0000
0001
0000
,
0100
0000
1000
0000
,
0010
0000
0001
0000
,
0100
0000
0100
0000
,
0200
0000
0300
0000
,
1000
0000
1000
0000
,
2000
0000
3000
0000
,
0010
0010
0000
0001
,
0001
0000
0100
0000
,
0010
0000
1000
0000
,
2002
0000
0000
0000
,
0000
0000
0000
3003
,
0001
0100
0001
0000
,
1000
0010
1000
0000
,
0001
0010
0001
0000
,
1000
0100
1000
1000
,
0001
0010
0001
0000
,
1000
0100
1000
0000
,
0001
0100
0001
0000
,
1000
0010
1000
1000
,
0001
0000
0001
0000
,
0001
0001
0002
0003
,
1000
0000
1000
0000
,
1000
1000
1000
0010
,
0100
0000
0100
0000
,
0100
0100
0200
0300
,
0010
0000
0010
0000
,
0010
0100
0001
1001
,
0000
0000
0000
0000
,
0000
0000
0000
1000
,
0100
0000
0001
0000
,
0010
0000
1000
0000
,
0010
0000
0001
0000
,
0100
0000
1000
0000
,
0100
0000
0001
0000
,
0020
0000
0030
0000
,
0010
0000
1000
0000
,
0200
0000
0300
0000
,
0100
0100
0000
0010
,
0010
0000
0100
0010
,
0001
0000
1000
0000
,
2002
0000
0000
0000
,
0000
0000
0000
3003
,
1001
0000
0000
0000
;

//---------------dance-single - ----------------
#NOTES:
     dance-single:
     :
     Medium:
     6:
     0.292362,0.400486,0.191548,0.292362,0.000000,203.000000,184.000000,19.000000,29.000000,0.000000,0.000000,0.292362,0.400486,0.191548,0.292362,0.000000,203.000000,184.000000,19.000000,29.000000,0.000000,0.000000:
0000
0000
0000
0000
,
0000
0000
0000
0000
,
0000
0000
0000
0000
,
0000
0000
0000
0000
,
0000
0100
0100
0100
,
0200
0000
0000
0300
,
0010
1000
0010
1000
,
0001
0100
0001
0100
,
0001
0010
0001
0010
,
0100
1000
0100
1000
,
0100
0100
0000
0010
,
0200
0000
0010
0310
,
0010
0001
0100
0001
,
0010
0001
0200
1300
,
0100
1000
0010
1000
,
0100
1000
0020
0031
,
0001
1000
0001
0100
,
0002
0010
1000
0103
,
1000
0010
1000
0001
,
2000
0100
0001
3010
,
0110
2002
3003
0100
,
0020
0000
0130
0001
,
1000
0010
0001
0100
,
2000
3010
0002
0013
,
2000
3100
0002
0103
,
1000
0100
0110
0000
,
0001
0010
0110
0000
,
1000
0010
0110
0000
,
0001
0100
0110
1000
,
0001
0010
2000
3000
,
1000
0100
0002
0003
,
0001
0010
1000
0100
,
0001
0010
0200
0310
,
0011
0000
1100
0000
,
0011
0100
0010
0010
,
1010
0000
0101
0000
,
1010
0100
0010
0010
,
1000
0100
0001
0010
,
1000
0100
0002
1003
,
0001
0100
1000
0010
,
0001
0100
2000
3001
,
0110
0000
0000
0000
,
0000
0000
0000
0000
,
1000
0010
0001
0010
,
1000
0010
0002
0103
,
0001
0100
1000
0100
,
0001
0100
2000
3010
,
0010
0001
0100
0001
,
0020
1030
0100
0001
,
0100
1000
0010
1000
,
0200
0301
0010
1000
,
0010
0210
0000
0010
,
0310
0001
0100
1000
,
0020
0031
0200
1300
,
0020
1030
0200
0301
,
0011
1100
1010
0101
,
2002
0000
0000
3003
;

//---------------dance-single - ----------------
#NOTES:
     dance-single:
     :
     Hard:
     9:
     0.442144,0.514910,0.332688,0.393177,0.000000,307.000000,274.000000,33.000000,39.000000,0.000000,0.000000,0.442144,0.514910,0.332688,0.393177,0.000000,307.000000,274.000000,33.000000,39.000000,0.000000,0.000000:
0000
0000
0000
0000
,
0000
0000
0000
0000
,
0000
0000
0000
0000
,
0100
0000
0100
0000
0100
0001
1000
0010
,
0100
0110
1001
0110
,
2002
0000
0000
3003
,
0001
0001
1000
1000
,
0010
0100
0010
0000
1000
0000
0001
0000
,
0102
1003
0001
1000
,
2100
3001
1000
0001
,
0100
0010
1000
0010
0000
0100
0000
0010
,
0100
0001
0100
0000
1000
0000
0010
0000
,
0002
0103
2000
3010
,
0002
0000
1003
0100
0010
0000
0110
0000
,
2000
3100
0002
0013
,
2000
0000
3001
0100
0010
0000
0110
0000
,
2000
0000
3200
0000
2300
0000
3001
0010
,
0100
1100
0010
0110
,
0002
0000
0023
0000
0032
0000
1003
0100
,
0010
0011
0100
0110
,
1010
0202
0300
0010
,
0010
0000
0000
1000
2003
0000
3020
0000
,
0130
0001
0100
0000
0010
1000
0010
0000
,
0100
0001
1000
0010
0100
0001
1000
0010
,
0001
0100
1000
1001
,
0001
0010
0100
1000
0020
0000
0030
0000
,
1000
0100
0010
0001
0200
0000
0300
0000
,
0001
0010
0100
1000
0020
0000
0030
0000
,
1000
0100
0010
0001
0100
0010
0110
0000
,
0001
0100
1000
0100
0002
0000
0003
0000
,
1000
0010
0001
0010
2000
0000
3000
0000
,
0001
0100
1000
0010
0002
0000
1003
0100
,
0010
0001
1000
0100
0010
0000
0110
0000
,
0001
0001
0101
0000
1000
1000
1100
0000
,
0001
0001
0101
0000
2020
0000
3030
0000
,
1000
1000
1100
0000
0001
0001
0101
0000
,
1000
1000
1100
0010
0002
0000
0103
0000
,
0010
0010
1010
0000
0100
0100
1100
0000
,
0010
0010
1010
0000
0202
0000
0303
0000
,
0100
0100
0101
0000
0010
0010
0011
0100
,
1000
0010
0100
0001
2000
0000
3001
0000
,
1001
0000
0000
0000
,
0000
0000
0000
0000
,
0001
0100
0001
0100
1000
0100
1000
0100
,
0001
0100
1000
0100
0002
0000
0003
0000
,
1000
0010
1000
0010
0001
0010
0001
0010
,
1000
0010
0001
0010
2000
0000
3000
0000
,
0001
0010
0100
0000
1000
0010
0100
0000
,
0001
0010
0100
0000
1000
0010
0100
0001
,
1000
0100
0010
0000
0001
0100
0010
0000
,
1000
0100
0010
0000
0001
0100
0010
1000
,
0001
0100
0120
0000
0000
0000
1000
0000
,
2030
0000
0000
0100
0100
0000
3002
0000
,
1003
0010
0100
0000
0001
0100
0010
0000
,
1000
0001
0010
0100
1000
0010
0001
0010
,
0100
0001
0100
1000
0100
0010
1000
0001
,
2002
0000
0000
3003
;

//---------------dance-double - ----------------
#NOTES:
     dance-double:
     :
     Easy:
     5:
     0.168504,0.225825,0.060489,0.151222,0.000000,117.000000,111.000000,6.000000,15.000000,0.000000,0.000000,0.168504,0.225825,0.060489,0.151222,0.000000,117.000000,111.000000,6.000000,15.000000,0.000000,0.000000:
00000000
00000000
00000000
00000000
,
00000000
00000000
00000000
00000000
,
00000000
00000000
00000000
00000000
,
00000000
00000000
00000000
00000000
,
00000000
00001000
01000000
00001000
,
02000000
00000000
03000000
00001000
,
00010000
00000000
00000100
00000000
,
00000020
00000000
00000030
00000001
,
00000100
00000000
00000000
00000001
,
00000010
00000000
00000000
00000000
,
00000001
00000200
00000000
00000300
,
00002000
00000000
00003000
00010000
,
00011000
00000000
00001000
00000000
,
00100000
00000000
00010000
00000000
,
01000000
00000000
00001000
00000000
,
00010000
00000000
00000100
00000000
,
00001000
00000000
00000010
00000000
,
00020000
00000000
00030000
00000000
,
00001000
00000000
01000000
00000000
,
00020000
00000000
00030000
00000000
,
10000000
01000000
00000000
00010000
,
00001000
00000000
00000010
00000000
,
00000001
00000000
00001000
00000000
,
00002002
00000000
00000000
00000000
,
00000000
00000000
00000000
00003003
,
00000001
00000100
00000001
00000000
,
00001000
00000100
00001000
00000000
,
00010000
00100000
00010000
00000000
,
10000000
00100000
10000000
00000000
,
10000000
01000000
10000000
00000000
,
00010000
01000000
00010000
00000000
,
00001000
00000010
00001000
00000000
,
00000001
00000010
00000001
00000000
,
00000001
00000000
00000100
00000000
,
00001000
00010000
00200000
00300000
,
10000000
00000000
01000000
00000000
,
00010000
00001000
00010000
00011000
,
00000100
00000000
00000010
00000000
,
00001000
00010000
00002000
00003000
,
00100000
00000000
01000000
00000000
,
00010000
00001000
00010000
00011000
,
00000000
00000000
00000000
00000000
,
00000000
00000000
00000000
00001000
,
00010000
00000000
00100000
00000000
,
10000000
00000000
01000000
00000000
,
00010000
00000000
00001000
00000000
,
00000010
00000000
00000001
00000000
,
00000100
00000000
00001000
00000000
,
00022000
00000000
00033000
00000000
,
01000000
00000000
00010000
00000000
,
00022000
00000000
00033000
00000000
,
00001000
00010000
00000000
00010000
,
00001000
00000000
00000010
00000001
,
00000100
00001000
00010000
00100000
,
20000000
00000000
00000000
00000000
,
00000000
00000000
00000000
00000000
,
30010000
00000000
00000000
00000000
;

//---------------dance-double - ----------------
#NOTES:
     dance-double:
     :
     Medium:
     6:
     0.286601,0.314668,0.151222,0.110896,0.000000,199.000000,184.000000,15.000000,11.000000,0.000000,0.000000,0.286601,0.314668,0.151222,0.110896,0.000000,199.000000,184.000000,15.000000,11.000000,0.000000,0.000000:
// measure 0
00000000
00000000
00000000
00000000
,  // measure 1
00000000
00000000
00000000
00000000
,  // measure 2
00000000
00000000
00000000
00000000
,  // measure 3
00000000
00000000
00000000
00000000
,  // measure 4
00000000
00001000
00010000
00001000
,  // measure 5
00022000
00000000
00000000
00033000
,  // measure 6
00010000
00000100
00010000
00000100
,  // measure 7
00001000
00000010
00001000
00000010
,  // measure 8
00010000
00001000
00010000
00001000
,  // measure 9
00100000
00010000
00100000
00010000
,  // measure 10
01000000
01000000
00000000
00001000
,  // measure 11
00020000
00000000
00001000
00031000
,  // measure 12
00001000
00000010
00000001
00000010
,  // measure 13
00001000
00000010
00000001
00000100
,  // measure 14
00001000
00010000
00001000
00000100
,  // measure 15
00001000
00010000
01000000
10000000
,  // measure 16
00100000
00010000
00001000
00010000
,  // measure 17
00100000
10000000
00100000
00010000
,  // measure 18
00001000
00100000
01000000
00010000
,  // measure 19
00001000
00000010
00000100
00001000
,  // measure 20
00000001
00002002
00003003
00001000
,  // measure 21
00000200
00000000
00010300
00000100
,  // measure 22
00001000
00000010
00010000
00001000
,  // measure 23
00100000
00010000
01000000
00001000
,  // measure 24
00010000
00100000
10000000
01000000
,  // measure 25
00010000
00001000
00101000
00000000
,  // measure 26
00001000
00010000
00010010
00000000
,  // measure 27
00010000
00001000
01001000
00000000
,  // measure 28
00001000
00010000
00010100
00000100
,  // measure 29
00000010
00000001
00000200
00000300
,  // measure 30
00001000
00010000
02000000
03000000
,  // measure 31
10000000
00100000
00010000
00100000
,  // measure 32
01000000
00010000
00100000
00001000
,  // measure 33
00011000
00000000
01010000
00000000
,  // measure 34
11000000
01000000
00010000
00001000
,  // measure 35
00011000
00000000
00001010
00000000
,  // measure 36
00000011
00000010
00001000
00010000
,  // measure 37
00100000
10000000
00100000
00010000
,  // measure 38
00001000
00010000
00100000
01000000
,  // measure 39
00100000
00010000
00001000
00000100
,  // measure 40
00000001
00000100
00001000
00000100
,  // measure 41
00000110
00000000
00000000
00000000
,  // measure 42
00000000
00000000
00000000
00000000
,  // measure 43
00000010
00010000
00001000
00010000
,  // measure 44
00100000
00010000
00001000
00010000
,  // measure 45
00000100
00001000
00000010
00010000
,  // measure 46
00001000
00100000
00010000
01000000
,  // measure 47
00001000
00010000
00100000
10000000
,  // measure 48
01000000
00010000
00001000
00000010
,  // measure 49
00000001
00000100
00001000
00010000
,  // measure 50
00100000
00010000
00001000
00000100
,  // measure 51
00001000
00012000
00000000
00010000
,  // measure 52
00013000
00001000
00000100
00000010
,  // measure 53
00000001
00000010
00000100
00001000
,  // measure 54
00010000
00100000
01000000
10000000
,  // measure 55
01000000
00100000
00010000
00001000
,  // measure 56
00022000
00000000
00000000
00033000
;

//---------------dance-double - ----------------
#NOTES:
     dance-double:
     :
     Hard:
     8:
     0.394617,0.457698,0.252036,0.373014,0.000000,274.000000,249.000000,25.000000,37.000000,0.000000,0.000000,0.394617,0.457698,0.252036,0.373014,0.000000,274.000000,249.000000,25.000000,37.000000,0.000000,0.000000:
00000000
00000000
00000000
00000000
,
00000000
00000000
00000000
00000000
,
00000000
00000000
00000000
00000000
,
01000000
00000000
01000000
00000000
01000000
00001000
00010000
00001000
,
00000100
00000001
00000010
00001000
,
00022000
00000000
00000000
00033000
,
00010000
00010000
00001000
00001000
,
00100000
01000000
10000000
00000000
00100000
00000000
00010000
00000000
,
00021000
00030010
00010000
00001000
,
00012000
00103000
00001000
00010000
,
00000100
00000010
00000001
00000000
00000100
00000000
00001000
00000000
,
00010000
00001000
00010000
00000000
01000000
00000000
10000000
00000000
,
00200000
01300000
00200000
00310000
,
00200000
00000000
10300000
01000000
00010000
00000000
00001000
00000000
,
00000020
00000130
00000020
00001030
,
00000020
00000000
00000031
00000100
00001000
00000000
00010000
00000000
,
00200000
00000000
20300000
00000000
32000000
00000000
13000000
00100000
,
00010000
00000000
00001000
00000000
00000010
00000000
00000100
00000010
,
00000002
00000000
00000203
00000000
00002300
00000000
00013000
00001000
,
00000100
00000101
00000010
00001010
,
00010000
00022000
00003000
00100000
,
00100000
00000000
00000000
00001000
00032000
00000000
00000010
00000000
,
00013000
00001000
01000000
00000000
00001000
00010000
00000010
00000000
,
00010000
00001000
00010000
00001000
00010000
00001000
00100000
00000000
,
01000000
10000000
00100000
00110000
,
00010000
00001000
00010000
00001000
00000020
00000000
00000030
00000000
,
00001000
00010000
00001000
00010000
00200000
00000000
00300000
00000000
,
00010000
00001000
00010000
00001000
00000200
00000000
00000300
00000000
,
00001000
00010000
00001000
00010000
01000000
00000000
11000000
00000000
,
10000000
01000000
10000000
01000000
00020000
00000000
00030000
00000000
,
01000000
00010000
01000000
00010000
00002000
00000000
00003000
00000000
,
00010000
00001000
00010000
00001000
00000020
00000000
00001030
00000010
,
00000001
00000100
00000001
00000010
00000001
00000000
00000101
00000000
,
00000100
00011000
01000000
00011000
,
00000010
00011000
00200000
00300000
,
00010000
01010000
00001000
00011000
,
00000100
00001100
00000012
00000103
,
00000100
00001010
00010000
00011000
,
01000000
01010000
20000000
30000000
,
01000000
01100000
00001000
00011000
,
00000100
00000110
00000002
00001003
,
00001001
00000000
00000000
00000000
,
00000000
00000000
00000000
00000000
,
00000001
00000100
00001000
00000000
00000100
00001000
00010000
00000000
,
00001000
00010000
00100000
01000000
00200000
00000000
00300000
00000000
,
10000000
01000000
00010000
00000000
01000000
00010000
00001000
00000000
,
00010000
00001000
00000100
00000010
00000200
00000000
00000300
00000000
,
00000001
00000010
00001000
00010000
00001000
00010000
01000000
10000000
,
00200000
00010000
01000000
10300000
,
10000000
01000000
00010000
00001000
00010000
00001000
00000010
00000001
,
00000200
00000000
00001000
00000000
00000010
00000000
00000301
00000100
,
00001000
00021000
00000000
01000000
,
01000000
00000000
00000000
00001000
00032000
00000000
00000100
00000000
,
00013000
00001000
00000100
00000000
00001000
00010000
00100000
00000000
,
00010000
00001000
00000010
00000000
00001000
00010000
01000000
00000000
,
10000000
00100000
00010000
00100000
00010000
00001000
00000010
00000001
,
00002002
00000000
00000000
00003003
;
