#VERSION:0.83;
#TITLE:Red Blossom;
#SUBTITLE:;
#ARTIST:MAX;
#TITLETRANSLIT:;
#SUBTITLETRANSLIT:;
#ARTISTTRANSLIT:;
#GENRE:VARIETY;
#ORIGIN:;
#CREDIT:MUINELIM;
#BANNER:Red Blossom.png;
#BACKGROUND:Red Blossom-bg.png;
#PREVIEWVID:;
#JACKET:Red Blossom-jacket.png;
#CDIMAGE:;
#DISCIMAGE:;
#LYRICSPATH:;
#CDTITLE:;
#MUSIC:Red Blossom.mp3;
#OFFSET:-0.503000;
#SAMPLESTART:33.192654;
#SAMPLELENGTH:12.413792;
#SELECTABLE:YES;
#BPMS:0.000=145.000;
#STOPS:;
#DELAYS:;
#WARPS:;
#TIMESIGNATURES:0.000=4=4;
#TICKCOUNTS:0.000=4;
#COMBOS:0.000=1;
#SPEEDS:0.000=1.000=0.000=0;
#SCROLLS:0.000=1.000;
#FAKES:;
#LABELS:0.000=Song Start;
#BGCHANGES:;
#KEYSOUNDS:;
#ATTACKS:
;

//---------------dance-single - ----------------
#NOTEDATA:;
#CHARTNAME:;
#STEPSTYPE:dance-single;
#DESCRIPTION:;
#CHARTSTYLE:;
#DIFFICULTY:Beginner;
#METER:3;
#RADARVALUES:0.118639,0.176366,0.000000,0.000000,0.000000,95.000000,95.000000,0.000000,0.000000,0.000000,0.000000,0.000000,0.000000,0.000000,0.118639,0.176366,0.000000,0.000000,0.000000,95.000000,95.000000,0.000000,0.000000,0.000000,0.000000,0.000000,0.000000,0.000000;
#CREDIT:MILEN;
#NOTES:
0000
0000
0000
0000
,
0000
0000
0000
0000
,
0000
0000
0000
0000
,
0000
0000
0000
0000
,
0000
0000
0000
0000
,
0000
0000
0000
1000
,
0000
0000
1000
0000
,
0000
0001
0000
0000
,
0001
0000
0000
0100
,
0000
0000
0100
0000
,
0000
0010
0000
0000
,
0010
0000
0000
1000
,
0000
0000
0000
0001
,
0000
0000
0000
1000
,
0000
0000
0000
0001
,
0000
0000
0000
0010
,
0000
0000
0000
0100
,
0000
0000
0000
0010
,
0000
0000
0000
0100
,
0000
0000
0000
1000
,
0000
1000
0000
1000
,
0000
1000
0000
0010
,
0000
0010
0000
0010
,
0000
0010
0000
0001
,
0000
0001
0000
0001
,
0000
0001
0000
0100
,
0000
0100
0000
0100
,
0000
0100
0000
1000
,
0000
0000
0000
0001
,
0000
0000
0000
0100
,
0000
0010
0000
0100
,
0000
0100
0000
0001
,
0000
0000
0000
1000
,
0000
0000
0000
0010
,
0000
0100
0000
0010
,
0010
0010
0000
1000
,
0000
0000
0000
0100
,
0000
0000
0000
0001
,
0000
0000
0000
0010
,
0000
0000
0000
1000
,
0000
0000
0000
0100
,
0000
0000
0000
0001
,
0000
0000
0000
0010
,
0000
0000
0000
0100
,
0000
0100
0000
0100
,
0000
0100
0000
0001
,
0000
0001
0000
0001
,
0000
0001
0000
1000
,
0000
1000
0000
1000
,
0000
1000
0000
0010
,
0000
0010
0000
0010
,
0000
0000
0000
0100
,
0000
0001
0000
1000
,
0000
0010
0000
0100
,
0000
0001
0000
1000
,
0000
0010
0000
0001
,
0000
0100
0000
1000
,
0000
0010
0000
0001
,
0000
0100
0000
1000
,
1000
1000
0000
0010
,
0000
0000
0000
0100
,
0000
0000
0000
0001
,
0000
0000
0000
1000
,
0000
0000
0000
0100
,
0000
0000
0000
0010
,
0000
0000
0000
0001
,
0000
0000
0000
0100
,
0100
0100
0000
0000
;

//---------------dance-single - ----------------
#NOTEDATA:;
#CHARTNAME:;
#STEPSTYPE:dance-single;
#DESCRIPTION:;
#CHARTSTYLE:;
#DIFFICULTY:Easy;
#METER:5;
#RADARVALUES:0.222291,0.296128,0.052451,0.034967,0.000000,178.000000,172.000000,6.000000,4.000000,0.000000,0.000000,0.000000,0.000000,0.000000,0.222291,0.296128,0.052451,0.034967,0.000000,178.000000,172.000000,6.000000,4.000000,0.000000,0.000000,0.000000,0.000000,0.000000;
#CREDIT:MILEN;
#NOTES:
0000
0000
0000
0000
,
0000
0000
0000
0000
,
0000
0000
0000
0000
,
0000
0000
0000
0000
,
0000
0000
0000
0000
,
0000
0000
0000
1000
,
0000
1000
1000
0000
,
1000
0001
0000
0001
,
0001
0000
0001
0100
,
0000
0100
0100
0000
,
0100
0010
0000
0010
,
0010
0000
0010
1000
,
0000
0100
0000
0010
,
0000
0001
0000
1000
,
0000
0100
0000
0010
,
0000
0001
0000
0001
,
0000
0100
0000
0010
,
0000
1000
0000
0001
,
0000
0100
0000
0010
,
0010
2000
3000
0001
,
1000
0001
1000
0010
,
0100
0010
0100
0001
,
1000
0010
0100
0001
,
0001
0001
0000
1000
,
0001
1000
0001
0100
,
0010
0100
0010
1000
,
0001
0100
0010
1000
,
1000
1000
0000
0001
,
0000
0100
0000
1000
,
0000
0010
0000
0001
,
0000
0100
0000
1000
,
0010
0001
1001
0010
,
0000
1000
0000
0100
,
0000
0001
0000
0010
,
0000
1000
0000
0100
,
0001
0010
0110
1000
,
0000
0100
0000
0010
,
0000
0001
0000
0100
,
0000
0010
0000
1000
,
0000
0001
0000
0010
,
0000
0100
0000
1000
,
0000
0010
0000
0200
,
0000
0000
0300
0110
,
0000
0000
0000
0001
,
1000
0001
1000
0010
,
0100
0010
0000
1000
,
0001
1000
0001
0100
,
0010
0100
0000
0001
,
0010
0001
0010
0100
,
1000
0100
0000
1000
,
0010
1000
0010
0100
,
0001
0100
0110
0001
,
1000
0001
1000
0010
,
0001
0100
0000
1000
,
0001
1000
0001
0010
,
1000
0100
0000
0001
,
0010
0001
0010
1000
,
0100
0001
0000
0010
,
1000
0010
1000
0100
,
0001
0010
1001
1000
,
0000
0100
0000
0010
,
0000
0001
0000
0100
,
0000
0010
0000
1000
,
0000
0001
0000
0100
,
0000
1000
0000
0010
,
0000
0001
0000
0100
,
0000
0010
0000
1000
,
0001
2002
0000
3003
;

//---------------dance-single - ----------------
#NOTEDATA:;
#CHARTNAME:;
#STEPSTYPE:dance-single;
#DESCRIPTION:;
#CHARTSTYLE:;
#DIFFICULTY:Medium;
#METER:9;
#RADARVALUES:0.368404,0.444192,0.174836,0.244770,0.000000,295.000000,275.000000,20.000000,28.000000,0.000000,0.000000,0.000000,0.000000,0.000000,0.368404,0.444192,0.174836,0.244770,0.000000,295.000000,275.000000,20.000000,28.000000,0.000000,0.000000,0.000000,0.000000,0.000000;
#CREDIT:MILEN;
#NOTES:
0000
0000
0000
0000
,
0000
0000
0000
0000
,
0000
0000
0000
0000
,
0000
0000
0000
0000
,
0000
0000
0000
0000
,
0000
0000
0000
0100
,
0100
0001
0000
0001
1000
0000
1000
0010
,
0100
0000
0110
0000
0010
1000
0000
1000
,
0001
0000
0001
0100
0010
0000
0110
0000
,
0100
0001
0000
0001
0010
0000
0010
0100
,
1000
0000
1001
0000
0010
1000
0000
1000
,
0100
0000
0100
0010
0001
0000
1001
0000
,
0000
0100
0000
1000
,
0000
0010
0000
0001
,
0000
0100
0000
1000
,
0000
0010
0000
0001
,
0000
0100
0000
1000
,
0000
0010
0000
0001
,
0000
0100
0000
1000
,
0001
2002
3003
1000
,
1000
0001
0001
0100
,
0010
0100
0020
0000
1030
0000
1000
0010
,
1000
0000
0001
0010
0001
0000
2000
0000
,
3010
0100
0010
0000
1000
0100
0001
0000
,
0001
1000
1000
0010
,
0100
0010
0200
0000
0301
0000
0001
0100
,
0001
0000
1000
0100
1000
0000
0002
0000
,
0103
0010
0100
0000
0001
0010
1000
0000
,
1000
1000
1000
0001
,
0001
0001
0001
0100
,
0100
0010
0100
0000
0100
0010
0200
0000
,
0302
2003
3020
0130
,
0001
1000
0100
0010
,
0001
1000
0010
0100
,
0001
0010
0100
2000
,
3002
0203
0320
1030
,
0000
1100
0000
0000
0101
0000
0001
0000
,
0000
0011
0000
0000
1010
0000
1000
0000
,
0000
1100
0000
0000
0100
0010
0002
0000
,
0103
0100
0000
0000
0010
0100
0001
0000
,
0000
0011
0000
0000
1010
0000
1000
1000
,
0000
1100
0000
0000
0101
0000
2002
0000
,
0000
0000
3003
1001
,
0000
0000
0000
0000
0000
0000
1000
0001
,
1000
0001
0100
0000
1000
0000
0010
0000
,
0001
0000
0200
0000
0300
0000
0010
1000
,
0010
0000
0100
0001
0100
0000
0010
0000
,
1000
0100
0020
0000
0031
0000
0001
1000
,
0001
1000
0010
0000
0001
0000
0100
0000
,
1000
0000
0020
0000
0030
0000
0100
0001
,
0100
0000
0010
1000
0010
0000
0100
0000
,
0001
0010
0200
0000
1300
0000
1000
0010
,
0100
0001
1000
0000
0010
0000
0001
0000
,
0100
1000
0020
0000
0030
0000
0100
0001
,
0010
0000
0100
1000
0010
0000
0100
0001
,
1000
0010
0200
0000
0301
1000
0001
0100
,
0010
1000
0001
0000
0100
0000
1000
0010
,
1000
0010
0002
0000
0003
0000
0100
0010
,
1000
0000
0010
0001
0100
0000
0010
1000
,
0100
0010
0002
0000
1003
0010
0110
0000
,
1000
0100
0010
0001
,
1000
0000
0100
0000
0010
0000
0010
0001
,
0010
0000
0100
1000
0100
0000
0010
0001
,
0010
0100
2000
0000
3010
0100
0110
0000
,
0001
0100
0010
1000
,
0001
0000
0100
0000
0010
0000
0010
1000
,
0010
0000
0100
0001
0100
0000
1001
0000
,
0100
0010
2002
0000
0000
0000
3003
0000
;

//---------------dance-single - ----------------
#NOTEDATA:;
#CHARTNAME:;
#STEPSTYPE:dance-single;
#DESCRIPTION:;
#CHARTSTYLE:;
#DIFFICULTY:Hard;
#METER:12;
#RADARVALUES:0.520761,0.651482,0.734311,0.244770,0.039338,417.000000,333.000000,84.000000,28.000000,0.000000,0.000000,0.000000,0.000000,0.000000,0.520761,0.651482,0.734311,0.244770,0.039338,417.000000,333.000000,84.000000,28.000000,0.000000,0.000000,0.000000,0.000000,0.000000;
#CREDIT:MILEN;
#NOTES:
0000
0000
0000
0000
,
0000
0000
0000
0000
,
0000
0000
0000
0000
,
0000
0000
0000
0000
,
0000
0000
0000
0000
,
0000
0000
0000
0000
0000
0000
1000
0010
,
0100
0001
1000
0010
0100
0001
1000
0010
,
0010
0010
0001
0100
1000
0001
0010
0100
,
1000
0000
1000
0000
0010
0100
0010
0000
1000
0000
1000
0000
0001
0000
0010
0000
,
0100
1000
0001
0010
0100
1000
0001
0010
,
0010
0010
1000
0100
0001
1000
0010
0100
,
0001
0000
0001
0000
0010
0100
0010
0000
0100
0000
1000
0000
1010
0000
0000
0000
,
0000
0011
0000
0101
,
0000
1100
0000
0011
,
0000
1010
0000
1100
,
0000
0101
0000
1010
,
0000
0101
0000
0011
,
0000
1100
0000
0101
,
0000
1010
0000
0011
,
0000
0000
2200
0000
0300
0000
3001
0010
,
0100
1000
1010
0000
0011
0000
1010
0000
,
0010
0100
0002
0000
0000
0000
1003
0010
,
0001
0000
0001
0010
1000
0000
1000
0010
,
0001
0000
0010
0000
1000
0000
0100
0000
0010
0100
0010
0000
0001
0000
0100
0000
,
0010
1000
1100
0000
0101
0000
1100
0000
,
1000
0010
0200
0000
0000
0000
1300
0100
,
0001
0000
0001
0100
1000
0000
1100
0000
,
0110
0202
0300
1003
,
1000
0000
0000
0000
1000
0000
0000
0100
0000
0000
0010
0000
0001
0000
0000
0000
,
0001
0000
0000
0000
0001
0000
0000
0010
0000
0000
0100
0000
1000
0000
0000
0000
,
1000
0000
0010
0100
0001
0000
0000
0000
1000
0000
0010
0000
0200
0000
0000
0000
,
0302
0000
2003
0000
3020
0000
0130
0001
,
0010
0000
0100
1000
0010
0000
0100
0001
,
1000
0000
0010
1000
0001
0000
0100
0010
,
1000
0000
0001
0000
0010
0000
0100
0000
1000
0000
0010
0100
0020
0000
0000
0000
,
2030
3002
0203
0310
,
0010
1000
0000
1000
1100
0000
0110
0000
,
0010
0001
0000
0001
0101
0000
0110
0000
,
0010
1000
0000
1000
1100
0010
0001
0000
,
0001
0100
0000
0100
0110
0000
0010
0000
,
1000
0100
0000
0100
0110
0000
0010
0001
,
0100
0010
0000
1000
1001
0000
0220
0000
,
0000
0000
0000
0000
0000
0000
0000
0000
0330
0000
0010
1000
0001
0000
0000
0000
,
0000
0000
0000
0000
0000
0000
1000
0100
,
0010
0001
0101
0000
1100
0000
0101
0000
,
0001
0010
0022
0000
0030
0000
0103
0010
,
1010
0000
0010
0100
0101
0000
1001
0000
,
1010
0100
0101
0000
1001
0000
0001
0100
,
0010
1000
1100
0000
0101
0000
1100
0000
,
1000
0010
2020
0000
0030
0000
3100
0010
,
0011
0000
0010
0100
1100
0000
1010
0000
,
0011
0000
0101
0000
0220
0330
0010
1000
,
0100
0010
1000
0010
0001
1000
0100
0001
,
0100
0010
0001
0100
0010
1000
1100
0001
,
0101
0000
0011
1000
1010
0000
0110
0000
,
0101
1100
0101
0000
1001
0001
0100
0010
,
0001
0010
1000
0001
0100
1000
0100
0100
,
0010
0010
1000
0001
0010
0100
1100
0010
,
0011
0000
0101
0010
1010
0011
1010
0000
,
0101
0000
0110
0000
1001
0000
0001
0100
,
1000
0010
0011
0000
0101
0000
1100
0000
,
1000
0010
0220
0000
0030
0000
0301
0010
,
1000
0000
1000
0100
0001
0000
0011
0000
,
0001
0000
0100
0000
0010
0000
1000
0000
0100
0010
0100
0000
1000
0000
0010
0000
,
0001
0100
1100
0000
1010
0000
0011
0000
,
0001
0100
0220
0000
0300
0000
1030
0100
,
0001
0000
0001
0010
1000
0000
1010
0010
,
0101
0100
2002
0000
0000
0000
3003
0000
;

//---------------dance-double - ----------------
#NOTEDATA:;
#CHARTNAME:;
#STEPSTYPE:dance-double;
#DESCRIPTION:;
#CHARTSTYLE:;
#DIFFICULTY:Easy;
#METER:5;
#RADARVALUES:0.206057,0.266515,0.052451,0.034967,0.000000,165.000000,159.000000,6.000000,4.000000,0.000000,0.000000,0.000000,0.000000,0.000000,0.206057,0.266515,0.052451,0.034967,0.000000,165.000000,159.000000,6.000000,4.000000,0.000000,0.000000,0.000000,0.000000,0.000000;
#CREDIT:MILEN;
#NOTES:
00000000
00000000
00000000
00000000
,
00000000
00000000
00000000
00000000
,
00000000
00000000
00000000
00000000
,
00000000
00000000
00000000
00000000
,
00000000
00000000
00000000
00000000
,
00000000
00000000
00000000
00001000
,
00000000
00001000
00001000
00000000
,
00001000
00010000
00000000
00010000
,
00010000
00000000
00010000
00000100
,
00000000
00000100
00010000
00000000
,
00010000
00001000
00000000
00001000
,
01000000
00000000
01000000
00001000
,
00000000
00010000
00000000
00000100
,
00000000
00001000
00000000
00000010
,
00000000
00000100
00000000
00000001
,
00000000
00001000
00000000
00000100
,
00000000
00010000
00000000
00001000
,
00000000
00100000
00000000
00010000
,
00000000
01000000
00000000
00100000
,
00000000
20000000
30000000
00010000
,
01000000
00010000
01000000
00001000
,
00010000
00001000
00010000
00000100
,
00001000
00000100
00001000
00000010
,
00000010
00000010
00000000
00001000
,
00000100
00001000
00000100
00010000
,
00001000
00010000
00001000
01000000
,
00010000
01000000
00010000
00100000
,
00100000
00100000
00000000
00010000
,
00000000
01000000
00000000
00100000
,
00000000
10000000
00000000
00010000
,
00000000
01000000
00000000
00001000
,
00010000
00001000
00011000
00000100
,
00000000
00001000
00000000
00000010
,
00000000
00000100
00000000
00000001
,
00000000
00001000
00000000
00000100
,
00010000
00001000
00010000
00011000
,
00000000
01000000
00000000
00001000
,
00000000
00010000
00000000
00000100
,
00000000
00001000
00000000
00000010
,
00000000
00010000
00000000
00001000
,
00000000
00100000
00000000
00010000
,
00000000
01000000
00000000
00002000
,
00000000
00000000
00003000
00011000
,
00000000
00000000
00000000
00010000
,
00000000
00001000
00000000
00000100
,
00000001
00000100
00000000
00001000
,
00000000
00010000
00000000
00100000
,
10000000
00100000
00000000
00010000
,
00000000
00001000
00000000
00000010
,
00000001
00000010
00000000
00001000
,
00000000
00010000
00000000
01000000
,
10000000
01000000
01100000
00010000
,
10000000
00100000
00000000
00010000
,
00001000
00100000
00000000
00001000
,
00010000
00000010
00000000
00001000
,
00000001
00000010
00000000
00000001
,
00000100
00001000
00000000
00010000
,
00100000
10000000
00000000
10000000
,
01000000
00010000
00000000
00001000
,
00000010
00000001
00001001
00000100
,
00000000
00000010
00000000
00010000
,
00000000
00001000
00000000
01000000
,
00000000
00100000
00000000
10000000
,
00000000
00010000
00000000
01000000
,
00000000
00001000
00000000
00010000
,
00000000
00000100
00000000
00001000
,
00000000
00000010
00000000
00000100
,
00000100
00002002
00000000
00003003
;

//---------------dance-double - ----------------
#NOTEDATA:;
#CHARTNAME:;
#STEPSTYPE:dance-double;
#DESCRIPTION:;
#CHARTSTYLE:;
#DIFFICULTY:Medium;
#METER:9;
#RADARVALUES:0.363409,0.414580,0.262254,0.174836,0.000000,291.000000,261.000000,30.000000,20.000000,0.000000,0.000000,0.000000,0.000000,0.000000,0.363409,0.414580,0.262254,0.174836,0.000000,291.000000,261.000000,30.000000,20.000000,0.000000,0.000000,0.000000,0.000000,0.000000;
#CREDIT:MILEN;
#NOTES:
00000000
00000000
00000000
00000000
,
00000000
00000000
00000000
00000000
,
00000000
00000000
00000000
00000000
,
00000000
00000000
00000000
00000000
,
00000000
00000000
00000000
00000000
,
00000000
00000000
00000000
00001000
,
00010000
00001000
00000000
00001000
00010000
00000000
00010000
00001000
,
00010000
00000000
00011000
00000000
00001000
01000000
00000000
01000000
,
00001000
00000000
00001000
01000000
00001000
00000000
01001000
00000000
,
00001000
00010000
00000000
00010000
00001000
00000000
00001000
00010000
,
00001000
00000000
00011000
00000000
00010000
00000100
00000000
00000100
,
00010000
00000000
00010000
00000100
00010000
00000000
00010100
00000000
,
00000000
00000100
00000000
00000010
,
00000000
00000001
00000000
00000100
,
00000000
00001000
00000000
00010000
,
00000000
00100000
00000000
10000000
,
00000000
01000000
00000000
00100000
,
00000000
00001000
00000000
00010000
,
00000000
00000100
00000000
00000010
,
00000010
00002002
00003003
00000001
,
00000100
00001000
00010000
00100000
,
10000000
01000000
00200000
00000000
01300000
00000000
10000000
01000000
,
00010000
00000000
01000000
00010000
00001000
00000000
00020000
00000000
,
00031000
00010000
00100000
00000000
00010000
00100000
10000000
00000000
,
01000000
00010000
00001000
00000010
,
00000001
00000100
00000020
00000000
00000130
00000000
00000001
00000100
,
00001000
00000000
00000100
00001000
00010000
00000000
00002000
00000000
,
00013000
00001000
00000010
00000000
00001000
00000010
00000001
00000000
,
00001000
00000001
00001000
00000010
,
00000100
00000010
00000100
00001000
,
00010000
00100000
01000000
00020000
,
10030000
20000000
30010000
10010000
,
10000000
01000000
00100000
00010000
,
01000000
00100000
00010000
00001000
,
00000100
00000010
00001000
00000002
,
00000103
00002000
00003010
00001001
,
00000000
00001010
00000000
00000000
00010010
00000000
00101000
00000000
,
00000000
00110000
00000000
00000000
10010000
00000000
10100000
00000000
,
00000000
01100000
00000000
00000000
01000000
00010000
02000000
00000000
,
03001000
00001000
00000000
00000000
00010000
00001000
00010000
00000000
,
00000000
00010010
00000000
00000000
00010100
00000000
00010000
00001000
,
00000000
01001000
00000000
00000000
00101000
00000000
00022000
00000000
,
00000000
00000000
00033000
00011000
,
00000000
00000000
00000000
00000000
00000000
00000000
00001000
00010000
,
00001000
00010000
01000000
00000000
10000000
00000000
00100000
00000000
,
00010000
00001000
00020000
00000000
00030000
00000000
00001000
00000000
,
01001000
00010000
00010100
00001000
,
00010000
00001000
00000010
00000000
00001000
00000000
00010000
00001000
,
00010000
00001000
00000010
00000000
00000001
00000000
00000100
00000000
,
00001000
00010000
00002000
00000000
00003000
00000000
00010000
00000000
,
00010010
00001000
00101000
00010000
,
00001000
00000000
00010000
00000000
01000000
00000000
10000000
01000000
,
00100000
00010000
01000000
00000000
00001000
00000000
00010000
00000000
,
00000100
00000010
00000002
00000000
00000003
00000000
00000100
00000000
,
00001100
00010000
00011000
00100000
,
00001000
00000000
00000010
00000000
00000100
00000010
00000001
00000010
,
00000100
00001000
00000010
00000000
00010000
00000000
00001000
00000000
,
00100000
01000000
20000000
00000000
30000000
00000000
00100000
00000000
,
00110000
00001000
00011000
00000100
,
00010000
00000000
01000000
00100000
01000000
10000000
00100000
00000000
,
00010000
00001000
00010000
00100000
,
00010000
00000000
00001000
00000000
00010000
00000000
00100000
10000000
,
00100000
00000000
01000000
00010000
01000000
00000000
00100000
10000000
,
00100000
00010000
00002000
00000000
00003010
00000000
00000010
00000000
,
00001000
00010000
00001000
00000010
,
00001000
00000000
00010000
00000000
00001000
00000000
00000010
00000001
,
00000010
00000000
00000100
00001000
00000100
00000000
00010100
00000000
,
00010000
00001000
00022000
00000000
00000000
00000000
00033000
00000000
;

//---------------dance-double - ----------------
#NOTEDATA:;
#CHARTNAME:;
#STEPSTYPE:dance-double;
#DESCRIPTION:;
#CHARTSTYLE:;
#DIFFICULTY:Hard;
#METER:12;
#RADARVALUES:0.507024,0.562644,0.603184,0.122385,0.008742,406.000000,337.000000,69.000000,14.000000,0.000000,0.000000,0.000000,0.000000,0.000000,0.507024,0.562644,0.603184,0.122385,0.008742,406.000000,337.000000,69.000000,14.000000,0.000000,0.000000,0.000000,0.000000,0.000000;
#CREDIT:MILEN;
#NOTES:
// measure 0
00000000
00000000
00000000
00000000
,  // measure 1
00000000
00000000
00000000
00000000
,  // measure 2
00000000
00000000
00000000
00000000
,  // measure 3
00000000
00000000
00000000
00000000
,  // measure 4
00000000
00000000
00000000
00000000
,  // measure 5
00000000
00000000
00000000
00000000
00000000
00000000
00001000
00010000
,  // measure 6
00100000
01000000
00010000
00100000
00001000
00010000
00100000
10000000
,  // measure 7
10000000
10000000
01000000
00010000
00001000
00000010
00000001
00000100
,  // measure 8
00001000
00000000
00001000
00000000
00010000
00001000
00010000
00000000
00000010
00000000
00000010
00000000
00010000
00000000
00001000
00000000
,  // measure 9
00000010
00000100
00001000
00000010
00010000
00001000
00000010
00000001
,  // measure 10
00000001
00000001
00000100
00001000
00010000
00100000
10000000
01000000
,  // measure 11
00010000
00000000
00010000
00000000
00001000
00010000
00001000
00000000
00100000
00000000
00100000
00000000
01100000
00000000
00000000
00000000
,  // measure 12
00000000
00110000
00000000
00011000
,  // measure 13
00000000
00001100
00000000
00000110
,  // measure 14
00000000
00001001
00000000
00011000
,  // measure 15
00000000
10010000
00000000
10100000
,  // measure 16
00000000
01010000
00000000
00101000
,  // measure 17
00000000
00010100
00000000
00001010
,  // measure 18
00000000
00000101
00000000
00001001
,  // measure 19
00000000
00000000
00000220
00000000
00000330
00000000
00000001
00000100
,  // measure 20
00001000
00010000
00011000
00000000
00010010
00000000
00101000
00000000
,  // measure 21
00001000
00010000
01000000
00000000
11000000
00000000
10000000
00100000
,  // measure 22
01000000
00000000
10000000
00100000
01000000
00000000
10000000
00100000
,  // measure 23
01000000
00010000
00100000
01000000
00010000
01000000
10000000
00100000
,  // measure 24
00010000
00001000
00011000
00000000
01001000
00000000
00010100
00000000
,  // measure 25
00010000
00001000
00000010
00000000
00000011
00000000
00000001
00000100
,  // measure 26
00000010
00000000
00000001
00000100
00000010
00000000
00000001
00000100
,  // measure 27
00000010
00001000
00000100
00000001
00000100
00000010
00000001
00000000
,  // measure 28
00000001
00000001
00000001
00001000
,  // measure 29
00001000
00001000
00001000
00010000
,  // measure 30
00010000
10000000
10000000
02000000
,  // measure 31
03020000
00000000
00032000
00000000
00003020
00000000
00000031
00000100
,  // measure 32
00000001
00000000
00001000
00000100
00001000
00000000
00010000
00100000
,  // measure 33
00010000
00000000
10000000
00100000
10000000
00000000
01000000
00010000
,  // measure 34
00001000
00000010
00000001
00000100
00001000
00010000
00200000
00000000
,  // measure 35
20300000
32000000
03200000
00310000
,  // measure 36
00010000
01000000
00000000
01000000
00001000
00000000
00011000
00000000
,  // measure 37
00010000
00000100
00000000
00000100
00000010
00000000
00000011
00000000
,  // measure 38
00000001
00000100
00000000
00000100
00001000
00010000
00100000
00000000
,  // measure 39
00100000
10000000
00000000
10000000
01000000
00000000
01100000
00000000
,  // measure 40
00100000
00001000
00000000
00001000
00000010
00000000
00000010
00000001
,  // measure 41
00000010
00000100
00000000
00000100
00010000
00000000
00022000
00000000
,  // measure 42
00000000
00000000
00033000
00011000
,  // measure 43
00000000
00000000
00000000
00000000
00000000
00000000
00001000
00010000
,  // measure 44
00100000
10000000
11000000
00000000
01100000
00000000
00101000
00000000
,  // measure 45
00001000
00010000
00000010
00000000
00001010
00000000
00001000
00000100
,  // measure 46
00000011
00000000
00001000
00000100
00000011
00000000
00001100
00000000
,  // measure 47
00010100
00010000
00001000
00000000
00000100
00001000
00010000
00001000
,  // measure 48
00000010
00000001
00000101
00000000
00000110
00000000
00010010
00000000
,  // measure 49
00010000
00001000
00100000
00000000
00110000
00000000
00010000
01000000
,  // measure 50
10100000
00000000
00010000
01000000
10100000
00000000
01010000
00000000
,  // measure 51
00101000
00001000
00010000
01000000
00100000
00010000
10000000
00100000
,  // measure 52
01000000
10000000
01000000
00010000
00100000
01000000
00010000
00001000
,  // measure 53
00010000
00000100
00000010
00000001
00000100
00001000
00011000
00000100
,  // measure 54
00000100
00000000
00011000
01000000
01000000
00000000
00011000
00000000
,  // measure 55
00101000
00010000
00010010
00000000
00011000
00001000
01000000
00100000
,  // measure 56
00010000
00001000
00000010
00000001
00000100
00001000
00000100
00000010
,  // measure 57
00010000
00001000
00010000
01000000
10000000
00100000
00010000
00001000
,  // measure 58
00000110
00000000
00001000
00010000
01100000
10000000
10010000
00000000
,  // measure 59
01001000
00000000
00010010
00000000
00001001
00000000
00000001
00000100
,  // measure 60
00001000
00010000
00110000
00000000
10100000
00000000
11000000
00000000
,  // measure 61
01000000
00100000
00010000
00000000
00011000
00000000
00001000
00100000
,  // measure 62
01000000
00000000
00100000
00001000
00010000
00000000
00010010
00000000
,  // measure 63
00000010
00000100
00001000
00010000
00100000
00100000
10000000
01000000
,  // measure 64
00010000
00001000
00001010
00000000
00000011
00000000
00000101
00000000
,  // measure 65
00000100
00000010
00001000
00000000
00011000
00000000
00010000
00000010
,  // measure 66
00000100
00000000
00000010
00010000
00001000
00000000
00101000
00000000
,  // measure 67
00010010
00001000
02002000
00000000
00000000
00000000
03003000
00000000
;
