#VERSION:0.83;
#TITLE:Rainy Step;
#SUBTITLE:;
#ARTIST:まめこ;
#TITLETRANSLIT:;
#SUBTITLETRANSLIT:;
#ARTISTTRANSLIT:mameko;
#GENRE:J-MUSIC;
#ORIGIN:;
#CREDIT:MILEN;
#BANNER:Rainy Step.png;
#BACKGROUND:Rainy Step-bg.png;
#PREVIEWVID:;
#JACKET:Rainy Step-jacket.png;
#CDIMAGE:;
#DISCIMAGE:;
#LYRICSPATH:;
#CDTITLE:;
#MUSIC:Rainy Step.mp3;
#OFFSET:-0.064000;
#SAMPLESTART:64.719177;
#SAMPLELENGTH:11.379311;
#SELECTABLE:YES;
#DISPLAYBPM:232.000000;
#BPMS:0.000=232.000;
#STOPS:;
#DELAYS:;
#WARPS:;
#TIMESIGNATURES:0.000=4=4;
#TICKCOUNTS:0.000=4;
#COMBOS:0.000=1;
#SPEEDS:0.000=1.000=0.000=0;
#SCROLLS:0.000=1.000;
#FAKES:;
#LABELS:0.000=Song Start;
#BGCHANGES:0.000=Rainy Step.avi=1.000=0=0=0=StretchNoLoop====,
99999=-nosongbg-=1.000=0=0=0 // don't automatically add -songbackground-
;
#KEYSOUNDS:;
#ATTACKS:
;

//---------------dance-single - ----------------
#NOTEDATA:;
#CHARTNAME:;
#STEPSTYPE:dance-single;
#DESCRIPTION:;
#CHARTSTYLE:;
#DIFFICULTY:Hard;
#METER:16;
#RADARVALUES:0.728457,0.838498,0.357692,0.274508,0.012478,613.000000,570.000000,43.000000,33.000000,0.000000,0.000000,0.000000,0.000000,0.000000,0.728457,0.838498,0.357692,0.274508,0.012478,613.000000,570.000000,43.000000,33.000000,0.000000,0.000000,0.000000,0.000000,0.000000;
#CREDIT:MILEN;
#DISPLAYBPM:116.000000;
#NOTES:
// measure 0
0000
0000
0000
0000
,  // measure 1
0000
0000
0000
0000
,  // measure 2
0000
0000
0000
0000
,  // measure 3
0000
0000
0000
0000
,  // measure 4
0000
0000
1000
1020
,  // measure 5
0000
1000
0000
1000
,  // measure 6
0030
1000
0001
0201
,  // measure 7
0000
0001
0000
0001
,  // measure 8
0300
0001
1000
1001
,  // measure 9
0000
0000
1000
0001
1000
0000
0000
0000
2002
0000
0000
0000
3003
0000
0000
0000
,  // measure 10
1000
0010
0100
0001
0011
0000
0010
0001
,  // measure 11
0100
0000
0010
0000
1000
0000
0100
0010
,  // measure 12
0000
0100
1000
0000
1100
0000
0100
1000
,  // measure 13
0010
0000
0100
0000
0001
0000
0010
0100
,  // measure 14
0000
0010
0001
0000
0101
0000
0100
0010
,  // measure 15
1000
0000
0001
0000
1000
0000
0010
0100
,  // measure 16
0001
0000
1000
0000
0001
0000
0100
0010
,  // measure 17
0100
0000
0001
0000
0100
0010
0100
0001
,  // measure 18
0010
0100
1000
0000
1010
0000
0010
0100
,  // measure 19
0001
0000
1000
0000
0100
0000
0010
0001
,  // measure 20
0000
0100
0001
0000
0101
0000
0100
0010
,  // measure 21
1000
0000
0001
0000
0010
0000
0100
1000
,  // measure 22
0000
0010
1000
0000
1100
0000
0100
0010
,  // measure 23
0001
0000
1000
0000
0001
0000
0010
0100
,  // measure 24
1000
0000
0001
0000
1000
0000
0100
0010
,  // measure 25
0100
0010
2002
3003
,  // measure 26
0110
0010
0100
0001
1000
0000
0100
0000
,  // measure 27
0001
0100
1000
0100
,  // measure 28
0001
0100
1000
0100
,  // measure 29
0001
0000
0100
1000
0100
0000
0010
0000
,  // measure 30
0001
0000
0100
0000
0010
1000
0010
0000
,  // measure 31
0100
0000
0001
0000
0010
0100
0010
0200
,  // measure 32
0000
0000
1300
0000
0010
0100
0001
0000
,  // measure 33
1000
0100
0010
0000
0001
0100
0010
1000
,  // measure 34
0001
0010
0100
0000
2000
0000
3010
0000
,  // measure 35
0002
0013
2000
3010
,  // measure 36
0002
0013
2000
3010
,  // measure 37
0002
0000
0013
1000
0010
0000
0100
0000
,  // measure 38
0001
0010
0100
1000
0010
0000
0100
0000
,  // measure 39
0001
0000
1000
0000
0100
0000
0010
0001
,  // measure 40
0000
0010
1000
0000
0010
0000
0001
0000
,  // measure 41
0100
0000
0010
0000
1000
0001
1000
0001
,  // measure 42
0010
0100
0010
0100
1000
0010
0100
0000
,  // measure 43
0100
0010
1000
0000
1000
0010
0100
0002
,  // measure 44
0000
0000
0013
0000
0010
0100
1000
0000
,  // measure 45
1000
0100
0010
0000
0010
0100
1000
0002
,  // measure 46
0000
0000
0103
0000
0100
0010
0100
0000
,  // measure 47
0100
0001
0100
0000
0100
0010
0100
0000
,  // measure 48
0100
1000
0100
0000
0010
0001
0010
0000
,  // measure 49
0010
0100
0010
0000
0010
1000
0010
0000
,  // measure 50
0010
0100
0001
1000
0100
0000
0010
0000
,  // measure 51
0001
0000
0100
0000
1000
0000
0100
0020
,  // measure 52
0000
1030
0001
0010
,  // measure 53
0100
1000
2020
3030
,  // measure 54
0202
0000
0303
0000
0110
0000
0001
0100
,  // measure 55
1000
0100
0001
0000
0110
0000
1000
0010
,  // measure 56
0001
0010
1000
0000
0110
0000
0001
0010
,  // measure 57
0100
0010
1000
0000
0110
0000
1000
0100
,  // measure 58
0010
0100
0001
0000
0010
0100
1000
0010
,  // measure 59
0100
0001
1000
0000
0100
0010
0001
0100
,  // measure 60
0010
1000
0001
0000
0011
0000
0000
0000
,  // measure 61
1100
0000
0110
0000
,  // measure 62
2002
0000
3003
0000
1001
0000
0001
0100
,  // measure 63
0010
1000
0001
0100
0010
0000
0010
1000
,  // measure 64
0000
1000
0100
0000
1001
0000
1000
0010
,  // measure 65
0100
0001
1000
0010
0100
0000
0100
0001
,  // measure 66
0000
0001
0010
0000
1001
0000
1000
0010
,  // measure 67
0100
0000
1000
0100
0001
0000
1000
0010
,  // measure 68
0100
0000
1000
0100
0001
0010
0100
0010
,  // measure 69
1000
0010
0001
0100
1000
0100
0010
1000
,  // measure 70
0100
0010
0001
0000
1001
0000
1000
0100
,  // measure 71
0010
0001
1000
0100
0010
0000
0100
0001
,  // measure 72
0000
0100
0010
0000
1001
0000
0001
0010
,  // measure 73
0100
1000
0001
0010
0100
0000
0010
1000
,  // measure 74
0000
0010
0100
0000
1001
0000
0001
0010
,  // measure 75
0100
0000
0001
0100
1000
0000
0001
0010
,  // measure 76
0100
0000
0001
0100
1000
0010
0100
1000
,  // measure 77
0100
0001
0100
0010
0001
0010
1000
0010
,  // measure 78
0100
0001
0010
0100
2000
0000
0000
0000
,  // measure 79
0000
0000
3010
0100
0001
0000
0100
0010
,  // measure 80
0001
0000
1000
0100
0010
0000
1000
0010
,  // measure 81
0100
0000
1000
0100
0001
0000
0001
0010
,  // measure 82
1000
0010
0100
1000
0010
0100
0010
0100
,  // measure 83
0001
0010
0001
0010
0100
1000
0100
1000
,  // measure 84
0010
0001
0010
0001
0010
0100
0001
1000
,  // measure 85
0010
0100
1000
0100
1000
0100
0001
0010
,  // measure 86
0100
1000
0010
0100
0110
0000
0001
1000
,  // measure 87
0100
0000
0001
0000
0100
0000
0010
0001
,  // measure 88
0000
0001
0100
0000
0110
0000
1000
0001
,  // measure 89
0010
0000
1000
0000
0010
0000
0100
1000
,  // measure 90
0000
1000
0010
0000
0110
0000
1000
0100
,  // measure 91
0010
0000
1000
0000
0010
0000
0001
0010
,  // measure 92
0100
0000
0001
0000
0100
0000
1000
0010
,  // measure 93
0100
0000
0001
0000
1000
0010
0100
1000
,  // measure 94
0100
0010
0100
0001
0101
0100
0010
1000
,  // measure 95
0001
0010
0100
1000
0010
0000
1000
0100
,  // measure 96
0001
0100
1000
0000
1010
0010
0100
0001
,  // measure 97
1000
0100
0010
0001
0100
0000
0001
0010
,  // measure 98
1000
0010
0001
0000
0011
0001
0010
0100
,  // measure 99
0001
0100
1000
0010
0001
0000
1000
0100
,  // measure 100
0001
0010
1000
0000
0010
0100
1000
0001
,  // measure 101
0010
0000
0100
0000
1000
0010
1000
0010
0200
0000
0000
0000
0000
0000
0000
0000
,  // measure 102
0302
0000
2003
0000
3010
0000
0100
0002
,  // measure 103
0000
0000
0013
0000
0100
0000
1000
0020
,  // measure 104
0000
0000
0130
0000
0001
0000
0010
0200
,  // measure 105
0000
0000
1300
0000
0010
0000
0100
0002
,  // measure 106
0000
1003
1020
0100
,  // measure 107
0000
0001
0000
0100
,  // measure 108
0000
1000
1030
1100
,  // measure 109
0110
0011
0101
0110
,  // measure 110
1010
1001
0220
0000
,  // measure 111
0000
0000
0000
0000
,  // measure 112
0330
0000
0000
0000
;

//---------------dance-double - ----------------
#NOTEDATA:;
#CHARTNAME:;
#STEPSTYPE:dance-double;
#DESCRIPTION:;
#CHARTSTYLE:;
#DIFFICULTY:Hard;
#METER:15;
#RADARVALUES:0.704690,0.791915,0.232916,0.257871,0.004159,593.000000,565.000000,28.000000,31.000000,0.000000,0.000000,0.000000,0.000000,0.000000,0.704690,0.791915,0.232916,0.257871,0.004159,593.000000,565.000000,28.000000,31.000000,0.000000,0.000000,0.000000,0.000000,0.000000;
#CREDIT:MILEN;
#DISPLAYBPM:232.000000;
#NOTES:
00000000
00000000
00000000
00000000
,
00000000
00000000
00000000
00000000
,
00000000
00000000
00000000
00000000
,
00000000
00000000
00000000
00000000
,
00000000
00000000
00001000
00201000
,
00000000
00010000
00000000
00010000
,
00300000
00001000
00010000
00010020
,
00000000
00001000
00000000
00001000
,
00000030
00010000
00001000
00011000
,
00000000
00000000
00001000
00010000
00001000
00000000
00000000
00000000
00022000
00000000
00000000
00000000
00033000
00000000
00000000
00000000
,
00010000
00000100
00001000
00000001
00001001
00000000
00001000
00000100
,
00010000
00000000
00001000
00000000
00010000
00000000
00000100
00001000
,
00000000
00000001
00001000
00000000
00001100
00000000
00000100
00010000
,
00001000
00000000
00100000
00000000
00010000
00000000
10000000
00100000
,
00000000
01000000
00010000
00000000
00110000
00000000
00100000
00001000
,
00010000
00000000
00000100
00000000
00001000
00000000
00000100
00010000
,
00001000
00000000
00100000
00000000
00010000
00000000
01000000
00100000
,
01000000
00000000
00010000
00000000
10000000
01000000
10000000
01000000
,
00100000
00010000
01000000
00000000
10010000
00000000
00010000
01000000
,
00001000
00000000
00010000
00000000
00001000
00000000
01000000
00010000
,
00000000
10000000
00010000
00000000
01010000
00000000
01000000
00001000
,
00010000
00000000
00000010
00000000
00001000
00000000
00000001
00000010
,
00000000
00000100
00001000
00000000
00001010
00000000
00000010
00010000
,
00001000
00000000
01000000
00000000
00010000
00000000
01000000
00001000
,
00010000
00000000
00000010
00000000
00001000
00000000
00000100
00000010
,
00000100
00000010
00002002
00003003
,
00000001
00001000
00000100
00010000
00001000
00000000
01000000
00000000
,
00001000
00010000
00001000
01000000
,
00001000
00010000
00001000
01000000
,
00001000
00000000
00010000
00000100
00010000
00000000
00001000
00000000
,
00100000
01000000
10000000
00100000
,
01000000
00000000
00001000
00000000
00100000
00010000
00100000
00020000
,
00000000
00000000
01030000
00000000
01000000
00001000
00010000
00000000
,
00001000
00010000
00000100
00000000
00001000
00000100
00001000
00000100
,
00000010
00000001
00000100
00000000
00000010
00000000
00010000
00000000
,
00001000
00010000
00000010
00010000
,
00001000
00010000
00000010
00010000
,
00001000
00000000
00100000
00010000
00100000
00000000
00001000
00000000
,
00010000
00000100
00000010
00000001
,
00001000
00000000
00000010
00000000
00010000
00000000
00001000
00010000
,
00001000
00010000
00100000
00000000
01000000
00000000
00010000
00000000
,
10000000
00000000
01000000
00000000
00100000
00001000
00100000
00001000
,
00010000
00000010
00010000
00000010
00001000
00000100
00000010
00000000
,
00000100
00000010
00000001
00000000
00001000
00000100
00000010
00000002
,
00000000
00000000
00001003
00000000
00001000
00000010
00010000
00000000
,
00001000
00100000
00010000
00000000
00100000
01000000
10000000
00020000
,
00000000
00000000
01030000
00000000
01000000
00100000
01000000
00000000
,
00001000
00000000
00010000
00000000
00000010
00000100
00000010
00000000
,
00010000
00000000
00001000
00000000
00100000
01000000
00100000
00000000
,
00001000
00000000
00010000
00000000
00000100
00000010
00000100
00000000
,
00001000
00000010
00000100
00000001
00001000
00000000
00000100
00000000
,
00000010
00000000
00000001
00000000
00001000
00000000
00000010
00020000
,
00000000
00031000
00100000
01000000
,
10000000
00100000
02200000
03300000
,
20020000
00000000
30030000
00000000
10010000
00000000
10000000
01000000
,
00100000
00010000
01000000
00000000
00001000
00000000
00010000
00001000
,
00000100
00000010
00001000
00000000
00000001
00000000
00000010
00000100
,
00001000
00000010
00010000
00000000
00001000
00000000
00100000
01000000
,
10000000
00100000
01000000
00000000
00010000
10000000
01000000
00100000
,
00010000
01000000
00001000
00000000
00010000
00001000
00000100
00000010
,
00001000
00000100
00000010
00000000
00000011
00000000
00000000
00000000
,
00000110
00000000
00001100
00000000
,
00022000
00000000
00033000
00000000
00011000
00000000
00001000
00100000
,
00010000
01000000
00001000
00100000
00010000
01000000
00100000
10000000
,
01000000
00100000
00010000
00000000
01000000
00000000
00001000
00010000
,
00000010
00001000
00000100
00010000
00000010
00001000
00000100
00010000
,
00001000
00000100
00000010
00000000
00001000
00000000
00000001
00000000
,
00000100
00000010
00010000
00001000
,
01000000
00000000
00100000
10000000
01000000
10000000
00100000
01000000
,
00010000
00100000
00010000
01000000
00100000
10000000
01000000
00100000
,
00001000
00010000
00000100
00000000
00001100
00000000
00001000
00000010
,
00010000
00000100
00001000
00000010
00010000
00000100
00001000
00000010
,
00000100
00000001
00001000
00000000
00000100
00000000
00010000
00001000
,
00100000
00010000
01000000
00001000
00100000
00010000
01000000
00100000
,
10000000
00010000
00100000
00000000
01000000
00000000
10000000
00000000
,
00100000
00010000
00001000
00000100
,
00000001
00000000
00001000
00000000
00000010
00000100
00000001
00000100
,
00000010
00001000
00000010
00000100
00000001
00000010
00000100
00001000
,
00000010
00010000
00001000
00100000
02000000
00000000
00000000
00000000
,
00000000
00000000
13000000
00100000
10000000
00000000
00100000
00010000
,
00100000
00000000
00010000
00001000
00010000
00000000
00001000
00000100
,
00001000
00000000
00000100
00000001
00000100
00000000
00000001
00000010
,
00000001
00000010
00000100
00001000
00000010
00010000
00000010
00010000
,
00001000
00100000
00001000
00100000
00010000
01000000
00010000
01000000
,
00100000
10000000
00100000
10000000
00100000
01000000
00010000
00100000
,
00001000
00010000
00000100
00001000
00000010
00000100
00000001
00001000
,
00000100
00010000
00001000
00100000
00020000
00000000
10030000
01000000
,
00100000
00000000
01000000
00000000
10000000
00000000
01000000
00010000
,
00000000
00001000
00000010
00000000
00000110
00000000
00000001
00000010
,
00000100
00000000
00000010
00000000
00000001
00000000
00000010
00001000
,
00000000
00010000
01000000
00000000
01100000
00000000
10000000
01000000
,
00100000
00000000
00010000
00000000
01000000
00000000
00100000
00010000
,
00001000
00000000
00000100
00000000
00000010
00000000
00001000
00000100
,
00000010
00000000
00000001
00000000
00001000
00000010
00001000
00000010
,
00010000
00001000
00010000
00001000
00100000
00010000
01000000
00100000
,
10000000
00010000
00100000
01000000
10000000
00000000
00100000
00010000
,
00001000
00000010
00000100
00000000
00001000
00000010
00000100
00000001
,
00001000
00000100
00000010
00000001
00000100
00000000
00001000
00010000
,
00100000
01000000
00010000
00000000
10000000
01000000
00010000
01000000
,
00010000
00001000
00010000
00001000
00000010
00001000
00000010
00000001
,
00000100
00001000
00010000
00000000
00100000
10000000
01000000
00100000
,
00001000
00010000
00000100
00000010
00000002
00000000
00000000
00000000
,
00002003
00000000
00003020
00000000
00010030
00000000
00010000
00002000
,
00000000
00000000
00103000
00000000
01000000
00000000
01000000
20000000
,
00000000
00000000
30100000
00000000
01000000
00000000
01000000
00020000
,
00000000
00000000
00130000
00000000
00001000
00000000
00001000
00020000
,
00000000
00030100
00000110
00000002
,
00000003
00002000
00003000
00020000
,
00030000
20000000
30100000
01100000
,
00010000
01010000
00001000
00011000
,
00000100
00001100
00000022
00000000
,
00000000
00000000
00000000
00000000
,
00000033
00000000
00000000
00000000
;

//---------------dance-single - ----------------
#NOTEDATA:;
#CHARTNAME:;
#STEPSTYPE:dance-single;
#DESCRIPTION:;
#CHARTSTYLE:;
#DIFFICULTY:Beginner;
#METER:4;
#RADARVALUES:0.149732,0.229797,0.008318,0.000000,0.000000,126.000000,125.000000,1.000000,0.000000,0.000000,0.000000,0.000000,0.000000,0.000000,0.149732,0.229797,0.008318,0.000000,0.000000,126.000000,125.000000,1.000000,0.000000,0.000000,0.000000,0.000000,0.000000,0.000000;
#CREDIT:MILEN;
#DISPLAYBPM:232.000000;
#NOTES:
0000
0000
0000
0000
,
0000
0000
0000
0000
,
0000
0000
0000
0000
,
0000
0000
0000
0000
,
0000
0000
0000
0000
,
0000
0000
0000
0000
,
0000
0000
0000
0000
,
0000
0000
0000
0000
,
0000
0000
0000
0000
,
0000
0000
0000
0000
,
0000
0000
1000
0000
,
0000
0000
0100
0000
,
0000
0000
0010
0000
,
0000
0000
0001
0000
,
0000
0000
1000
0000
,
0000
0000
0010
0000
,
0000
0000
0100
0000
,
0000
0000
0001
0000
,
0000
0000
0001
0000
,
0000
0000
0010
0000
,
0000
0000
0100
0000
,
0000
0000
1000
0000
,
0000
0000
0001
0000
,
0000
0000
0100
0000
,
0000
0000
0010
0000
,
0000
0000
1000
0000
,
0000
0000
1000
0000
,
0000
0000
0100
0000
,
0000
0000
0010
0000
,
0000
0000
0100
0000
,
0000
0000
1000
0000
,
0000
0000
0100
0000
,
0000
0000
0010
0000
,
0000
0000
0010
0000
,
0000
0000
0001
0000
,
0000
0000
0010
0000
,
0000
0000
0100
0000
,
0000
0000
0010
0000
,
0000
0000
0001
0000
,
0000
0000
0010
0000
,
0000
0000
0100
0000
,
0000
0000
0100
0000
,
0000
0000
1000
0000
,
0000
0000
0010
0000
,
0000
0000
0001
0000
,
0000
0000
0010
0000
,
0000
0000
1000
0000
,
0000
0000
0010
0000
,
0000
0000
0001
0000
,
0000
0000
0010
0000
,
0000
0000
0100
0000
,
0000
0000
0100
0000
,
0000
0000
0100
0000
,
0100
0000
0100
0000
,
0100
0000
0001
0000
,
0000
0000
0100
0000
,
0000
0000
1000
0000
,
0000
0000
0100
0000
,
0000
0000
0001
0000
,
0000
0000
0100
0000
,
0000
0000
1000
0000
,
1000
0000
1000
0000
,
1000
0000
0100
0000
,
0000
0000
0001
0000
,
0000
0000
0010
0000
,
0000
0000
0100
0000
,
0000
0000
1000
0000
,
1000
0000
1000
0000
,
1000
0000
0001
0000
,
0001
0000
0001
0000
,
0001
0000
0100
0000
,
0000
0000
0010
0000
,
0000
0000
1000
0000
,
0000
0000
0100
0000
,
0000
0000
0010
0000
,
0010
0000
0010
0000
,
0010
0000
0100
0000
,
0100
0000
0100
0000
,
0100
0000
0010
0000
,
0000
0000
0001
0000
,
0000
0000
0100
0000
,
0000
0000
0010
0000
,
0000
0000
1000
0000
,
1000
0000
0001
0000
,
0001
0000
0100
0000
,
0100
0000
0010
0000
,
0010
0000
1000
0000
,
0000
0000
0100
0000
,
0000
0000
0001
0000
,
0000
0000
0010
0000
,
0000
0000
1000
0000
,
0000
0000
0100
0000
,
0000
0000
0001
0000
,
0000
0000
0010
0000
,
0000
0000
1000
0000
,
1000
0000
0001
0000
,
0001
0000
1000
0000
,
0001
0000
1000
0000
,
0001
0000
0100
0000
,
0010
0000
0100
0000
,
0010
0000
1000
0000
,
0001
0000
0100
0000
,
0010
0000
0010
0000
,
0000
0000
0100
0000
,
0000
0000
0001
0000
,
0000
0000
1000
0000
,
0000
0000
0100
0000
,
0000
0000
0010
0000
,
0000
0000
0001
0000
,
0000
0000
1000
0000
,
0000
0000
1001
0000
;

//---------------dance-single - ----------------
#NOTEDATA:;
#CHARTNAME:;
#STEPSTYPE:dance-single;
#DESCRIPTION:;
#CHARTSTYLE:;
#DIFFICULTY:Easy;
#METER:7;
#RADARVALUES:0.324419,0.465832,0.091503,0.124776,0.000000,273.000000,262.000000,11.000000,15.000000,0.000000,0.000000,0.000000,0.000000,0.000000,0.324419,0.465832,0.091503,0.124776,0.000000,273.000000,262.000000,11.000000,15.000000,0.000000,0.000000,0.000000,0.000000,0.000000;
#CREDIT:MILEN;
#DISPLAYBPM:232.000000;
#NOTES:
0000
0000
0000
0000
,
0000
0000
0000
0000
,
0000
0000
0000
0000
,
0000
0000
0000
0000
,
0000
0000
1000
1000
,
0000
1000
0000
1000
,
0000
1000
0001
0001
,
0000
0001
0000
0001
,
0000
0001
1000
0001
,
0000
1000
1001
0000
,
1001
0000
0010
0000
,
0100
0000
0001
0000
,
0100
0000
0010
0000
,
0100
0000
0001
0000
,
0100
0000
0010
0000
,
1000
0000
0010
0000
,
0100
0000
0010
0000
,
1000
0000
0010
0000
,
0100
0000
0001
0000
,
1000
0000
0001
0000
,
0010
0000
0001
0000
,
1000
0000
0001
0000
,
0010
0000
1000
0000
,
0001
0000
1000
0000
,
0100
0000
1000
0000
,
0001
0000
1000
0000
,
0100
0000
0001
0000
,
1000
0000
0010
0100
,
0010
0100
0010
0000
,
0010
0000
0010
0000
,
1000
0001
1000
0000
,
0001
1000
0001
0000
,
1000
0001
1001
0000
,
0100
0000
0010
0000
,
0010
0000
0100
0000
,
0001
0000
1000
0010
,
1000
0010
1000
0000
,
0100
0000
0010
0000
,
0001
0100
0001
0000
,
1000
0010
1000
0000
,
0001
0100
0110
0000
,
0010
0000
1000
0000
,
0100
0000
0020
0000
,
0031
0000
0001
0100
,
0001
0000
0200
0000
,
0310
0000
0010
1000
,
0010
0000
2000
0000
,
3001
0000
0002
0000
,
1003
0000
1000
0010
,
0100
0000
0001
0100
,
0010
0010
2000
0000
,
0000
0000
0000
0000
,
3000
0000
0001
0000
,
0001
0000
0001
0000
,
0001
0100
1010
0000
,
1000
0100
0010
0000
,
0010
0001
0100
0000
,
0100
0010
1000
0000
,
1000
0001
0010
0100
,
1000
0001
0010
0100
,
1000
0010
0110
0000
,
0000
0000
0000
0000
,
2002
3003
0001
0000
,
1000
0000
0010
0100
,
0010
0010
1000
0000
,
0001
0000
0100
0010
,
0100
0100
0001
0000
,
0010
0000
0100
0000
,
1000
0000
0010
0100
,
0001
0100
0010
0100
,
0001
1000
1001
0000
,
1000
0000
0100
0010
,
0001
0010
0010
0000
,
0001
0000
0010
0100
,
1000
0100
0100
0000
,
0010
0000
0001
0000
,
1000
0000
0010
0100
,
0010
1000
0010
0100
,
0010
1000
1001
0000
,
0001
0000
0100
0000
,
1000
0000
0010
0000
,
0001
0000
0100
0000
,
1000
0000
0010
0001
,
0100
0000
0010
1000
,
0100
0000
0010
0001
,
0100
0010
1000
0001
,
0010
0100
0110
0000
,
0010
0000
0001
0000
,
0010
0000
0100
0000
,
0010
0000
0001
0000
,
0010
0000
0100
0000
,
1000
0000
0100
0000
,
0010
0000
0100
0000
,
1000
0000
0100
0000
,
0010
0000
0001
0100
,
0001
0010
0001
0000
,
0100
0000
1000
0010
,
1000
0100
1000
0000
,
0010
0000
0001
1000
,
0001
0100
0010
0000
,
0010
0000
1000
0001
,
1000
0010
0100
0000
,
0100
0010
2000
0000
,
3000
0000
0200
0000
,
0300
0000
0020
0000
,
0030
0000
0002
0000
,
0003
0000
0200
0000
,
0300
0000
0020
0000
,
0030
0000
1000
0000
,
0001
0000
0100
0010
,
0100
0010
0220
0000
,
0000
0000
0000
0000
,
0330
0000
0000
0000
;

//---------------dance-double - ----------------
#NOTEDATA:;
#CHARTNAME:;
#STEPSTYPE:dance-double;
#DESCRIPTION:;
#CHARTSTYLE:;
#DIFFICULTY:Easy;
#METER:7;
#RADARVALUES:0.293522,0.465832,0.083184,0.133095,0.000000,247.000000,237.000000,10.000000,16.000000,0.000000,0.000000,0.000000,0.000000,0.000000,0.293522,0.465832,0.083184,0.133095,0.000000,247.000000,237.000000,10.000000,16.000000,0.000000,0.000000,0.000000,0.000000,0.000000;
#CREDIT:MILEN;
#DISPLAYBPM:232.000000;
#NOTES:
00000000
00000000
00000000
00000000
,
00000000
00000000
00000000
00000000
,
00000000
00000000
00000000
00000000
,
00000000
00000000
00000000
00000000
,
00000000
00000000
00001000
00001000
,
00000000
00001000
00000000
00001000
,
00000000
00001000
00010000
00010000
,
00000000
00010000
00000000
00001000
,
00000000
00010000
00001000
00010000
,
00000000
00001000
00011000
00000000
,
00011000
00000000
00010000
00000000
,
00000100
00000000
00010000
00000000
,
00000010
00000000
00010000
00000000
,
00000100
00000000
00010000
00000000
,
00001000
00000000
00100000
00000000
,
00001000
00000000
01000000
00000000
,
00001000
00000000
00100000
00000000
,
00001000
00000000
00010000
00000000
,
01000000
00000000
10000000
00000000
,
00010000
00000000
10000000
00000000
,
01000000
00000000
10000000
00000000
,
00010000
00000000
00100000
00000000
,
00001000
00000000
00010000
00000000
,
00000010
00000000
00001000
00000000
,
00000001
00000000
00001000
00000000
,
00000010
00000000
00001000
00000000
,
00000001
00000000
00000100
00000000
,
00000010
00000000
00010000
00001000
,
00010000
00001000
00010000
00000000
,
00001000
00000000
00001000
00000000
,
00010000
00000000
01000000
00000000
,
10000000
00000000
00100000
00000000
,
00010000
00000000
00001000
00000000
,
00000100
00000000
00000001
00000000
,
00000010
00000000
00000100
00000000
,
00010000
00000000
00001000
00010000
,
00001000
00010000
00001000
00000000
,
01000000
00000000
00100000
00000000
,
10000000
00000000
00010000
00000000
,
01000000
00000000
00001000
00000000
,
00010000
00000000
00000100
00000000
,
00000010
00000000
00000001
00000000
,
00000100
00000000
00000020
00000000
,
00010030
00000000
00010000
00000000
,
00001000
00000000
00200000
00000000
,
00310000
00000000
00010000
00000000
,
10000000
00000000
00200000
00000000
,
01300000
00000000
02000000
00000000
,
03100000
00000000
00100000
00000000
,
10000000
00000000
01000000
00000000
,
00010000
00001000
00022000
00000000
,
00000000
00000000
00000000
00000000
,
00033000
00000000
00010000
00000000
,
00001000
00000000
00010000
00000000
,
00010000
00001000
00011000
00000000
,
00010000
00000100
00000010
00000000
,
00000010
00000001
00000100
00000000
,
00000010
00010000
00001000
00000000
,
00001000
00100000
01000000
00000000
,
10000000
00000000
00100000
00000000
,
00010000
00001000
00011000
00000000
,
00000000
00000000
00000000
00000000
,
00022000
00033000
00010000
00000000
,
00001000
00000000
00000100
00000001
,
00000100
00000000
00001000
00000000
,
00010000
00000000
00100000
10000000
,
00100000
00000000
00010000
00000000
,
00001000
00000000
00000100
00000000
,
00000001
00000000
00000010
00001000
,
00010000
00000000
00001000
00010000
,
00100000
00000000
01100000
00000000
,
10000000
00000000
01000000
00100000
,
01000000
00000000
00010000
00000000
,
00001000
00000000
00000010
00000100
,
00000010
00000000
00000001
00000000
,
00000100
00000000
00001000
00000000
,
00010000
00000000
00100000
10000000
,
01000000
00000000
00100000
00010000
,
01000000
00000000
01100000
00000000
,
00100000
00000000
10000000
00000000
,
00010000
00000000
01000000
00000000
,
00001000
00000000
00010000
00000000
,
00000100
00000000
00001000
00000010
,
00000100
00000000
00000010
00001000
,
00000100
00000000
00001000
00000010
,
00000100
00000010
00001000
00000010
,
00000100
00000001
00001001
00000000
,
00001000
00000000
00000100
00000000
,
00010000
00000000
00001000
00000000
,
00100000
00000000
00010000
00000000
,
01000000
00000000
00100000
00000000
,
10000000
00000000
00010000
00000000
,
01000000
00000000
00001000
00000000
,
00010000
00000000
00000010
00000000
,
00001000
00000000
00000001
00000100
,
00001000
00000000
00000100
00000000
,
00001000
00000000
00010000
00100000
,
10000000
00000000
00100000
00000000
,
10000000
00000000
01000000
00010000
,
00001000
00000000
00010000
00000000
,
00001000
00000000
00000010
00000001
,
00000100
00000000
00001000
00000000
,
00010000
00100000
20000000
00000000
,
30000000
00000000
02000000
00000000
,
03000000
00000000
00200000
00000000
,
00300000
00000000
00020000
00000000
,
00030000
00000000
00002000
00000000
,
00003000
00000000
00000020
00000000
,
00000030
00000000
00000100
00000000
,
00000001
00000000
00000010
00001000
,
00010000
00001000
00022000
00000000
,
00000000
00000000
00000000
00000000
,
00033000
00000000
00000000
00000000
;

//---------------dance-single - ----------------
#NOTEDATA:;
#CHARTNAME:;
#STEPSTYPE:dance-single;
#DESCRIPTION:;
#CHARTSTYLE:;
#DIFFICULTY:Medium;
#METER:12;
#RADARVALUES:0.562088,0.698748,0.232916,0.232916,0.000000,473.000000,445.000000,28.000000,28.000000,0.000000,0.000000,0.000000,0.000000,0.000000,0.562088,0.698748,0.232916,0.232916,0.000000,473.000000,445.000000,28.000000,28.000000,0.000000,0.000000,0.000000,0.000000,0.000000;
#CREDIT:MILEN;
#DISPLAYBPM:232.000000;
#NOTES:
0000
0000
0000
0000
,
0000
0000
0000
0000
,
0000
0000
0000
0000
,
0000
0000
0000
0000
,
0000
0000
1000
1002
,
0000
1000
0000
1000
,
0000
1003
0001
2001
,
0000
0001
0000
0001
,
0000
3001
1000
1001
,
0000
0001
1000
0000
0220
0000
0330
0000
,
0110
0010
0100
0001
,
0100
0001
0100
1000
,
0100
1000
0100
0001
,
0100
1000
0100
0001
,
0100
0100
0010
1000
,
0010
1000
0010
0001
,
0010
0001
0010
1000
,
0010
0001
0010
1000
,
0010
0010
0100
0001
,
1000
0000
0010
0000
0100
0000
0001
1000
,
0000
1000
0001
0000
0100
0000
0010
0000
,
1000
0000
0001
0000
0100
0000
0010
0100
,
0000
0100
0010
0000
1000
0000
0001
0000
,
0100
0000
0010
0000
1000
0000
0001
1000
,
0000
1000
0001
0000
0100
0000
1000
0000
,
0010
0001
2002
3003
,
0110
0110
0010
1000
,
0100
1000
0010
1000
,
0100
0010
0100
0000
0010
0000
0001
0000
,
0100
0001
0010
0001
,
0100
0010
0100
0000
0010
0000
1000
0000
,
0001
0100
0010
1000
,
0100
1000
0100
0000
0010
0000
0001
0000
,
1000
0000
0010
0000
0100
0001
0100
0000
,
0010
0110
1000
0001
,
0100
1000
0100
0001
,
1000
0001
1000
0000
0001
0000
1000
0000
,
0010
0001
0010
1000
,
0001
1000
0001
0000
0100
0000
0010
0000
,
1010
1000
0010
0100
,
0101
0001
0100
0010
,
1000
0000
0001
0100
0010
0000
0100
0001
,
0000
0100
0010
1000
0020
0000
0130
0000
,
0100
0000
0001
0000
1000
0000
0100
0010
,
0000
0100
1000
0010
,
0100
0000
0001
0000
1000
0000
0010
0100
,
0000
0010
2002
3003
,
1000
0000
0010
0100
0000
0100
0001
0000
,
1000
0100
0020
0031
,
0200
0310
2000
3100
,
0020
0130
2002
0000
,
0000
0000
0000
0000
,
0000
3003
1001
0000
,
0110
0000
1001
0000
,
0220
0000
0330
0000
0010
0100
0010
0000
,
1000
0000
0001
0000
0100
0010
0100
0000
,
0001
1000
0010
0001
,
0100
0000
1000
0000
0010
0000
0100
0001
,
0000
1000
0010
0000
0200
0000
0001
0000
,
0001
0301
0020
1000
,
1000
1030
1100
0000
,
0011
0000
0101
0000
,
2020
3030
1000
0100
,
0010
0000
0001
0000
0100
0000
0010
0100
,
0000
0001
0100
0000
0010
0000
1000
0000
,
0001
0000
0010
0000
0100
0000
1000
0100
,
0000
0010
0100
0000
1000
0100
1000
0000
,
0100
0000
0010
0000
0001
0010
0001
0000
,
0100
0000
0010
0000
1000
0010
0100
0000
,
0001
0100
0010
0000
1000
0001
1000
0001
,
1000
1001
0001
0100
,
0010
0000
1000
0000
0100
0000
0010
0100
,
0000
1000
0100
0000
0010
0000
0001
0000
,
1000
0000
0010
0000
0100
0000
0001
0100
,
0000
0010
0100
0000
0001
0100
0001
0000
,
0100
0000
0010
0000
1000
0010
1000
0000
,
0100
0000
0010
0000
0001
0010
0100
0000
,
1000
0100
0010
0000
0001
1000
0001
1000
,
0001
0000
1001
0000
1000
0010
1000
0000
,
0010
1000
0010
0000
0100
0001
0100
0000
,
0001
0100
0001
0000
0010
0001
0010
0000
,
0001
0010
0001
0000
1000
0100
1000
0000
,
0100
1000
0100
0000
1000
0010
0100
0000
,
0001
0100
0010
0000
1000
0001
1000
0001
,
0010
0100
0010
0100
1000
0000
0010
0000
,
0001
1000
0100
0001
,
2002
3003
1000
0010
,
0001
0010
1000
0010
,
0001
0010
0100
1000
,
0100
0001
0100
1000
,
0100
0001
0010
1000
,
0010
0001
0100
1000
,
0100
0001
0010
1000
,
0001
0100
1000
0010
,
0001
1000
0200
0310
,
0100
0000
0001
0000
1000
0000
0010
0001
,
0010
0100
0010
0000
1000
0000
0100
0000
,
0010
0000
0001
0000
0100
0000
0010
1000
,
0010
0100
0010
0000
1000
0000
0001
0000
,
0010
0000
0100
0000
1000
0000
0001
0100
,
0010
1000
0100
0000
0010
0000
0001
0000
,
0100
0010
1000
0001
0020
0000
0000
0000
,
0130
0000
0110
0000
1000
0000
0000
0010
,
0000
0000
0001
0000
0100
0000
0000
1000
,
0000
0000
0010
0000
0001
0000
0000
0100
,
0000
0000
1000
0000
0010
0000
0000
0001
,
0000
0100
2000
0001
,
0000
0001
0000
0001
,
0000
0001
0000
3001
,
0010
0100
1100
1000
,
0011
0001
0220
0000
,
0000
0000
0000
0000
,
0330
0000
0000
0000
;

//---------------dance-double - ----------------
#NOTEDATA:;
#CHARTNAME:;
#STEPSTYPE:dance-double;
#DESCRIPTION:;
#CHARTSTYLE:;
#DIFFICULTY:Medium;
#METER:12;
#RADARVALUES:0.544263,0.652165,0.249553,0.232916,0.000000,458.000000,428.000000,30.000000,28.000000,0.000000,0.000000,0.000000,0.000000,0.000000,0.544263,0.652165,0.249553,0.232916,0.000000,458.000000,428.000000,30.000000,28.000000,0.000000,0.000000,0.000000,0.000000,0.000000;
#CREDIT:MILEN;
#DISPLAYBPM:232.000000;
#NOTES:
00000000
00000000
00000000
00000000
,
00000000
00000000
00000000
00000000
,
00000000
00000000
00000000
00000000
,
00000000
00000000
00000000
00000000
,
00000000
00000000
00001000
00021000
,
00000000
00000100
00000000
00001000
,
00000000
00030100
00010000
00012000
,
00000000
01000000
00000000
00010000
,
00000000
01003000
00001000
00011000
,
00000000
00010000
00001000
00000000
00022000
00000000
00033000
00000000
,
00011000
00010000
01000000
10000000
,
01000000
10000000
01000000
00010000
,
01000000
00010000
00001000
00010000
,
00001000
00010000
01000000
00010000
,
00001000
00000010
00000001
00000100
,
00000001
00000100
00001000
00000100
,
00001000
00000100
00001000
00010000
,
00001000
00010000
00001000
00000100
,
00001000
00010000
00100000
00100000
,
10000000
00000000
01000000
00000000
00100000
00000000
00010000
01000000
,
00000000
01000000
00010000
00000000
00100000
00000000
00001000
00000000
,
00010000
00000000
00000100
00000000
00001000
00000000
00000001
00000100
,
00000000
00000100
00000001
00000000
00001000
00000000
00000010
00000000
,
00010000
00000000
00001000
00000000
01000000
00000000
00010000
00100000
,
00000000
00100000
00010000
00000000
01000000
00000000
00100000
00000000
,
10000000
00010000
20020000
30030000
,
01100000
01100000
00100000
10000000
,
01000000
00100000
00010000
01000000
,
00001000
00010000
00000100
00000010
,
00000001
00001000
00000010
00010000
,
00001000
00100000
01000000
10000000
,
00100000
00010000
00001000
00000100
,
00000001
00000010
00000100
00010000
,
00001000
00100000
01000000
10000000
,
00100000
01100000
01000000
00001000
,
00010000
00001000
01000000
00001000
,
00010000
00011000
00000100
00010000
,
00001000
00010000
00000100
00010000
,
00001000
00011000
00100000
00001000
,
00011000
00000010
00010000
00001000
,
00011000
00010000
00001000
00000100
,
00000001
00000000
00000010
00000100
00000010
00000000
00001000
00000010
,
00000000
00000100
00000010
00000001
00000020
00000000
00000130
00000000
,
00000100
00000000
00010000
00000000
00001000
00000000
00000000
01000000
,
00000000
00100000
10000000
01000000
,
00100000
00000000
00010000
00000000
01000000
00000000
00000000
00001000
,
00000000
00010000
00020200
00030300
,
00000100
00000000
00000010
00000001
00000000
00000001
00000100
00000000
,
00001000
00010000
00200000
10300000
,
00020000
01030000
00002000
00013000
,
00000200
00001300
00002002
00000000
,
00000000
00000000
00000000
00000000
,
00000000
00003003
00001001
00000000
,
00010100
00000000
01001000
00000000
,
20020000
30030000
10000000
01000000
,
00100000
01000000
00010000
00001000
,
00010000
00000100
00000010
00000100
,
00001000
00000000
00000001
00000000
00000100
00000000
00000010
00010000
,
00000000
00001000
00100000
00000000
00002000
00000000
01000000
00000000
,
01000000
01003000
00020000
00000100
,
00000100
00030100
00011000
00000000
,
01001000
00000000
00010100
00000000
,
00022000
00033000
00001000
00010000
,
00100000
00000000
10000000
00000000
01000000
00000000
00100000
01000000
,
00000000
00100000
01000000
00000000
00100000
00000000
00001000
00000000
,
00010000
00000000
00000100
00000000
00000010
00000000
00000001
00000100
,
00000000
00000001
00000100
00000000
00000010
00001000
00000010
00000000
,
00010000
00000000
00001000
00000000
00100000
00010000
00100000
00000000
,
00001000
00000000
00010000
00000000
00000100
00001000
00000100
00000000
,
00010000
00000000
00001000
00000000
01000000
00010000
01000000
00010000
,
01000000
01100000
00100000
10000000
,
00010000
00000000
01000000
00000000
00001000
00000000
00010000
00000100
,
00000000
00010000
00000100
00000000
00000010
00000000
00000001
00000000
,
00000100
00000000
00001000
00000000
00000100
00000000
00000010
00010000
,
00000000
00000010
00010000
00000000
00001000
00100000
00001000
00000000
,
00010000
00000000
00001000
00000000
00010000
00000010
00010000
00000000
,
00001000
00000000
00010000
00000000
00001000
01000000
00001000
00000000
,
00010000
00000000
00001000
00000000
00010000
00000100
00010000
00000100
,
00010000
00000000
00011000
00000000
00001000
00100000
00010000
00000000
,
00100000
00000000
01000000
00000000
10000000
00100000
01000000
00000000
,
00100000
00000000
00010000
00000000
00001000
00010000
00000100
00000000
,
00001000
00000000
00000010
00000000
00000100
00000001
00000010
00000000
,
00001000
00000000
00010000
00000000
01000000
10000000
00100000
00000000
,
01000000
00000000
00010000
00000000
00100000
00001000
00100000
00001000
,
00010000
00000010
00010000
00000010
00001000
00000000
00000100
00000000
,
00000010
00000001
00000100
00001000
,
00022000
00033000
00010000
00100000
,
00010000
00100000
10000000
00100000
,
10000000
00100000
10000000
01000000
,
10000000
01000000
00010000
00001000
,
00010000
00001000
00000100
00000001
,
00000100
00000001
00000010
00000001
,
00000010
00000001
00000010
00001000
,
00010000
01000000
10000000
00100000
,
00010000
00001000
00000200
00000301
,
00000001
00000000
00001000
00000000
00000100
00000000
00010000
00001000
,
00010000
00001000
00100000
00000000
01000000
00000000
10000000
00000000
,
00100000
00000000
00010000
00000000
00001000
00000000
00100000
01000000
,
00100000
01000000
00010000
00000000
00001000
00000000
00000010
00000000
,
00000100
00000000
00001000
00000000
00000010
00000000
00000001
00000010
,
00000001
00000010
00000100
00000000
00001000
00000000
00010000
00000000
,
00100000
10000000
00100000
10000000
02000000
00000000
00000000
00000000
,
03100000
00000000
01100000
00000000
10000000
00000000
00000000
00100000
,
00000000
00000000
00010000
00000000
00001000
00000000
00000000
00000100
,
00000000
00000000
00000001
00000000
00000010
00000000
00000000
00001000
,
00000000
00000000
00010000
00000000
00100000
00000000
00000000
10000000
,
00000000
01000000
00020000
00001000
,
00000000
00000010
00000000
00001000
,
00000000
00000010
00000000
00031000
,
00001000
00000100
00000010
00000001
,
00000101
00001100
00022000
00000000
,
00000000
00000000
00000000
00000000
,
00033000
00000000
00000000
00000000
;
