#VERSION:0.83;
#TITLE:Rainspark;
#SUBTITLE:;
#ARTIST:Sanxion7;
#TITLETRANSLIT:;
#SUBTITLETRANSLIT:;
#ARTISTTRANSLIT:;
#GENRE:VARIETY;
#ORIGIN:;
#CREDIT:MUINELIM;
#BANNER:Rainspark.png;
#BACKGROUND:Rainspark-bg.png;
#PREVIEWVID:;
#JACKET:Rainspark-jacket.png;
#CDIMAGE:;
#DISCIMAGE:;
#LYRICSPATH:;
#CDTITLE:;
#MUSIC:Rainspark.MP3;
#OFFSET:-0.020500;
#SAMPLESTART:53.780502;
#SAMPLELENGTH:11.519997;
#SELECTABLE:YES;
#BPMS:0.000=125.000;
#STOPS:;
#DELAYS:;
#WARPS:;
#TIMESIGNATURES:0.000=4=4;
#TICKCOUNTS:0.000=4;
#COMBOS:0.000=1;
#SPEEDS:0.000=1.000=0.000=0;
#SCROLLS:0.000=1.000;
#FAKES:;
#LABELS:0.000=Song Start;
#BGCHANGES:;
#KEYSOUNDS:;
#ATTACKS:
;

//---------------dance-single - ----------------
#NOTEDATA:;
#CHARTNAME:;
#STEPSTYPE:dance-single;
#DESCRIPTION:;
#CHARTSTYLE:;
#DIFFICULTY:Beginner;
#METER:3;
#RADARVALUES:0.138421,0.172827,0.018634,0.000000,0.000000,104.000000,102.000000,2.000000,0.000000,0.000000,0.000000,0.000000,0.000000,0.000000,0.138421,0.172827,0.018634,0.000000,0.000000,104.000000,102.000000,2.000000,0.000000,0.000000,0.000000,0.000000,0.000000,0.000000;
#CREDIT:MILEN;
#NOTES:
0000
0000
0000
0000
,
0000
0000
0000
0000
,
0000
0000
0000
0000
,
0000
0000
0000
0000
,
0001
0000
0100
0000
,
0001
0000
0100
0000
,
0000
0001
0001
0001
,
0000
1000
1000
1000
,
1000
0000
0010
0000
,
1000
0000
0010
0000
,
0000
1000
1000
1000
,
0000
0001
0001
0001
,
0001
0000
0010
0000
,
0100
0000
1000
0000
,
0000
0001
0001
0001
,
0000
1000
1000
1000
,
1000
0000
0010
0000
,
0100
0000
0001
0000
,
1000
0000
0010
0000
,
0100
0000
0001
0000
,
1000
0000
0000
0000
,
0100
0000
0000
0000
,
0001
0000
0000
0000
,
0010
0000
0000
0000
,
1000
0000
0000
0000
,
0100
0000
0000
0000
,
0001
0000
0000
0000
,
0010
0000
0000
0000
,
1000
0000
1000
0000
,
1000
1000
0000
0000
,
0001
0000
0001
0000
,
0001
0001
0000
0000
,
0100
0000
0100
0000
,
0100
0100
0000
0000
,
0010
0000
0010
0000
,
0010
0010
0000
0000
,
1001
0000
0000
0000
,
1000
0000
0100
0000
,
1000
0000
0100
0000
,
0000
1000
1000
1000
,
0000
0001
0001
0001
,
0001
0000
0010
0000
,
0001
0000
0010
0000
,
0000
0001
0001
0001
,
0000
1000
1000
1000
,
1000
0000
0010
0000
,
0001
0000
0100
0000
,
0000
1000
1000
1000
,
0000
0001
0001
0001
,
0001
0000
0100
0000
,
1000
0000
0010
0000
,
0001
0000
0100
0000
,
1000
0000
0010
0000
,
0110
0000
0000
0000
;

//---------------dance-single - ----------------
#NOTEDATA:;
#CHARTNAME:;
#STEPSTYPE:dance-single;
#DESCRIPTION:;
#CHARTSTYLE:;
#DIFFICULTY:Easy;
#METER:5;
#RADARVALUES:0.218279,0.251554,0.027950,0.232920,0.000000,164.000000,161.000000,3.000000,25.000000,0.000000,0.000000,0.000000,0.000000,0.000000,0.218279,0.251554,0.027950,0.232920,0.000000,164.000000,161.000000,3.000000,25.000000,0.000000,0.000000,0.000000,0.000000,0.000000;
#CREDIT:MILEN;
#NOTES:
0000
0000
0000
0000
,
0000
0000
0000
0000
,
0000
0000
0000
0000
,
0000
0000
0000
0000
,
1000
0010
1000
0010
,
1000
1000
0010
0010
,
1000
0000
0001
2000
,
3000
0000
0001
2000
,
3001
0010
0001
0010
,
0001
0001
0010
0010
,
0001
0000
1000
0002
,
0003
0000
1000
0002
,
1003
0010
0100
0001
,
1000
0010
0100
0001
,
1000
0000
0001
0200
,
0301
0000
1000
0200
,
1300
1000
0100
0100
,
0010
0010
0001
0001
,
1000
0010
0100
0001
,
0010
0100
1000
0010
,
0200
0300
0002
0003
,
2000
3000
0020
0030
,
0000
0100
0000
0100
,
0000
0100
0010
0110
,
2000
3000
0002
0003
,
2000
3002
2003
0000
,
3000
0001
0000
0001
,
0000
0001
0100
1000
,
0010
0001
0010
0000
,
0001
0100
0001
0000
,
1000
0010
1000
0000
,
0100
1000
0100
0000
,
1000
0010
0100
0001
,
1000
0100
0010
0001
,
0001
0100
0010
1000
,
0001
0010
0100
1000
,
2002
0000
0000
3003
,
0001
0010
0001
0010
,
0001
0001
0010
0010
,
0001
0000
1000
0002
,
0003
0000
1000
0002
,
1003
0010
1000
0010
,
1000
1000
0010
0010
,
1000
0000
0001
2000
,
3000
0000
0001
2000
,
3001
0100
1000
0010
,
0001
0100
1000
0010
,
0001
0000
1000
0020
,
0130
0000
0001
0020
,
0130
0100
1000
1000
,
0010
0010
0001
0001
,
0100
1000
0010
0100
,
0001
0010
0100
1000
,
2002
0000
0000
0000
,
3003
0000
0000
0000
;

//---------------dance-single - ----------------
#NOTEDATA:;
#CHARTNAME:;
#STEPSTYPE:dance-single;
#DESCRIPTION:;
#CHARTSTYLE:;
#DIFFICULTY:Medium;
#METER:9;
#RADARVALUES:0.343391,0.377330,0.111802,0.111802,0.000000,258.000000,246.000000,12.000000,12.000000,0.000000,0.000000,0.000000,0.000000,0.000000,0.343391,0.377330,0.111802,0.111802,0.000000,258.000000,246.000000,12.000000,12.000000,0.000000,0.000000,0.000000,0.000000,0.000000;
#CREDIT:MILEN;
#NOTES:
0000
0000
0000
0000
,
0000
0000
0000
0000
,
0000
0000
0000
0000
,
2002
0000
0000
3003
,
1000
0100
0010
0001
,
1000
0000
0100
0000
0010
0000
0001
0001
,
0000
0000
1000
0010
1000
0010
1000
0000
,
0000
0001
0010
0001
0010
0001
1000
0000
,
0001
0010
0100
1000
,
0001
0000
0010
0000
0100
0000
1000
1000
,
0000
0000
0001
0100
0001
0100
0001
0000
,
0000
1000
0100
1000
0100
1000
0001
0000
,
1000
0010
0001
0100
,
1000
0000
0010
0000
0001
0000
0100
0100
,
0000
0000
1000
0010
0100
0010
1000
0000
,
0000
0001
0100
0010
0100
0001
0100
0000
,
1000
0000
0010
0000
0001
1000
0001
0000
,
0100
0000
0010
0000
1000
0001
1000
0000
,
0010
0000
0100
0000
0001
1000
0010
0000
,
0100
0000
0010
0000
1000
0001
0100
0000
,
0120
1000
0001
1030
,
0210
0000
0001
0000
1000
0000
0001
0301
,
0000
0001
0010
0100
0000
1000
0010
0100
,
0000
0001
0010
0100
1000
0010
0100
0000
,
0102
0010
1000
0103
,
2010
0000
0001
0000
0200
0000
0000
3300
,
0000
1000
0100
0010
0000
0001
0100
0010
,
0000
1000
0100
0010
0001
0100
0020
0000
,
1030
1000
0100
0100
,
0001
0001
0010
0110
,
0001
0001
0100
0100
,
1000
1000
0010
0110
,
0100
0001
0100
0000
0010
1000
0010
0000
,
0100
0001
1000
0010
0100
0001
1000
0000
,
1001
0100
1001
0010
,
0001
1000
0100
0000
1000
0001
0010
0000
,
0220
0000
0000
0000
0330
0000
1000
0010
,
0001
0100
0010
1000
,
0001
0000
0100
0000
0010
0000
1000
1000
,
0000
0000
0001
0010
0100
0010
0001
0000
,
0000
1000
0100
0010
0100
1000
0100
0000
,
1000
0010
0100
0001
,
1000
0000
0010
0000
0100
0000
0001
0001
,
0000
0000
1000
0100
0010
0100
1000
0000
,
0000
0001
0010
0100
0010
0001
0010
0000
,
0001
0100
1000
0010
,
0001
0000
0100
0000
1000
0000
0010
0010
,
0000
0000
0100
0001
0100
1000
0100
0000
,
0000
0010
1000
0010
0001
0010
0100
0000
,
0001
0000
1000
0000
0100
0010
0100
0000
,
1000
0000
0001
0000
0010
0100
0010
0000
,
0001
0100
0010
0000
1000
0010
0100
0000
,
0001
0100
1000
0010
0001
0000
1001
0000
,
0220
0000
0000
0000
,
0330
0000
0000
0000
;

//---------------dance-single - ----------------
#NOTEDATA:;
#CHARTNAME:;
#STEPSTYPE:dance-single;
#DESCRIPTION:;
#CHARTSTYLE:;
#DIFFICULTY:Hard;
#METER:13;
#RADARVALUES:0.598937,0.578573,0.121118,0.279504,0.493790,450.000000,437.000000,13.000000,30.000000,0.000000,0.000000,0.000000,0.000000,0.000000,0.598937,0.578573,0.121118,0.279504,0.493790,450.000000,437.000000,13.000000,30.000000,0.000000,0.000000,0.000000,0.000000,0.000000;
#CREDIT:MILEN;
#NOTES:
0000
0000
0000
0000
,
0000
0000
0000
0000
,
0000
0000
0000
0000
,
2002
0000
0000
3003
,
1000
0000
0001
0000
0100
0010
0100
0000
0001
0000
0010
0000
0100
0000
0010
0000
,
0001
0000
0010
0100
0010
0000
0001
0000
1000
0010
1000
0000
0001
0000
0101
0000
,
0000
0000
1000
0100
0000
0100
1000
0000
0010
0000
0100
0000
0020
0000
0000
0000
,
0030
0000
0100
0001
0000
0001
0100
0000
0010
0000
1000
0000
0002
0000
0000
0000
,
1003
0000
0010
0000
0100
0001
0100
0000
0010
0000
1000
0000
0010
0000
0100
0000
,
0010
0000
1000
0010
1000
0000
0100
0000
0010
0001
0010
0000
0100
0000
1100
0000
,
0000
0000
0001
0010
0000
0010
0001
0000
0100
0000
0010
0000
0200
0000
0000
0000
,
0300
0000
0010
1000
0000
1000
0010
0000
0100
0000
0001
0000
2000
0000
0000
0000
,
3001
0000
1000
0000
0100
0010
0100
0000
1000
0000
0100
0000
0010
0000
0100
0000
,
1000
0000
0010
0100
0010
0000
1000
0000
0001
0100
0001
0000
1000
0000
1010
0000
,
0000
0000
0001
0010
0000
0010
0001
0000
0100
0000
0010
0000
2000
0000
0000
0000
,
3000
0000
0100
0010
0000
0010
0100
0000
0010
0000
0001
0000
0200
0000
0000
0000
,
0310
0000
1000
0000
0001
0010
0001
0000
1000
0000
0100
0000
0010
0000
0001
0000
,
0100
0000
0010
1000
0010
0000
0100
0000
0010
1000
0010
0000
0100
0000
0001
0000
,
1000
0000
0100
0010
0100
0000
0001
0000
0100
0010
0100
0000
1000
0000
0010
0000
,
0001
1000
0100
0001
0010
1000
0001
0100
,
2100
0000
3010
0100
0002
0000
0103
0010
,
1000
0000
0001
0000
0100
0000
1000
0000
0001
0000
0010
0100
0010
0000
1000
0000
,
0100
0000
0010
0001
0010
0000
0002
0000
0000
0000
0103
0001
0100
0000
0020
0000
,
0000
0000
1030
0010
1000
0000
0001
0000
0010
0100
0010
0100
0010
0000
0001
0000
,
0201
0000
0310
1000
0002
0000
0013
0100
,
1000
0000
0010
0000
0001
0000
1000
0000
0100
0000
0010
0100
0010
0000
0001
0000
,
0010
0000
0100
0001
0100
0000
0002
0000
0000
0000
0013
0100
0010
0000
0200
0000
,
0000
0000
1300
0100
1000
0000
0001
0000
1000
0000
0100
0010
0002
0000
0000
0000
,
0103
0000
0100
0000
0010
1000
0000
0100
1000
0000
0001
1000
0000
0100
1000
0000
,
0010
0100
0010
0100
0010
0000
1000
0000
0001
0000
0010
0100
0000
0010
0002
0000
,
0000
0000
0103
0000
0010
1000
0000
0010
0100
0000
0010
0001
0000
0010
0100
0000
,
0001
0010
0001
0010
0001
0000
1000
0000
0100
0000
0010
0100
0000
0001
0100
0000
,
1100
0000
0001
0000
1000
0100
0000
0100
0010
0000
0010
0001
0000
0001
0100
0000
,
0010
1000
0010
1000
0010
0000
0100
0000
0001
0000
0010
0100
0000
1000
0200
0000
,
0000
0000
0310
0000
0001
0100
0000
0100
0010
0000
0010
1000
0000
1000
0001
0000
,
0010
0100
0010
0100
0010
0000
0001
0000
0100
0000
1000
0010
0000
0001
0010
0000
,
0210
0000
0000
0302
0000
0000
2003
0000
0000
0000
0000
0000
3010
0100
0001
1000
,
0100
0000
0010
0000
0001
0100
0010
0000
0100
0000
0001
0000
0010
0000
0100
0000
,
1000
0000
0010
0100
0001
0000
1000
0000
0100
0010
0001
0000
1000
0000
1010
0000
,
0000
0000
0001
0100
0000
0010
1000
0010
1000
0000
0100
0000
0020
0000
0000
0000
,
0030
0000
0100
0001
0000
0100
1000
0100
1000
0000
0010
0000
0200
0000
0000
0000
,
0301
0000
0010
0000
0100
1000
0010
0000
0100
0000
0001
0000
1000
0000
0100
0000
,
0010
0000
0001
1000
0100
0000
1000
0000
0010
0100
0001
0000
1000
0000
1100
0000
,
0000
0000
0001
0010
0000
0100
0010
0100
0010
0000
0001
0000
0200
0000
0000
0000
,
0300
0000
0010
1000
0000
0010
0001
0010
0001
0000
0010
0000
0200
0000
0000
0000
,
0310
0000
1000
0000
0100
0010
0001
0000
1000
0000
0010
0000
0001
0000
0100
0000
,
1000
0000
0010
0100
0001
0000
0010
0000
0100
0010
0001
0000
0100
0000
0110
0000
,
0000
0000
0001
1000
0000
0100
0010
0100
1000
0000
0010
0000
0200
0000
0000
0000
,
0300
0000
0001
1000
0000
0010
0100
0010
0001
0000
0010
0000
2000
0000
0000
0000
,
3100
0000
0010
0000
0001
1000
0010
0000
0100
0000
0001
0000
0010
0000
1000
0000
,
0100
0000
0010
0100
0001
0000
1000
0000
0100
0010
0001
0000
0100
0000
1000
0000
,
0100
0000
0010
1000
0100
0000
0001
0000
0100
0010
0001
0000
1000
0000
0010
0000
,
0001
0000
0100
1000
0010
0000
1000
0000
0001
0100
0010
0000
0100
0000
0110
0000
,
2002
0000
0000
0000
,
3003
0000
0000
0000
;

//---------------dance-double - ----------------
#NOTEDATA:;
#CHARTNAME:;
#STEPSTYPE:dance-double;
#DESCRIPTION:;
#CHARTSTYLE:;
#DIFFICULTY:Easy;
#METER:5;
#RADARVALUES:0.215617,0.251554,0.093168,0.223603,0.000000,162.000000,152.000000,10.000000,24.000000,0.000000,0.000000,0.000000,0.000000,0.000000,0.215617,0.251554,0.093168,0.223603,0.000000,162.000000,152.000000,10.000000,24.000000,0.000000,0.000000,0.000000,0.000000,0.000000;
#CREDIT:MILEN;
#NOTES:
00000000
00000000
00000000
00000000
,
00000000
00000000
00000000
00000000
,
00000000
00000000
00000000
00000000
,
00000000
00000000
00000000
00000000
,
00001000
00100000
00001000
00100000
,
00001000
00100000
00001000
00100000
,
00001000
00000000
00010000
00020000
,
00030000
00000000
00010000
00002000
,
00013000
00000100
00010000
00000100
,
00010000
00000100
00010000
00000100
,
00010000
00000000
00001000
00002000
,
00003000
00000000
00010000
00020000
,
00031000
01000000
00001000
01000000
,
00001000
01000000
00001000
01000000
,
00001000
00000000
00010000
00020000
,
00030000
00000000
00001000
00002000
,
00013000
00000010
00010000
00000010
,
00010000
00000010
00010000
00000010
,
00010000
00001000
00100000
00001000
,
00010000
00000100
00010000
00001000
,
00022000
00033000
01000000
00000000
,
00022000
00033000
00000010
00000000
,
00000000
00000010
00000000
00010000
,
00000000
00001000
00000000
01000000
,
00022000
00033000
00100000
00000000
,
00022000
00033000
00000100
00000000
,
00010100
00000000
01001000
00000000
,
00010010
00000000
00101000
00000000
,
00100000
01000000
10000000
00000000
,
00010000
00100000
01000000
00000000
,
00010000
00001000
00100000
00000000
,
00001000
00010000
00000100
00000000
,
00000010
00000100
00001000
00000000
,
00000001
00000010
00000100
00000000
,
00010000
00001000
00000010
00000000
,
00001000
00010000
01000000
00000000
,
20020000
00000000
00000000
30030000
,
10000000
00100000
10000000
00100000
,
10000000
00100000
10000000
00100000
,
10000000
00000000
00010000
00020000
,
00030000
00000000
00001000
00002000
,
00003001
00000100
00000001
00000100
,
00000001
00000100
00000001
00000100
,
00000001
00000000
00001000
00002000
,
00003000
00000000
00010000
00020000
,
10030000
01000000
10000000
01000000
,
10000000
01000000
10000000
01000000
,
10000000
00000000
00010000
00020000
,
00030000
00000000
00001000
00002000
,
00003001
00000010
00000001
00000010
,
00000001
00000010
00000001
00000010
,
00000001
00000100
00001000
00010000
,
00100000
10000000
01000000
00010000
,
00022000
00000000
00000000
00000000
,
00033000
00000000
00000000
00000000
;

//---------------dance-double - ----------------
#NOTEDATA:;
#CHARTNAME:;
#STEPSTYPE:dance-double;
#DESCRIPTION:;
#CHARTSTYLE:;
#DIFFICULTY:Medium;
#METER:9;
#RADARVALUES:0.319433,0.377330,0.102485,0.111802,0.000000,240.000000,229.000000,11.000000,12.000000,0.000000,0.000000,0.000000,0.000000,0.000000,0.319433,0.377330,0.102485,0.111802,0.000000,240.000000,229.000000,11.000000,12.000000,0.000000,0.000000,0.000000,0.000000,0.000000;
#CREDIT:MILEN;
#NOTES:
00000000
00000000
00000000
00000000
,
00000000
00000000
00000000
00000000
,
00000000
00000000
00000000
00000000
,
00022000
00000000
00000000
00033000
,
00001000
00010000
00100000
01000000
,
00001000
00000000
00010000
00000000
00100000
00000000
10000000
10000000
,
00000000
00000000
01000000
00100000
00010000
00000000
01000000
00000000
,
01000000
00000000
00100000
00010000
00001000
00000000
00010000
00000000
,
00010000
00001000
00000100
00000010
,
00010000
00000000
00001000
00000000
00000100
00000000
00000001
00000001
,
00000000
00000000
00000010
00000100
00001000
00000000
00000010
00000000
,
00000010
00000000
00000100
00001000
00010000
00000000
00010000
00000000
,
00001000
00100000
01000000
00010000
,
00001000
00000000
00100000
00000000
01000000
00000000
00010000
00010000
,
00000000
00000000
00001000
00010000
00100000
00000000
01000000
00000000
,
01000000
00000000
00010000
00100000
10000000
00000000
10000000
00000000
,
00100000
00010000
01000000
00001000
,
00010000
00000100
00001000
00000010
,
00010000
00001000
00100000
01000000
,
00010000
00001000
00000010
00000100
,
00001200
00000001
00001000
00000301
,
00000021
00000000
00001000
00000000
00000001
00000000
00001030
00001000
,
00000000
00010000
00001000
00000010
00000000
00001000
00010000
00100000
,
00000000
00010000
00001000
00000100
00001000
00000000
00010000
00000000
,
00210000
10000000
00010000
10300000
,
12000000
00010000
20000000
33000000
,
00000000
01000000
00010000
00001000
00000000
00000100
00001000
00010000
,
00000000
00100000
00010000
00001000
00010000
00000000
00002000
00000000
,
00003010
00000010
00000001
00000001
,
00000100
00000100
00001000
00011000
,
00100000
00100000
10000000
10000000
,
01000000
01000000
00010000
00011000
,
00001000
01000000
00001000
00000000
00010000
00000100
00010000
00000000
,
00001000
00100000
00001000
00000000
00010000
00000010
00010000
00000000
,
00011000
01000000
00011000
00000010
,
00010000
00001000
00000100
00000000
00001000
00010000
00100000
00000000
,
00022000
00000000
00000000
00000000
00033000
00000000
00010000
00001000
,
00010000
00001000
00000010
00000100
,
00010000
00000000
00001000
00000000
00000010
00000000
00000001
00000001
,
00000000
00000000
00000100
00000010
00001000
00000000
00000100
00000000
,
00000100
00000000
00000010
00001000
00010000
00000000
00001000
00000000
,
00001000
00010000
01000000
00100000
,
00001000
00000000
00010000
00000000
01000000
00000000
10000000
10000000
,
00000000
00000000
00100000
01000000
00010000
00000000
00100000
00000000
,
00100000
00000000
01000000
00010000
00001000
00000000
00001000
00000000
,
00010000
00000010
00000100
00001000
,
00010000
00000000
00000010
00000000
00000100
00000000
00001000
00001000
,
00000000
00000000
00010000
00001000
00000010
00000000
00000100
00000000
,
00000100
00000000
00001000
00000010
00000001
00000000
00000001
00000000
,
00000010
00000000
00001000
00000000
00000100
00000010
00000001
00000000
,
00000100
00001000
00010000
00000000
00100000
10000000
01000000
00000000
,
00010000
00001000
00000010
00000000
00000001
00000100
00000010
00000000
,
00000001
00000010
00000100
00001000
00010000
00100000
01000000
00000000
,
20020000
00000000
00000000
00000000
,
30030000
00000000
00000000
00000000
;

//---------------dance-double - ----------------
#NOTEDATA:;
#CHARTNAME:;
#STEPSTYPE:dance-double;
#DESCRIPTION:;
#CHARTSTYLE:;
#DIFFICULTY:Hard;
#METER:14;
#RADARVALUES:0.586958,0.578573,0.111802,0.270187,0.456523,441.000000,429.000000,12.000000,29.000000,0.000000,0.000000,0.000000,0.000000,0.000000,0.586958,0.578573,0.111802,0.270187,0.456523,441.000000,429.000000,12.000000,29.000000,0.000000,0.000000,0.000000,0.000000,0.000000;
#CREDIT:MILEN;
#NOTES:
// measure 0
00000000
00000000
00000000
00000000
,  // measure 1
00000000
00000000
00000000
00000000
,  // measure 2
00000000
00000000
00000000
00000000
,  // measure 3
00022000
00000000
00000000
00033000
,  // measure 4
00001000
00000000
00010000
00000000
00100000
01000000
00100000
00000000
00010000
00000000
00100000
00000000
01000000
00000000
10000000
00000000
,  // measure 5
01000000
00000000
00100000
01000000
00100000
00000000
00010000
00000000
00100000
01000000
00100000
00000000
10000000
00000000
11000000
00000000
,  // measure 6
00000000
00000000
01000000
00010000
00000000
00010000
00001000
00000000
00010000
00000000
00000100
00000000
00000020
00000000
00000000
00000000
,  // measure 7
00000000
00000000
00000031
00000100
00000000
00000100
00001000
00000000
00000100
00000000
00000010
00000000
00020000
00000000
00000000
00000000
,  // measure 8
00031000
00000000
00010000
00000000
00000100
00000010
00000100
00000000
00001000
00000000
00000100
00000000
00000010
00000000
00000001
00000000
,  // measure 9
00000010
00000000
00000100
00000010
00000100
00000000
00001000
00000000
00000100
00000010
00000100
00000000
00010000
00000000
00011000
00000000
,  // measure 10
00000000
00000000
00001000
00100000
00000000
00100000
01000000
00000000
10000000
00000000
00100000
00000000
00020000
00000000
00000000
00000000
,  // measure 11
00000000
00000000
00031000
00000010
00000000
00000010
00000100
00000000
00000010
00000000
00000001
00000000
00000200
00000000
00000000
00000000
,  // measure 12
00001300
00000000
00010000
00000000
00100000
10000000
00100000
00000000
00010000
00000000
00001000
00000000
00010000
00000000
01000000
00000000
,  // measure 13
00010000
00000000
00001000
00000100
00001000
00000000
00010000
00000000
01000000
00010000
01000000
00000000
10000000
00000000
10100000
00000000
,  // measure 14
00000000
00000000
00100000
00010000
00000000
00010000
00001000
00000000
00100000
00000000
01000000
00000000
00020000
00000000
00000000
00000000
,  // measure 15
00000000
00000000
00031000
00000010
00000000
00000010
00000001
00000000
00000100
00000000
00000010
00000000
00002000
00000000
00000000
00000000
,  // measure 16
00003001
00000000
00000100
00000000
00001000
00010000
00001000
00000000
00000100
00000000
00001000
00000000
00010000
00000000
00001000
00000000
,  // measure 17
00000010
00000000
00001000
00010000
00001000
00000000
01000000
00000000
00001000
00010000
00001000
00000000
00000100
00000000
00001000
00000000
,  // measure 18
00010000
00000000
00100000
10000000
00100000
00000000
00010000
00000000
00100000
10000000
00100000
00000000
01000000
00000000
10000000
00000000
,  // measure 19
01000000
00010000
00100000
01000000
00010000
00001000
00000010
00000001
,  // measure 20
00000201
00000000
00001300
00010000
00200000
00000000
10300000
01000000
,  // measure 21
00010000
00000000
00001000
00000000
00100000
00000000
01000000
00000000
00010000
00000000
00001000
00010000
00001000
00000000
00000010
00000000
,  // measure 22
00000001
00000000
00000100
00000010
00000100
00000000
00002000
00000000
00000000
00000000
00003100
00000010
00000100
00000000
00000002
00000000
,  // measure 23
00000000
00000000
00000103
00000010
00000100
00000000
00001000
00000000
00010000
00001000
00010000
00001000
00010000
00000000
00100000
00000000
,  // measure 24
20100000
00000000
31000000
00010000
00002000
00000000
00103000
01000000
,  // measure 25
00010000
00000000
00001000
00000000
00000010
00000000
00000001
00000000
00000100
00000000
00000010
00001000
00000010
00000000
00010000
00000000
,  // measure 26
00001000
00000000
00100000
01000000
00100000
00000000
00020000
00000000
00000000
00000000
00130000
01000000
00100000
00000000
20000000
00000000
,  // measure 27
00000000
00000000
30100000
01000000
00100000
00000000
00001000
00000000
00010000
00000000
00000100
00000010
00000200
00000000
00000000
00000000
,  // measure 28
00001300
00000000
00001000
00000000
00000010
00000100
00000000
00000010
00001000
00000000
00000010
00000100
00000000
00000010
00010000
00000000
,  // measure 29
00001000
00100000
00001000
00100000
00001000
00000000
00010000
00000000
01000000
00000000
10000000
00100000
00000000
00100000
02000000
00000000
,  // measure 30
00000000
00000000
03010000
00000000
00010000
00100000
00000000
00001000
00100000
00000000
01000000
00100000
00000000
00010000
00100000
00000000
,  // measure 31
00001000
00010000
00001000
00010000
00001000
00000000
00000010
00000000
00000001
00000000
00000100
00001000
00000000
00000100
00000010
00000000
,  // measure 32
00000110
00000000
00001000
00000000
00000001
00000100
00000000
00000100
00001000
00000000
00001000
00010000
00000000
00010000
00100000
00000000
,  // measure 33
10000000
01000000
10000000
01000000
10000000
00000000
00100000
00000000
00010000
00000000
00001000
00100000
00000000
00100000
02000000
00000000
,  // measure 34
00000000
00000000
03010000
00000000
01000000
10000000
00000000
10000000
00100000
00000000
00100000
00010000
00000000
00010000
00001000
00000000
,  // measure 35
00000010
00000100
00000010
00000100
00000010
00000000
00000001
00000000
00000100
00000000
00001000
00010000
00000000
00010000
00001000
00000000
,  // measure 36
00021000
00000000
00000000
00100000
00000000
00000000
00000020
00000000
00000000
00000000
00030000
00000000
00010000
00000000
00010030
00000000
,  // measure 37
00010000
00000000
00001000
00000000
00000010
00000100
00000010
00000000
00001000
00000000
00000010
00000000
00000100
00000000
00000001
00000000
,  // measure 38
00000100
00000000
00000010
00000100
00000010
00000000
00001000
00000000
00000010
00000100
00000010
00000000
00000001
00000000
00000101
00000000
,  // measure 39
00000000
00000000
00000100
00001000
00000000
00001000
00010000
00000000
00001000
00000000
01000000
00000000
00200000
00000000
00000000
00000000
,  // measure 40
00000000
00000000
10300000
01000000
00000000
01000000
00010000
00000000
01000000
00000000
00100000
00000000
00002000
00000000
00000000
00000000
,  // measure 41
00013000
00000000
00001000
00000000
01000000
00100000
01000000
00000000
00010000
00000000
01000000
00000000
00100000
00000000
10000000
00000000
,  // measure 42
00100000
00000000
01000000
00100000
01000000
00000000
00010000
00000000
01000000
00100000
01000000
00000000
00001000
00000000
00011000
00000000
,  // measure 43
00000000
00000000
00010000
00000010
00000000
00000010
00000100
00000000
00000001
00000000
00000010
00000000
00002000
00000000
00000000
00000000
,  // measure 44
00000000
00000000
00013000
00100000
00000000
00100000
01000000
00000000
00100000
00000000
10000000
00000000
02000000
00000000
00000000
00000000
,  // measure 45
03010000
00000000
00001000
00000000
00000010
00000001
00000010
00000000
00001000
00000000
00010000
00000000
00001000
00000000
00000100
00000000
,  // measure 46
00001000
00000000
00010000
01000000
00010000
00000000
00001000
00000000
00000100
00001000
00000100
00000000
00000001
00000000
00000011
00000000
,  // measure 47
00000000
00000000
00000010
00001000
00000000
00001000
00010000
00000000
00000010
00000000
00000100
00000000
00002000
00000000
00000000
00000000
,  // measure 48
00000000
00000000
00013000
00100000
00000000
00100000
10000000
00000000
01000000
00000000
00100000
00000000
00020000
00000000
00000000
00000000
,  // measure 49
01030000
00000000
00001000
00000000
00010000
00001000
00010000
00000000
00100000
00000000
00001000
00000000
00000010
00000000
00010000
00000000
,  // measure 50
00001000
00000000
00100000
01000000
00100000
00000000
10000000
00000000
00100000
01000000
00100000
00000000
00001000
00000000
00010000
00000000
,  // measure 51
00000010
00000000
00000100
00001000
00000100
00000000
00000001
00000000
00000010
00001000
00000010
00000000
00000001
00000000
00000100
00000000
,  // measure 52
00001000
00000000
00010000
00100000
00010000
00000000
00001000
00000000
00000010
00000001
00000010
00000000
00000100
00000000
00001000
00000000
,  // measure 53
00022000
00000000
00000000
00000000
,  // measure 54
00033000
00000000
00000000
00000000
;
