#TITLE:Pumping Up;
#SUBTITLE:;
#ARTIST:BanYa;
#TITLETRANSLIT:;
#SUBTITLETRANSLIT:;
#ARTISTTRANSLIT:;
#GENRE:VARIETY;
#CREDIT:MUINELIM;
#BANNER:Pumping Up.png;
#BACKGROUND:Pumping Up-bg.png;
#LYRICSPATH:;
#CDTITLE:;
#MUSIC:Pumping Up.mp3;
#OFFSET:-0.040000;
#SAMPLESTART:41.784454;
#SAMPLELENGTH:11.919998;
#SELECTABLE:YES;
#BPMS:0.000000=135;
#STOPS:
;
#KEYSOUNDS:;
#ATTACKS:;

//---------------dance-single - ----------------
#NOTES:
     dance-single:
     :
     Beginner:
     3:
     0.127404,0.192086,0.000000,0.000000,0.000000,78.000000,78.000000,0.000000,0.000000,0.000000,0.000000,0.127404,0.192086,0.000000,0.000000,0.000000,78.000000,78.000000,0.000000,0.000000,0.000000,0.000000:
0000
0000
0000
0000
,
0000
0000
0000
0000
,
0000
0000
0000
0000
,
0000
0000
0000
0000
,
1000
0000
1000
0000
,
1000
0000
0000
0000
,
0001
0000
0001
0000
,
0001
0001
0001
0001
,
0001
0000
0000
0000
,
1000
0000
0000
0000
,
0010
0000
0000
0000
,
0100
0000
0000
0000
,
0001
0000
0000
0000
,
1000
0000
0000
0000
,
0010
0000
0000
0000
,
0100
0100
0100
0100
,
0100
0000
0000
0000
,
0001
0000
0000
0000
,
1000
0000
0000
0000
,
0010
0000
0010
0000
,
0010
0000
0000
0000
,
1000
0000
0000
0000
,
0001
0000
0000
0000
,
0100
0000
0100
0100
,
0100
0000
0001
0000
,
0100
0000
0001
0000
,
1000
0000
0010
0000
,
1000
0000
0010
0000
,
1000
0000
1000
0000
,
0100
0000
0100
0000
,
0010
0000
0010
0000
,
0001
0001
0001
0001
,
0001
0000
0000
0000
,
0100
0000
0000
0000
,
0010
0000
0000
0000
,
1000
0000
1000
0000
,
0001
0000
0000
0000
,
0010
0000
0000
0000
,
0100
0000
0000
0000
,
1000
0000
1000
1000
,
1000
0000
0010
0000
,
1000
0000
0010
0000
,
0100
0000
0001
0000
,
0100
0000
0001
0000
,
0100
0000
0100
0000
,
0010
0000
0010
0000
,
1000
0000
1000
0000
,
0001
0000
0001
0001
,
0001
0000
0000
0000
;

//---------------dance-single - ----------------
#NOTES:
     dance-single:
     :
     Easy:
     6:
     0.276041,0.329290,0.114337,0.000000,0.000000,169.000000,159.000000,10.000000,0.000000,0.000000,0.000000,0.276041,0.329290,0.114337,0.000000,0.000000,169.000000,159.000000,10.000000,0.000000,0.000000,0.000000:
0000
0000
0000
0000
,
0000
0000
0000
0000
,
0000
0000
0000
0000
,
0000
0000
0000
0000
,
1000
0000
0001
0000
,
1000
0000
0001
0001
,
1000
0000
0001
0001
,
1000
1000
0010
1001
,
1000
0100
1000
0000
,
0001
0100
0001
0000
,
1000
0010
1000
0000
,
0001
0010
0001
0000
,
1000
0010
1000
0000
,
0001
0010
0001
0000
,
1000
0100
1000
0000
,
0001
0100
0001
0001
,
1001
0100
0010
0100
,
1001
0010
0100
0000
,
0010
0000
0100
0000
,
0010
0000
0010
0000
0010
1000
0001
0000
,
0100
0100
0001
1000
,
0001
0100
0110
0000
,
1001
0000
0110
0000
,
0010
0000
0010
0000
1000
0001
0100
0000
,
0100
0010
1000
0010
,
0100
0010
1000
0010
,
0100
0001
0100
0010
,
0100
0000
0100
0000
0001
1000
0100
0000
,
0100
0000
1000
0000
0000
0001
0000
0000
,
0100
0000
0000
0010
0000
0000
1000
0000
,
0000
0001
0000
0100
0100
0000
0010
0000
,
1000
0001
1000
1001
,
0001
0100
0010
1000
,
0001
0100
0010
0000
,
0010
0000
0000
0000
0010
1000
0001
0000
,
0100
0000
0100
0000
0010
1000
0001
0000
,
1001
0100
0010
0100
,
1001
0010
0100
0000
,
0100
0000
0100
0000
,
0100
0000
0100
0000
0001
1000
0010
0000
,
0100
0001
0010
0001
,
0100
0001
0010
0010
,
0100
1000
0010
1000
,
0100
0000
0100
0000
1000
0001
0100
0000
,
0100
0000
0010
0000
0000
1000
0000
0000
,
0100
0000
0000
0010
0000
0000
0001
0000
,
0000
1000
0000
0100
0100
0000
0110
0000
,
0001
0000
1000
0000
0010
0100
0010
0000
,
0100
0000
0000
0000
;

//---------------dance-single - ----------------
#NOTES:
     dance-single:
     :
     Medium:
     7:
     0.357710,0.411612,0.320143,0.000000,0.000000,219.000000,191.000000,28.000000,0.000000,0.000000,0.000000,0.357710,0.411612,0.320143,0.000000,0.000000,219.000000,191.000000,28.000000,0.000000,0.000000,0.000000:
0000
0000
0000
0000
,
0000
0000
0000
0000
,
0000
0000
0000
0000
,
0000
0000
0000
0000
,
1000
0000
0001
0000
,
1001
0000
0001
1000
,
1001
0000
1000
0001
,
1000
0110
0001
0110
,
1000
0000
0100
0000
1000
0100
0010
0000
,
0001
0000
0100
0000
0001
0010
0100
0000
,
1000
0000
0010
0000
1000
0010
0100
0000
,
0001
0000
0010
0000
0001
0100
0010
0000
,
1000
0000
0010
0000
1000
0001
0100
0000
,
0001
0000
0010
0000
0001
1000
0010
0000
,
1000
0000
0100
0000
1000
0001
0010
0000
,
0001
0000
0100
0000
0001
1000
0010
0000
,
0110
0001
0100
0010
,
0110
1000
0010
0100
,
0101
0001
1010
1000
,
0010
0000
0100
0000
0010
1000
0001
0000
,
1001
1000
0001
0010
,
1001
0001
1000
0100
,
1100
0001
0011
1000
,
1001
0000
1001
0000
1000
0001
0100
0010
,
1000
0100
0001
0100
,
1000
0100
0001
0100
,
0010
1000
0010
0001
,
0010
0000
0100
0000
1000
0010
0100
0001
,
1000
0000
0001
0000
0000
0101
0000
0000
,
1000
0000
0000
1100
0000
0000
0001
0000
,
0000
0011
0000
1000
0010
0000
0110
0000
,
0001
0000
1000
0000
0010
0100
0110
0000
,
0001
0100
1000
0010
,
0001
1000
0100
0001
,
0010
0000
0100
0000
0010
1000
0001
0000
,
0100
0000
0010
0000
1000
0001
1001
0000
,
0101
0100
0010
1000
,
1010
0010
0100
0001
,
0011
1000
1100
0010
,
0100
0000
0100
0000
0001
1000
0010
0100
,
0001
0010
1000
0010
,
0001
0010
1000
0010
,
0100
1000
0100
0001
,
0100
0000
0010
0000
0001
0100
0010
1000
,
0001
0000
1000
0000
0000
1100
0000
0000
,
0001
0000
0000
0011
0000
0000
1000
0000
,
0000
1010
0000
0001
0100
0000
0110
0000
,
1000
0000
0001
0000
0100
0010
1000
0001
,
0100
0000
0000
0000
;

//---------------dance-single - ----------------
#NOTES:
     dance-single:
     :
     Hard:
     9:
     0.463880,0.439053,0.320143,0.000000,0.000000,284.000000,256.000000,28.000000,0.000000,0.000000,0.000000,0.463880,0.439053,0.320143,0.000000,0.000000,284.000000,256.000000,28.000000,0.000000,0.000000,0.000000:
0000
0000
0000
0000
,
0000
0000
0000
0000
,
0000
0000
0000
0000
,
0000
0000
0000
0000
,
0110
1000
0110
0001
,
1001
0000
0100
0000
0010
1000
0001
0100
,
0010
0000
0010
0000
1000
0001
0100
0000
,
0101
1000
1100
0100
,
1000
0100
0010
0000
0010
0001
0010
0000
,
0001
0100
0010
0000
0010
1000
0010
0000
,
1000
0001
0100
0000
0100
0010
0100
0000
,
0010
1000
0001
0000
0001
1000
0001
0000
,
1000
0010
0100
0000
0100
0001
1000
0000
,
1000
0100
0010
0000
0010
0001
0100
0000
,
0100
0001
1000
0000
1000
0010
0100
0001
,
0100
0000
0100
0000
0001
1000
0100
0000
,
1100
0000
1000
0001
0010
0000
0001
1000
,
0010
0100
0001
1000
0010
0000
0100
0001
,
0010
0000
0001
0010
0100
1000
0100
0000
,
1100
0000
0011
0000
0010
0100
0010
0000
,
0001
0101
1000
1100
,
0001
0010
0100
0010
0001
0000
1000
0010
,
0100
0000
0001
1000
0100
0000
0010
0001
,
0100
0000
0100
0000
0001
1000
0010
0100
,
0001
0101
1100
0001
,
1000
0100
0010
0001
1000
0100
0010
0000
,
0010
0001
0100
0000
0010
1000
0100
0000
,
0001
0010
0100
0010
0001
0010
0100
0000
,
1100
0000
1001
0000
0001
0100
0000
0100
,
0010
0000
0010
1000
0000
1000
0100
0000
,
0100
0001
0000
0001
0010
0100
0110
0000
,
1001
0000
1001
0000
0010
0001
0100
0010
,
1000
1100
0001
0011
,
1000
0010
0100
0001
0010
0000
0001
1000
,
0100
0000
0000
0100
0010
0001
1000
0100
,
0110
0000
0110
0000
0010
0001
1000
0000
,
0010
1000
0100
1000
0010
0000
0100
0000
,
0001
1000
0010
1000
0001
0000
1000
0100
,
0010
0001
1000
0001
0100
0010
1000
0001
,
0100
0000
0100
0000
1000
0010
0100
0001
,
1000
1100
0101
1000
,
0001
0100
0010
1000
0001
0100
0010
0000
,
0010
1000
0100
0000
0010
0001
0100
0000
,
1000
0010
0100
0010
1000
0010
0100
0000
,
0101
0000
1001
0000
1000
0100
0000
0100
,
0010
0000
0010
0001
0000
0001
0100
0000
,
0100
1000
0000
1000
0010
0100
0110
0000
,
0011
0000
1100
0000
0001
0010
1000
0100
,
0001
0000
0000
0000
;

//---------------dance-single - ----------------
#NOTES:
     dance-single:
     :
     Challenge:
     12:
     0.591284,0.662009,0.480214,0.468780,0.200089,362.000000,320.000000,42.000000,41.000000,0.000000,0.000000,0.591284,0.662009,0.480214,0.468780,0.200089,362.000000,320.000000,42.000000,41.000000,0.000000,0.000000:
0000
0000
0000
0000
,
0000
0000
0000
0000
,
0000
0000
0000
0000
,
0000
0000
0000
0000
0000
0000
0000
1000
,
2002
0000
3003
0000
0220
0330
0000
0001
,
2002
0000
3003
0000
1000
0010
0100
0001
,
0011
0000
0001
0010
0100
1000
1010
0000
,
0110
0000
0000
0000
1001
0000
0000
0000
0110
0000
0010
0000
1000
0001
1000
0000
,
0010
0000
0100
0000
0001
0000
0010
0100
0010
0000
0100
0000
1000
0000
0010
0000
,
0100
0000
0001
0000
1000
0000
0100
0010
0100
0000
0010
0000
0001
0000
0100
0000
,
0010
0000
1000
0000
0001
0000
0010
0100
0010
0000
0100
0000
1000
0000
0010
0000
,
0100
0000
0001
0000
1000
0000
0100
0010
0100
0000
0010
0000
0001
0000
1000
0000
,
0010
0000
0100
0000
0001
0000
1000
0010
1000
0000
0010
0000
0100
0000
0001
0000
,
1000
0000
0100
0000
0010
0000
0001
0100
0001
0000
0100
0000
0010
0000
1000
0000
,
0001
0000
0010
0000
0100
0000
1000
0001
1000
0000
0001
0000
0100
0000
0010
0000
,
1010
0000
0000
0000
0101
0000
0000
0000
0110
0000
1000
0001
2000
0000
0000
0000
,
3010
0010
0100
0100
0001
1000
1000
0100
,
0010
0010
0001
0001
0101
0000
1000
0100
,
0020
0000
0031
0100
0010
0110
0000
1000
,
1100
0000
0011
0000
1001
0110
0000
0220
,
0330
0001
0100
1000
0100
0001
0010
1000
,
0010
0001
0100
0010
1010
0000
0001
0010
,
0200
0000
1300
0010
0200
0000
0301
0010
,
0100
0000
0000
0000
0100
0000
0000
0000
0100
1000
0001
1000
0100
0010
0001
0100
,
0020
0030
1001
0000
2200
0000
3300
0000
,
1000
0010
0001
0100
0000
0100
2010
0000
,
3001
0100
1000
0001
0010
0200
0000
0310
,
1010
0000
0101
0000
0001
1000
0100
0010
,
0022
0000
0030
0000
0100
0000
0003
0000
1000
0020
1030
0000
0000
0000
0001
0020
,
0031
0000
0000
0000
1000
0200
1300
0000
0000
0000
0001
0200
0301
0000
0000
0000
,
1000
0002
0013
0000
0000
0000
0001
2000
3010
0000
0100
0000
0110
0000
0000
0000
,
1001
0000
0001
0000
0100
0020
0000
0000
1030
0000
1000
0100
1000
0000
0001
0000
,
0010
0010
0100
0100
1000
1000
0010
0010
,
0001
1000
0100
0010
0110
0000
0001
1000
,
0200
0000
0000
1300
0100
0010
0011
0000
,
0101
0000
0000
0000
1010
0000
0010
0000
0100
0000
0001
1000
0002
0000
0000
0000
,
0013
0100
1000
0010
0001
1000
0100
0001
,
0010
1000
0001
0100
1100
0000
1000
0001
,
0100
1000
0001
0010
1000
0100
0010
0001
,
0100
0000
0000
0000
0100
0000
0000
0000
0100
0001
1000
0001
0010
0100
1000
0010
,
0200
0300
1001
0000
0022
0000
0033
0000
,
0001
0100
1000
0010
0000
0010
0102
0000
,
1003
0100
0001
1000
0010
0100
0000
0100
,
1100
0000
0011
0000
0001
0100
0010
1000
,
2200
0000
3000
0000
0010
0000
0300
0000
1000
0002
1003
0000
0100
0000
0010
0002
,
0013
0000
0100
0000
1000
0020
1030
0000
0001
0000
0100
0002
0013
0000
0100
0000
,
1000
0020
0130
0000
0001
0000
1000
0200
0310
0000
0001
0000
1001
0000
0000
0000
,
0110
0000
0110
0000
0010
1000
0000
0010
0100
0000
0001
0000
0011
0000
0010
0100
,
2000
3000
0000
0000
;

//---------------dance-double - ----------------
#NOTES:
     dance-double:
     :
     Challenge:
     13:
     0.584750,0.634426,0.423046,0.480214,0.194372,358.000000,321.000000,37.000000,42.000000,0.000000,0.000000,0.584750,0.634426,0.423046,0.480214,0.194372,358.000000,321.000000,37.000000,42.000000,0.000000,0.000000:
00000000
00000000
00000000
00000000
,
00000000
00000000
00000000
00000000
,
00000000
00000000
00000000
00000000
,
00000000
00000000
00000000
00000000
00000000
00000000
00000000
00001000
,
02002000
00000000
03003000
00000000
00020020
00030030
00000000
00001000
,
00022000
00000000
00033000
00000000
00010000
00100000
10000000
01000000
,
00100000
00000000
00001000
00000100
00000001
00000010
00000100
00000000
,
00010100
00000000
00000000
00000000
00101000
00000000
00000000
00000000
00011000
00000000
00010000
00000000
00000100
00001000
00000100
00000000
,
00000010
00000000
00000001
00000000
00000100
00000000
00001000
00010000
00000100
00000000
00001000
00000000
00000100
00000000
00010000
00000000
,
00001000
00000000
00100000
00000000
00010000
00000000
01000000
00100000
10000000
00000000
00100000
00000000
01000000
00000000
00010000
00000000
,
00100000
00000000
01000000
00000000
00010000
00000000
00001000
00010000
00100000
00000000
00010000
00000000
00001000
00000000
00000010
00000000
,
00000001
00000000
00000010
00000000
00000100
00000000
00000010
00000001
00000100
00000000
00000001
00000000
00000010
00000000
00000100
00000000
,
00010000
00000000
00001000
00000000
00100000
00000000
01000000
10000000
00100000
00000000
10000000
00000000
01000000
00000000
00100000
00000000
,
00001000
00000000
00010000
00000000
00000100
00000000
00001000
00000100
00000010
00000000
00000100
00000000
00010000
00000000
00001000
00000000
,
00000100
00000000
00000001
00000000
00000010
00000000
00001000
00010000
00100000
00000000
00010000
00000000
00001000
00000000
00100000
00000000
,
01100000
00000000
00000000
00000000
11000000
00000000
00000000
00000000
00110000
00000000
00010000
01000000
00020000
00000000
00000000
00000000
,
10030000
10000000
01000000
01000000
00010000
00001000
00001000
00000010
,
00000001
00000001
00000100
00000100
00001010
00000000
00000001
00000100
,
00002000
00000000
00003100
00001000
00010000
00200000
00000000
10300000
,
11000000
00000000
00101000
00000000
00010100
00000020
00000000
00000200
,
00000330
00001000
00000001
00000100
00001000
00010000
00100000
10000000
,
01000000
00010000
00001000
00000010
00000011
00000000
00001000
00000100
,
00000020
00000000
00001030
00010000
00200000
00000000
10300000
01000000
,
00010000
00000000
00000000
00000000
00010000
00000000
00000000
00000000
00010000
00000100
00001000
00000100
00010000
00001000
00000100
00000010
,
00000200
00000300
00001001
00000000
00000022
00000000
00000033
00000000
,
00000001
00000010
00001000
00010000
00100000
10000000
12000000
00000000
,
03010000
01000000
10000000
00100000
00010000
00002000
00000000
00003010
,
00000011
00000000
00010100
00000000
00010000
00001000
00100000
00010000
,
02020000
00000000
03000000
00000000
10000000
00000000
00030000
00000000
10000000
00100000
02000000
00000000
00000000
00000000
03100000
01000000
,
00020000
00000000
00000000
00000000
00130000
00001000
00020000
00000000
00000000
00000000
00031000
00010000
00000200
00000000
00000000
00000000
,
00001300
00000100
00000020
00000000
00000000
00000000
00000031
00000100
00000010
00000000
00001000
00000000
00001001
00000000
00000000
00000000
,
00000110
00000000
00000010
00000000
00010000
00002000
00000000
00000000
00103000
00000000
00100000
00010000
00100000
00000000
01000000
00000000
,
10000000
10000000
00100000
00100000
00010000
00010000
00001000
00001000
,
00000100
00000001
00000010
00000100
00001100
00000000
00000001
00000100
,
00000020
00000000
00000000
00010030
00001000
00100000
01100000
00000000
,
11000000
00000000
00000000
00000000
00110000
00000000
00100000
00000000
00001000
00000000
00010000
00000100
00020000
00000000
00000000
00000000
,
00030010
00010000
00001000
00000100
00000001
00000010
00001000
00010000
,
00100000
10000000
01000000
00100000
00101000
00000000
00001000
00010000
,
01000000
10000000
00100000
01000000
00001000
00010000
00000100
00000010
,
00000001
00000000
00000000
00000000
00000001
00000000
00000000
00000000
00000001
00000100
00000001
00000010
00000100
00001000
00000100
00010000
,
00002000
00003000
00101000
00000000
20020000
00000000
30030000
00000000
,
10000000
00100000
00010000
00001000
00000010
00000001
00000201
00000000
,
00001300
00000100
00000001
00000010
00001000
00020000
00000000
00130000
,
10100000
00000000
01001000
00000000
00001000
00010000
00000010
00001000
,
00002200
00000000
00000300
00000000
00000001
00000000
00003000
00000000
00000001
00000010
00000200
00000000
00001300
00000000
00000100
00010000
,
00002000
00000000
00103000
00000000
00001000
01000000
00200000
00000000
10300000
00000000
00100000
01000000
00020000
00000000
00130000
00000000
,
00100000
00001000
00020000
00000000
00030100
00000000
00000100
00000010
00000001
00000000
00000100
00000000
00001010
00000000
00000000
00000000
,
00011000
00000000
00010000
00000000
00100000
20000000
00000000
00000000
31000000
00000000
01100000
00000000
01100000
00000000
00010000
00001000
,
00000020
00000030
00000000
00000000
;

//---------------dance-double - ----------------
#NOTES:
     dance-double:
     :
     Easy:
     7:
     0.285842,0.329290,0.182939,0.000000,0.000000,175.000000,159.000000,16.000000,0.000000,0.000000,0.000000,0.285842,0.329290,0.182939,0.000000,0.000000,175.000000,159.000000,16.000000,0.000000,0.000000,0.000000:
00000000
00000000
00000000
00000000
,
00000000
00000000
00000000
00000000
,
00000000
00000000
00000000
00000000
,
00000000
00000000
00000000
00000000
,
00001000
00000000
00010000
00000000
,
00001000
00000000
00010000
00010000
,
00011000
00000000
00010000
00010000
,
00001000
01000000
00001000
00011000
,
00010000
00000010
00010000
00000000
,
00001000
00100000
00010000
00000000
,
00100000
00001000
00010000
00000000
,
00000010
00010000
00001000
00000000
,
00010000
00000010
00001000
00000000
,
00000100
00010000
00001000
00000000
,
00100000
00001000
00010000
00000000
,
00000010
00010000
00001000
01000000
,
01100000
10000000
01000000
00010000
,
00011000
00001000
00000010
00000000
,
00000001
00000000
00001000
00000000
,
00000001
00000000
00000001
00000000
00000001
00000100
00000010
00000000
,
00001000
00000100
00010000
00001000
,
00100000
01000000
11000000
00000000
,
00110000
00000000
10010000
00000000
,
10000000
00000000
10000000
00000000
01000000
00010000
00001000
00000000
,
00010000
00000010
00010000
00100000
,
00010000
00000010
00010000
00100000
,
10000000
01000000
00010000
01000000
,
10000000
00000000
00100000
00000000
00010000
00001000
00010000
00000000
,
00000100
00000000
00000010
00000000
00000000
00000001
00000000
00000000
,
00000100
00000000
00000000
00001000
00000000
00000000
00010000
00000000
,
00000000
00100000
00000000
10000000
10000000
00000000
01000000
00000000
,
01100000
00010000
00001000
00011000
,
00000100
00001000
00000100
00000010
,
00000001
00001000
00001010
00000000
,
00000101
00000000
00000000
00000000
00000001
00000010
00000100
00000000
,
00000010
00000000
00000010
00000000
00000001
00000010
00000100
00000000
,
00000110
00000001
00000100
00001000
,
00011000
00100000
01000000
00000000
,
01010000
00000000
10100000
00000000
,
10000000
00000000
10000000
00000000
00100000
00010000
00001000
00000000
,
00010000
00000100
00010000
01000000
,
00010000
00000100
00010000
01000000
,
10000000
00100000
00010000
00100000
,
10000000
00000000
01000000
00000000
00010000
00001000
00010000
00000000
,
00000010
00000000
00000100
00000000
00000000
00000001
00000000
00000000
,
00000010
00000000
00000000
00001000
00000000
00000000
00010000
00000000
,
00000000
00100000
00000000
10000000
10000000
00000000
01100000
00000000
,
00010000
00000000
00001000
00000000
00000100
00000010
00000100
00000000
,
00000001
00000000
00000000
00000000
;

//---------------dance-double - ----------------
#NOTES:
     dance-double:
     :
     Hard:
     13:
     0.571683,0.631138,0.583117,0.000000,0.120054,350.000000,299.000000,51.000000,0.000000,0.000000,0.000000,0.571683,0.631138,0.583117,0.000000,0.120054,350.000000,299.000000,51.000000,0.000000,0.000000,0.000000:
// measure 0
00000000
00000000
00000000
00000000
,  // measure 1
00000000
00000000
00000000
00000000
,  // measure 2
00000000
00000000
00000000
00000000
,  // measure 3
00000000
00000000
00000000
00000000
,  // measure 4
00010010
00000000
00101000
00000000
,  // measure 5
00011000
00000000
00000000
00000000
00001000
00010000
01000000
10000000
,  // measure 6
10010000
00000000
01000000
00010000
00000000
00001000
00000010
00000100
,  // measure 7
00000110
00001001
00000110
00001001
,  // measure 8
00000001
00000000
00000100
00000000
00001000
00000000
00010000
00100000
00000000
00100000
00010000
00000000
00001000
00000000
01000000
00000000
,  // measure 9
00100000
00000000
10000000
00000000
01000000
00000000
00010000
00001000
00000000
00001000
00010000
00000000
00000100
00000000
00000010
00000000
,  // measure 10
00000001
00000000
00000100
00000000
00001000
00000000
01000000
00010000
00000000
00010000
01000000
00000000
10000000
00000000
00010000
00000000
,  // measure 11
00100000
00000000
10000000
00000000
01000000
00000000
00100000
01000000
00000000
01000000
00100000
00000000
00001000
00000000
00010000
00000000
,  // measure 12
00000100
00000000
00000010
00000000
00000001
00000000
00001000
00000010
00000000
00000010
00001000
00000000
00000100
00000000
00000010
00000000
,  // measure 13
00001000
00000000
00010000
00000000
00100000
00000000
10000000
01000000
00000000
01000000
10000000
00000000
00010000
00000000
00100000
00000000
,  // measure 14
01000000
00000000
00010000
00000000
00000100
00000000
00001000
00000010
00000000
00000010
00001000
00000000
00000001
00000000
00000100
00000000
,  // measure 15
00000110
00000000
00000000
00000000
00001010
00000000
00000000
00000000
00000101
00000000
00000001
00000010
00000001
00000000
00000001
00000000
,  // measure 16
00000100
00001000
00010000
00100000
01100000
00000000
10010000
00000000
,  // measure 17
01000000
00010000
00001000
00000010
00000110
00000000
00000001
00000100
,  // measure 18
00001000
00000000
00010000
00100000
10000000
00000000
01000000
00100000
,  // measure 19
01100000
00000000
10010000
00000000
10000000
01000000
00100000
00001000
,  // measure 20
00011000
00010000
00000100
00000010
00000100
00001000
00000010
00000001
,  // measure 21
00001000
00000100
00000010
00001000
00001100
00000000
00000010
00000001
,  // measure 22
00000100
00000000
00001000
00010000
00100000
00000000
10000000
01000000
,  // measure 23
00100000
00000000
00000000
00000000
00100000
00000000
00000000
00000000
00100000
00001000
00010000
00000000
00000100
00000000
00000010
00000000
,  // measure 24
00000001
00000000
00000101
00000000
00001010
00001000
00000100
00000010
,  // measure 25
00001000
00000000
00010000
00000000
00000100
00001000
00010000
01000000
,  // measure 26
00100000
00000000
10000000
00000000
00010000
00100000
01000000
00010000
,  // measure 27
00001000
00000000
00100000
00000000
00010000
00001000
00000010
00000100
,  // measure 28
00000001
00000000
00000011
00000000
00001000
00001010
00000000
00010000
,  // measure 29
00010100
00000000
00001000
01001000
00000000
00010000
00110000
00000000
,  // measure 30
10000000
10100000
00000000
00010000
10010000
10000000
01000000
00010000
,  // measure 31
00001000
00000000
00100000
00000000
01000000
00010000
00000000
00010000
00001000
00000000
00001000
00000010
00000000
00000000
00000011
00000000
,  // measure 32
00000100
00000010
00000100
00001000
00010000
00100000
01000000
00100000
,  // measure 33
10000000
00000000
01000000
00010000
00001000
00000000
00000100
00001000
,  // measure 34
00010000
00000000
00000000
00001000
00000100
00000001
00000011
00000000
,  // measure 35
00001100
00000000
00000000
00000000
00011000
00000000
00011000
00000000
00011000
00000000
00001000
00010000
01000000
00000000
00000000
00000000
,  // measure 36
10000000
00100000
01000000
00100000
00010000
00001000
00000100
00000010
,  // measure 37
00001010
00000001
00001001
00001000
00000101
00000000
00000001
00000010
,  // measure 38
00001000
00010000
00100000
10000000
11000000
00010000
10010000
10000000
,  // measure 39
00110000
00000000
00011000
00000000
00001100
00000100
00000001
00001000
,  // measure 40
00000010
00000000
00000110
00000000
00001001
00000100
00001000
00010000
,  // measure 41
00100000
00000000
00001000
00000000
00010000
01000000
10000000
00100000
,  // measure 42
01000000
00000000
00001000
00000000
00100000
00010000
00001000
00000010
,  // measure 43
00000100
00000000
00000001
00000000
00001000
00000100
00000010
00000001
,  // measure 44
00000100
00000000
00011000
00000000
00010000
00110000
00100000
10000000
,  // measure 45
10100000
10000000
01000000
01010000
00010000
00001000
00001100
00000100
,  // measure 46
00000001
00000011
00000010
00001000
00011000
00001000
01000000
00000000
,  // measure 47
00100000
00000000
00100000
00000000
10000000
00010000
00000000
00000000
00010000
00000000
00001000
00000000
00000100
00000000
00000010
00000000
,  // measure 48
00001001
00000000
00000000
00000000
;

//---------------dance-double - ----------------
#NOTES:
     dance-double:
     :
     Medium:
     10:
     0.398545,0.411612,0.262974,0.000000,0.000000,244.000000,221.000000,23.000000,0.000000,0.000000,0.000000,0.398545,0.411612,0.262974,0.000000,0.000000,244.000000,221.000000,23.000000,0.000000,0.000000,0.000000:
// measure 0
00000000
00000000
00000000
00000000
,  // measure 1
00000000
00000000
00000000
00000000
,  // measure 2
00000000
00000000
00000000
00000000
,  // measure 3
00000000
00000000
00000000
00000000
,  // measure 4
00011000
00000000
01000000
00000000
,  // measure 5
00011000
00000000
00000010
00000000
,  // measure 6
00011000
00000000
00010000
00001000
,  // measure 7
00101000
00010100
01001000
00010010
,  // measure 8
00010000
00001000
00000100
00000010
00000000
00000100
00000000
00001000
,  // measure 9
00000010
00000100
00000001
00001000
00000000
00000001
00000000
00001000
,  // measure 10
00000010
00010000
00001000
00100000
00000000
00010000
00000000
00100000
,  // measure 11
01000000
10000000
00100000
01000000
00000000
00010000
00000000
01000000
,  // measure 12
00001000
00010000
00000100
00001000
00000000
00000010
00000000
00001000
,  // measure 13
00000100
00000010
00000001
00000100
00000000
00000010
00000000
00000100
,  // measure 14
00000001
00001000
00000100
00010000
00000000
00001000
00000000
00010000
,  // measure 15
00010010
00000000
00101000
00000000
00011000
00001000
00010000
00000000
,  // measure 16
01000000
00000000
10000000
00000000
00100000
00010000
00001000
00000000
,  // measure 17
00000100
00000000
00000001
00000000
00000010
00001000
00010000
00000000
,  // measure 18
00011000
00000000
00000100
00001000
00010000
00001000
00000100
00000000
,  // measure 19
00000001
00000000
00000001
00000000
00000001
00001000
00000010
00000000
,  // measure 20
00001000
00000100
00010000
00000000
00001000
00000000
00100000
00000000
,  // measure 21
00010000
01000000
00001000
00000000
00010000
00000000
00000100
00001000
,  // measure 22
00000001
00000000
00000100
00000001
00001000
00000000
00000100
00010000
,  // measure 23
00001000
00000000
00001000
00000000
00001000
00010000
01000000
10000000
,  // measure 24
00100000
01010000
1F000000
00F00000
,  // measure 25
000F0000
00011000
00001100
00000001
,  // measure 26
00000010
00001000
00010000
00F00000
,  // measure 27
10000000
00000000
0F000000
00000000
00010000
00001000
00010000
00000100
,  // measure 28
00001000
00000000
00001010
00000000
00000001
00000010
00000000
00000010
,  // measure 29
00000100
00000000
00000100
00001000
00000000
00001000
00010000
00000000
,  // measure 30
00010000
00100000
00000000
00100000
01000000
00000000
10010000
00000000
,  // measure 31
10000000
00100000
01000000
00000000
10000000
00100000
01000000
00010000
,  // measure 32
10000000
00100000
00010000
00000100
,  // measure 33
00000001
00000000
00000010
00001000
00010000
00000000
00100000
00010000
,  // measure 34
00001000
00000000
00000010
00001000
00010000
00001000
00000010
00000000
,  // measure 35
00001000
00000000
00001000
00000000
00001000
00100000
01100000
00000000
,  // measure 36
10000000
00100000
00010000
00000000
00100000
00010000
00001000
00000000
,  // measure 37
00010000
00001000
00000010
00001000
00010000
00000000
00000100
00000010
,  // measure 38
00000001
00000000
00001000
00000000
,  // measure 39
00010000
00000000
00010000
00000000
00010000
00001000
00000100
00000001
,  // measure 40
00000010
00001100
00000101
00000010
,  // measure 41
0000F000
00011000
01010000
10000000
,  // measure 42
00100000
00010000
00001000
00000010
,  // measure 43
00000001
00000000
00000100
00000000
00001000
00010000
00001000
01000000
,  // measure 44
00010000
00000000
00110000
00000000
10000000
00100000
00000000
00100000
,  // measure 45
01000000
00000000
01000000
00010000
00000000
00010000
00001000
00000000
,  // measure 46
00001000
00000010
00000000
00000010
00000100
00000000
00001001
00000000
,  // measure 47
00000001
00000010
00001000
00010000
00010000
00001000
00010000
00100000
,  // measure 48
10000000
00000000
00000000
00000000
;
