#TITLE:Pump Me Amadeus;
#SUBTITLE:;
#ARTIST:BanYa;
#TITLETRANSLIT:;
#SUBTITLETRANSLIT:;
#ARTISTTRANSLIT:;
#GENRE:VARIETY;
#CREDIT:MUINELIM;
#BANNER:Pump Me Amadeus.png;
#BACKGROUND:Pump Me Amadeus-bg.PNG;
#LYRICSPATH:;
#CDTITLE:;
#MUSIC:Pump Me Amadeus.MP3;
#OFFSET:-0.145500;
#SAMPLESTART:18.506622;
#SAMPLELENGTH:12.000000;
#SELECTABLE:YES;
#BPMS:0.000000=170.000000
;
#STOPS:
;
#BGCHANGES:0.000=Pump Me Amadeus.mpg=1.000=1=0=0=StretchNoLoop==CrossFade==,
99999=-nosongbg-=1.000=0=0=0 // don't automatically add -songbackground-
;
#KEYSOUNDS:;
#ATTACKS:;

//---------------dance-single - ----------------
#NOTES:
     dance-single:
     :
     Beginner:
     3:
     0.130837,0.236891,0.040258,0.000000,0.000000,91.000000,87.000000,4.000000,0.000000,0.000000,0.000000,0.130837,0.236891,0.040258,0.000000,0.000000,91.000000,87.000000,4.000000,0.000000,0.000000,0.000000:
0000
0000
0000
0000
,
0000
0000
0000
0000
,
0000
0000
0000
0000
,
0000
0000
0000
0000
,
0000
0000
0000
0000
,
1000
0000
0000
0000
,
0001
0000
0000
0000
,
1000
0000
0000
0000
,
0001
0000
0000
0000
,
1000
0000
1000
0000
,
0001
0000
0001
0000
,
1000
1000
1000
1000
,
1000
1000
0000
0000
,
0001
0000
0000
0000
,
0100
0000
0000
0000
,
1000
0000
0000
0000
,
0010
0000
0000
0000
,
0001
0000
0000
0000
,
0100
0000
0000
0000
,
1000
0000
0000
0000
,
0010
0000
0000
0000
,
0001
0000
0001
0000
,
0001
0000
0000
0000
,
1000
0000
1000
0000
,
1000
0000
0000
0000
,
0010
0000
0000
0000
,
0100
0000
0000
0000
,
0010
0000
0100
0000
,
0010
0000
0010
0000
,
0010
0000
0000
0000
,
0001
0000
0000
0000
,
0100
0000
0000
0000
,
1000
0000
0000
0000
,
0010
0000
0100
0000
,
0001
0000
1000
0000
,
0010
0000
0100
0000
,
0001
0001
0001
0000
,
0100
0000
0010
0000
,
1000
0000
0001
0000
,
0100
0000
0010
0000
,
1000
1000
1000
1000
,
1000
0000
0000
0000
,
1001
0000
0000
0000
,
0000
0000
0000
0000
,
1001
0000
0000
0000
,
0000
0000
0000
0000
,
1001
0000
0000
0000
,
0000
0000
0000
0000
,
1001
0000
0000
0000
,
0000
0000
0000
0000
,
0001
0000
0000
0000
,
0010
0000
0000
0000
,
1000
0000
0000
0000
,
0100
0000
0000
0000
,
0001
0000
0000
0000
,
0010
0000
0000
0000
,
1000
0000
0000
0000
,
0100
0000
0000
0000
,
0001
0000
1000
0000
,
0001
0000
1000
0000
,
0100
0000
0010
0000
,
0100
0000
0010
0000
,
0001
0000
0000
0000
,
0100
0000
0000
0000
,
1000
0000
0000
0000
,
0010
0000
0000
0000
,
0001
0000
0100
0100
,
0100
0100
0000
0000
;

//---------------dance-single - ----------------
#NOTES:
     dance-single:
     :
     Easy:
     5:
     0.221417,0.338416,0.090580,0.000000,0.000000,154.000000,145.000000,9.000000,0.000000,0.000000,0.000000,0.221417,0.338416,0.090580,0.000000,0.000000,154.000000,145.000000,9.000000,0.000000,0.000000,0.000000:
0000
0000
0000
0000
,
0000
0000
0000
0000
,
0000
0000
0000
0000
,
1001
0000
0000
0000
,
0100
0100
0100
0010
,
1000
0000
1000
0000
,
0001
0000
0001
0000
,
1000
0000
1000
0000
,
0001
0000
0001
0000
,
1000
0000
0001
0000
,
1000
0000
0001
0000
,
1000
1000
0001
0001
,
1000
0001
0000
0000
,
1000
0000
0010
0000
,
0001
0000
0100
0000
,
1000
0000
0010
0000
,
0001
1000
0001
1000
,
0001
0000
0100
0000
,
1000
0000
0010
0000
,
0001
0000
0100
0000
,
1000
0001
1000
0001
,
1001
0000
1000
0000
,
0100
0000
0010
0000
,
0001
0000
1000
0000
,
0100
0000
0010
0000
,
0001
0000
0001
0000
,
0100
0000
0100
0000
,
1000
0010
1000
0010
,
1000
1000
0001
0010
,
0100
0000
0000
0000
,
0010
0000
0100
0000
,
0010
0010
0010
0010
,
0001
0100
1000
0001
,
1001
0000
0000
0100
,
0100
0000
0000
0010
,
0010
0000
1000
0000
,
0001
0000
0100
0000
,
1000
0000
0010
0000
,
0001
0000
0100
0000
,
0010
0000
0010
0000
,
0010
0010
0010
0010
,
1001
0000
0000
0000
,
1001
0000
0000
0000
,
0100
0000
0000
0000
,
1001
0000
0000
0000
,
0010
0000
1000
1000
,
1000
0000
0000
0001
,
0001
0000
0000
0000
,
1001
0000
0000
0000
,
0010
0010
0010
0010
,
0001
0000
0100
0000
,
1000
0000
0010
0000
,
1000
0000
0100
0000
,
0001
0000
0010
0000
,
0001
0000
0100
0000
,
1000
0000
0001
0000
,
1000
0000
0010
0000
,
0001
0000
1000
0000
,
0100
0000
0001
0000
,
0010
0000
1000
0000
,
0001
0000
0100
0000
,
1000
0000
0010
0000
,
0001
0000
1000
0000
,
0010
0000
0100
0010
,
1000
0000
0001
0000
,
0100
0000
0010
0100
,
0001
0000
1000
0000
,
1001
0110
0000
0000
;

//---------------dance-single - ----------------
#NOTES:
     dance-single:
     :
     Medium:
     8:
     0.370945,0.473782,0.372383,0.000000,0.000000,258.000000,221.000000,37.000000,0.000000,0.000000,0.000000,0.370945,0.473782,0.372383,0.000000,0.000000,258.000000,221.000000,37.000000,0.000000,0.000000,0.000000:
0000
0000
0000
0000
,
0000
0000
0000
0000
,
0000
0000
0000
0000
,
1001
0000
0000
0000
,
0100
0100
1001
0000
,
1000
0010
1000
0000
,
0001
0010
0001
0000
,
1000
0100
1000
0000
,
0001
0100
0001
0000
,
1000
0001
0100
0100
,
0010
0010
1000
0001
,
0100
1000
0010
0001
,
1001
0110
0000
0000
,
0010
1000
0100
0001
,
1000
0010
0001
0100
,
0010
1000
0001
0010
,
0100
0100
0100
0100
,
1000
0010
0001
1000
,
0100
0001
0010
0100
,
1000
0001
0100
1000
,
0010
0010
0010
0010
,
0001
0000
0100
0000
,
1000
0000
0010
0000
,
0001
0000
0100
0000
,
1000
0000
0010
0000
,
0001
0000
1000
0000
,
0010
0100
0010
0110
,
1000
0100
0001
0010
,
1000
1000
0001
0001
,
1001
0000
0110
0000
,
1001
0110
1001
0000
,
1000
0100
0001
0010
,
1000
1000
0001
0001
,
0101
1000
0100
0010
,
1010
0001
0100
0010
,
0011
1000
0010
0100
,
1100
0001
0010
0100
,
0101
1000
0100
0010
,
0001
1000
0010
0001
,
0100
0100
1000
1000
,
0001
0100
0010
1000
,
1001
0000
0000
0010
,
0110
0000
0000
0001
,
1001
0000
0000
0000
,
0110
0000
0000
0000
,
1001
0000
0001
0001
,
0100
1000
0100
0001
,
0100
1000
0100
0001
,
0100
0010
0100
0001
,
0100
1000
0010
0010
,
0001
1000
0100
0011
,
0001
0100
0010
1000
,
0100
0001
0010
1010
,
0001
0010
0100
1000
,
0010
0100
0001
1100
,
1000
0010
0100
0101
,
0010
1000
0001
1001
,
0100
0100
0010
0010
,
0001
0100
1000
0100
,
0001
0100
1000
0100
,
0010
0100
0001
0100
,
0010
0100
0001
1000
,
1001
0000
0101
1000
,
1100
0001
1001
0110
,
1001
0000
1010
0001
,
0011
1000
1001
0110
,
1001
0000
0010
0100
,
0010
1001
0000
0000
;

//---------------dance-single - ----------------
#NOTES:
     dance-single:
     :
     Hard:
     11:
     0.524787,0.609149,0.422705,0.060386,0.000000,365.000000,323.000000,42.000000,6.000000,0.000000,0.000000,0.524787,0.609149,0.422705,0.060386,0.000000,365.000000,323.000000,42.000000,6.000000,0.000000,0.000000:
0000
0000
0000
0000
,
0000
0000
0000
0000
,
0000
0000
0000
0000
,
1001
0000
0000
0000
,
0110
0000
1001
0000
0001
1000
0001
1000
,
0010
0100
0001
0100
0010
0100
0001
0000
,
1000
0100
0010
0100
1000
0100
0010
0000
,
0001
0010
0100
0010
0001
0010
0100
0000
,
1000
0010
0100
0010
1000
0010
0100
0000
,
0001
0010
0100
1000
0010
0100
0101
0000
,
0100
0010
1010
0000
1000
0100
0001
0010
,
0110
1010
0101
0011
,
1100
1001
0000
0000
,
1000
0010
0100
0000
0100
0001
0010
0000
,
0010
0100
1000
0000
1000
0001
0100
0000
,
0100
0010
1000
0000
1000
0100
0010
0000
,
0010
0001
0010
0001
1000
0100
1000
0100
,
0010
0100
1000
0000
1000
0010
0100
0000
,
0100
0001
1000
0000
1000
0100
0010
0000
,
0010
0001
0100
0000
0100
0001
1000
0000
,
1000
0010
1000
0010
0100
0001
0100
0001
,
1000
0010
0001
0100
,
1000
0001
0010
1000
,
0100
0001
1000
0010
,
0001
0100
1000
0001
,
0101
0000
1100
0000
,
1000
0010
0100
0001
1000
1000
1000
0000
,
0100
0010
0001
0100
1000
0001
0010
1000
,
0100
0010
0001
1000
,
1010
0000
0011
0000
,
0001
0000
1000
0100
0020
0000
0030
0000
,
0010
0001
0100
0010
1000
0100
0010
0001
,
1000
0100
0001
0010
1000
0100
0001
0010
,
0110
0000
1000
0000
0100
0010
0001
0000
,
0110
0000
0001
0000
0010
0100
1000
0000
,
0010
0020
0000
0130
0001
1000
0010
0100
,
0001
1000
0100
0001
0100
0010
1000
0010
,
0001
0100
1000
0010
,
0100
0001
0010
1000
,
0001
0101
1000
1100
,
0001
0010
1000
0001
0100
1000
0010
0100
,
0101
0000
0000
1100
,
1001
0000
0000
0011
,
1001
0000
0000
0000
,
0110
0000
0000
0000
,
1001
0000
0000
0000
0001
0010
0100
1000
,
1010
0000
0000
0110
,
0101
0000
0000
0000
,
1001
0000
0000
0000
,
1100
0011
0220
0330
,
1000
0100
0010
0001
0010
0100
0020
0000
,
1030
0010
0001
0100
,
1000
0100
0010
0001
0010
0100
0020
0000
,
1030
0000
0010
0000
0001
0100
0010
1000
,
0001
0010
0100
0001
0100
1000
0010
0000
,
1000
0100
0010
1000
0010
0001
0100
0000
,
1000
0100
0001
0010
0100
1000
0010
0000
,
0001
0010
1000
0100
0010
0001
0100
1000
,
0010
0001
0100
1000
,
0001
0010
1000
0100
,
0001
1000
0010
0001
,
0100
1000
0010
0100
,
0001
0001
0000
0010
0000
1000
0000
0100
,
0000
0001
1000
0000
1100
0000
0011
0000
,
1000
1000
0000
0010
0000
0001
0000
0100
,
0000
1000
0001
0000
0101
0000
1010
0000
,
0100
0100
0000
0101
0000
1010
0000
1100
,
0000
0011
1001
0000
0000
0000
0000
0000
;

//---------------dance-double - ----------------
#NOTES:
     dance-double:
     :
     Easy:
     6:
     0.238670,0.338416,0.161031,0.000000,0.000000,166.000000,150.000000,16.000000,0.000000,0.000000,0.000000,0.238670,0.338416,0.161031,0.000000,0.000000,166.000000,150.000000,16.000000,0.000000,0.000000,0.000000:
00000000
00000000
00000000
00000000
,
00000000
00000000
00000000
00000000
,
00000000
00000000
00000000
00000000
,
00011000
00000000
00000000
00000000
,
00001000
00010000
00001000
00010000
,
01000000
00000000
00010000
00000000
,
00001000
00000000
00000100
00000000
,
00001000
00000000
00010000
00000000
,
00100000
00000000
00010000
00000000
,
00001000
00000000
00000010
00000000
,
00000001
00000000
00000100
00000000
,
00001000
00010000
00001000
00010000
,
00001000
00011000
00000000
00000000
,
00010000
00000000
00000100
00000000
,
00000010
00000000
00001000
00000000
,
00010000
00000000
00000100
00000000
,
00000010
00000000
00001000
00000000
,
00100000
00000000
01000000
00000000
,
00010000
00000000
00001000
00000000
,
00100000
00000000
01000000
00000000
,
00010000
00000000
00001000
00000000
,
00011000
00010000
00000100
00000000
,
00001000
00000100
00010000
00000000
,
00001000
01000000
00010000
00000000
,
01000000
00001000
00010000
00000000
,
00010000
00000000
00100000
00000000
,
10000000
00000000
01000000
00000000
,
00010000
00001000
00010000
00001000
,
00010000
00000100
00000010
00000001
,
00001001
00000000
00000000
00000000
,
00001000
00000000
00010000
00000000
,
10000000
00100000
10000000
00100000
,
00010000
00001000
00000100
00000001
,
00000010
00000000
00001000
00000000
,
00010000
00000000
00100000
00000000
,
10000000
00000000
01000000
00000000
,
00010000
00000000
00001000
00000000
,
00000100
00000000
00000001
00000000
,
00000010
00000000
00001000
00000000
,
00010000
00000000
00001000
00000000
,
00010000
00001000
00010000
00001000
,
00011000
00000000
00000000
00000000
,
00011000
00000000
00000000
00000000
,
01000000
00000000
00000000
00000000
,
00011000
00000000
00000000
00000000
,
00000100
00000000
00000010
00001000
,
00010000
00000000
00100000
00010000
,
00001000
00000000
00000100
00001000
,
00010000
00000000
01000000
00010000
,
00001000
00000010
00000001
00000100
,
00001000
00000000
00010000
00000000
,
00001000
00000000
00000010
00000000
,
00001000
00000000
00010000
00000000
,
00100000
00000000
10000000
00000000
,
01000000
00000000
00010000
00000000
,
00001000
00000000
00010000
00000000
,
00100000
00000000
00010000
00000000
,
00001000
00000000
00000010
00000000
,
00000001
00000000
00000100
00000000
,
00001000
00000000
00010000
00000000
,
00100000
00000000
10000000
00000000
,
01000000
00000000
00010000
00000000
,
00011000
00000000
00001100
00000000
,
00000101
00000000
00000100
00001000
,
00011000
00000000
01010000
00000000
,
11000000
00000000
01000000
00010000
,
00011000
00000000
01001000
00000000
,
00010100
00000010
00000000
00000000
;

//---------------dance-double - ----------------
#NOTES:
     dance-double:
     :
     Medium:
     8:
     0.342190,0.372257,0.201288,0.000000,0.000000,238.000000,218.000000,20.000000,0.000000,0.000000,0.000000,0.342190,0.372257,0.201288,0.000000,0.000000,238.000000,218.000000,20.000000,0.000000,0.000000,0.000000:
00000000
00000000
00000000
00000000
,
00000000
00000000
00000000
00000000
,
00000000
00000000
00000000
00000000
,
00011000
00000000
00000000
00000000
,
00001000
00010000
00011000
00000000
,
00001000
00100000
00001000
00000000
,
00010000
00000010
00010000
00000000
,
00001000
01000000
00001000
00000000
,
00010000
00000100
00010000
00000000
,
00001000
00010000
01000000
10000000
,
01000000
00010000
01000000
10000000
,
00100000
00010000
00001000
00000010
,
00000001
00001001
00000000
00000000
,
00001000
00000100
00000010
00000001
,
00001000
00000010
00010000
00001000
,
01000000
00010000
00100000
01000000
,
10000000
00100000
00010000
00001000
,
00100000
01000000
10000000
00010000
,
00100000
01000000
00010000
00001000
,
00000010
00000100
00001000
00000001
,
00000010
00000100
00010000
00001000
,
00011000
00000000
00010000
00000000
,
01000000
00000000
00010000
00000000
,
00001000
00000000
00000100
00000000
,
00001000
00000000
00010000
00000000
,
00010010
00000000
00101000
00000000
,
00100000
01000000
10000000
00100000
,
00010000
00001000
00010000
00100000
,
00010000
00001000
00000010
00000001
,
00000101
00000000
00001100
00000000
,
00011000
00100000
10010000
00000000
,
10000000
01000000
00100000
00001000
,
00010000
00000100
00000010
00000001
,
00000100
00000100
00001000
00010000
,
00100000
00100000
00010000
00001000
,
00000010
00000010
00001000
00010000
,
01000000
01000000
10000000
00100000
,
00010000
00001000
00010000
00100000
,
00010000
00001000
00000010
00001000
,
00010000
00001000
00000010
00000001
,
00000100
00001000
00010000
00100000
,
10000000
00000000
00000000
01000000
,
01100000
00000000
00000000
00010000
,
00011000
00000000
00000000
00000000
,
00001100
00000000
00000000
00000000
,
00000101
00000000
00000001
00000001
,
00000010
00001000
00010000
00000000
,
00001000
00010000
00100000
00000000
,
00010000
00100000
10000000
00000000
,
01000000
00010000
00001000
00011000
,
00010000
00100000
01000000
10000000
,
01000000
00100000
00010000
00001000
,
00010000
00001000
00000100
00000010
,
00000001
00000010
00000100
00001000
,
00010000
00100000
10000000
01000000
,
00010000
00001000
00000010
00000001
,
00000100
00001000
00010000
00100000
,
00010000
00001000
00000010
00001000
,
00010000
00100000
01000000
10000000
,
01000000
00100000
00010000
00001000
,
00000100
00000010
00000001
00000010
,
00000100
00001000
00010000
00100000
,
10000000
00000000
10000000
01000000
,
00100000
00001000
01001000
00010000
,
00010100
00000000
00000001
00000010
,
00000100
00010000
00010010
00001000
,
00101000
00000000
00100000
01000000
,
00010000
00011000
00000000
00000000
;

//---------------dance-double - ----------------
#NOTES:
     dance-double:
     :
     Hard:
     12:
     0.557856,0.609149,0.422705,0.130837,0.000000,388.000000,346.000000,42.000000,13.000000,0.000000,0.000000,0.557856,0.609149,0.422705,0.130837,0.000000,388.000000,346.000000,42.000000,13.000000,0.000000,0.000000:
// measure 0
00000000
00000000
00000000
00000000
,  // measure 1
00000000
00000000
00000000
00000000
,  // measure 2
00000000
00000000
00000000
00000000
,  // measure 3
00011000
00000000
00000000
00000000
,  // measure 4
00101000
00010100
00022000
00033000
,  // measure 5
00001000
00010000
00001000
00010000
00100000
10000000
01000000
00000000
,  // measure 6
00010000
00001000
00010000
00001000
00000010
00000001
00000100
00000000
,  // measure 7
00001000
00010000
00001000
00010000
01000000
10000000
00100000
00000000
,  // measure 8
00010000
00001000
00010000
00001000
00000100
00000001
00000010
00000000
,  // measure 9
00001000
00010000
00001000
00000010
00000001
00000100
00001000
00000000
,  // measure 10
00000100
00001000
00010000
00000000
00001000
00010000
00100000
10000000
,  // measure 11
11000000
01010000
00011000
00001010
,  // measure 12
00000011
00002002
00000000
00003003
,  // measure 13
00001000
00000100
00001000
00000100
00001000
00000100
00000010
00000001
,  // measure 14
00000100
00000010
00010000
00001000
00100000
01000000
10000000
00100000
,  // measure 15
01000000
00010000
01000000
00010000
01000000
00010000
10000000
01000000
,  // measure 16
00100000
00001000
00010000
00001000
00000010
00001000
00010000
00001000
,  // measure 17
00100000
00010000
00100000
00010000
00100000
00010000
10000000
00100000
,  // measure 18
01000000
00001000
00010000
00000100
00000010
00000001
00001000
00000010
,  // measure 19
00000100
00000001
00000100
00000001
00000100
00000001
00001000
00000100
,  // measure 20
00000010
00001000
00010000
00001000
00000010
00001000
00010000
00100000
,  // measure 21
10000000
01000000
00100000
00010000
,  // measure 22
00000100
00000010
00000001
00000010
,  // measure 23
00000100
00001000
00100000
01000000
,  // measure 24
10000000
00100000
00010000
00001000
,  // measure 25
00000010
00000001
00000100
00000000
00001000
00010000
00100000
00000000
,  // measure 26
10000000
01000000
00010000
00001000
00000010
00000001
00001001
00000000
,  // measure 27
00001000
00000100
00000010
00001000
00010000
01000000
10000000
00100000
,  // measure 28
00010000
00001000
00000010
00000001
,  // measure 29
00000101
00000000
00010010
00000000
,  // measure 30
00010000
00001000
00101000
00000000
,  // measure 31
00100000
01000000
10000000
00100000
00010000
00001000
00000010
00000001
,  // measure 32
00002000
00003200
00020300
02030000
,  // measure 33
13000000
01000000
00100000
00001000
00010000
00000100
00000010
00000000
,  // measure 34
00000001
00000010
00000100
00010000
00001000
00100000
01000000
00000000
,  // measure 35
10000000
00100000
00010000
00000000
00001000
00000100
00000001
00000000
,  // measure 36
00000010
00000100
00010000
00001000
00100000
01000000
10000000
00100000
,  // measure 37
00010000
00000010
00001000
00100000
,  // measure 38
00010000
00001000
00000100
00000001
,  // measure 39
00000011
00001010
00011000
00110000
,  // measure 40
00100000
10000000
01000000
00010000
00001000
00000010
00000001
00000100
,  // measure 41
00001010
00000000
00000000
00000000
,  // measure 42
00011000
00000000
00000000
00000000
,  // measure 43
10010000
00000000
00000000
00000000
,  // measure 44
00011000
00000000
00000000
00000000
,  // measure 45
00001002
00000000
00000100
00000103
,  // measure 46
00000110
00000000
00000000
00011000
,  // measure 47
00101000
00000000
00000000
00000000
,  // measure 48
01100000
00000000
00000000
00000000
,  // measure 49
11000000
01010000
00022000
00033000
,  // measure 50
00001000
00010000
01000000
10000000
00100000
00010000
00200000
00000000
,  // measure 51
01300000
00100000
00010000
00001000
,  // measure 52
00000100
00000001
00000010
00001000
00010000
00001000
00000200
00000000
,  // measure 53
00000310
00000000
00000100
00000000
00001000
00010000
00001000
00010000
,  // measure 54
00100000
10000000
01000000
00010000
00001000
00000010
00000001
00000000
,  // measure 55
00000100
00000001
00000010
00001000
00010000
01000000
10000000
00000000
,  // measure 56
00100000
10000000
01000000
00010000
00001000
00000100
00000001
00000000
,  // measure 57
00000010
00000001
00000100
00001000
00010000
00100000
10000000
01000000
,  // measure 58
00010000
00001000
00000100
00000010
00000001
00000010
00000100
00001000
,  // measure 59
00010000
00100000
01000000
10000000
01000000
00100000
00010000
00001000
,  // measure 60
00000010
00000001
00000100
00001000
00010000
01000000
10000000
00100000
,  // measure 61
00010000
00001000
00000010
00000001
00000100
00001000
00010000
00100000
,  // measure 62
10000000
11000000
00000000
01010000
00000000
00011000
00000000
00001010
,  // measure 63
00000000
00000010
00000001
00000000
00000101
00000000
00001010
00000000
,  // measure 64
00000001
00000101
00000000
00001100
00000000
00011000
00000000
00110000
,  // measure 65
00000000
00100000
10000000
00000000
11000000
00000000
00110000
00000000
,  // measure 66
00100000
00001000
00000000
00000010
00000000
00010000
00000000
01000000
,  // measure 67
00000000
00001000
00000100
00000000
00000000
00000000
00000000
00000000
;

//---------------dance-single - ----------------
#NOTES:
     dance-single:
     :
     Challenge:
     16:
     0.841097,0.981406,0.432770,0.251610,0.669283,585.000000,542.000000,43.000000,25.000000,0.000000,0.000000,0.841097,0.981406,0.432770,0.251610,0.669283,585.000000,542.000000,43.000000,25.000000,0.000000,0.000000:
0000
0000
0000
0000
,
0000
0000
0000
0000
,
0000
0000
0000
0000
,
1001
0000
0000
0000
,
1010
0000
0101
0000
0002
0023
0230
2300
,
3001
0000
0100
0000
0010
0000
0100
0000
0001
0010
0001
0010
0200
0000
0300
0000
,
1000
0000
0010
0000
0100
0000
0010
0000
1000
0100
1000
0100
0020
0000
0030
0000
,
0001
0000
0010
0000
0100
0000
0010
0000
0001
0100
0001
0100
0020
0000
0030
0000
,
1000
0000
0100
0000
0010
0000
0100
0000
1000
0010
1000
0010
0200
0000
0300
0000
,
0001
0000
0010
0000
0100
0000
1000
0000
0010
0100
0010
0100
0002
0000
0003
0000
,
0100
0010
0100
0010
2000
0000
3000
0000
0001
0010
0100
1000
0100
0010
0001
0100
,
0010
0000
0000
0010
1000
0000
0000
1000
0001
0000
0000
0001
0100
0000
0000
0100
,
0010
0000
0110
0000
2000
3200
0320
0032
,
1003
0000
1000
0010
0100
0000
0100
0010
1000
0000
1000
0010
0100
0000
0100
0001
,
1000
0000
0001
0100
0010
0000
0010
0100
0001
0000
0001
0100
0010
0000
0010
1000
,
0001
0000
0010
0100
1000
0000
0001
0010
0100
0000
1000
0001
0100
0000
0001
1000
,
0100
0010
0100
0010
0001
0100
0001
0100
0010
1000
0010
1000
0100
0010
0100
0010
,
0001
0000
1000
0100
0010
0000
0010
0100
1000
0000
1000
0100
0010
0000
0010
0001
,
1000
0000
0001
0010
0100
0000
0100
0010
0001
0000
0001
0010
0100
0000
0100
1000
,
0001
0000
0100
0010
1000
0000
0001
0100
0010
0000
1000
0001
0010
0000
0001
1000
,
0010
0100
0010
0100
0001
0010
0001
0010
0100
1000
0100
1000
0010
0100
0010
0100
,
0001
0010
1000
1000
0001
0100
1000
1000
,
0001
0010
1000
1000
0001
0100
0010
0110
,
1000
0100
0001
0001
1000
0010
0001
0001
,
1000
0100
0001
0001
1000
0010
0100
0110
,
0001
0000
0100
1000
0100
0000
0000
0000
0001
0000
0100
1000
0100
0000
0000
0000
,
0001
0000
0100
1000
0100
0010
0100
0010
0001
0000
0010
0000
1000
0000
0000
0000
,
1001
0000
0001
0100
0010
1000
0010
0100
0001
0010
0100
0010
0001
1000
0100
0010
,
0001
0100
1000
0010
0001
0100
1000
0010
,
0001
0000
1000
0000
,
0010
0100
1001
0000
,
0001
0100
0010
0000
0010
1000
0100
0000
0100
0010
0001
0000
0001
0100
1000
0000
,
1000
0100
1000
0100
0010
0100
0010
0100
0001
0100
0001
0100
0001
0010
0100
1000
,
0001
0000
0010
0001
0100
0000
1000
0000
0100
0000
0001
0000
0010
0000
0100
0000
,
1000
0000
0010
1000
0100
0000
0001
0000
0100
0000
1000
0000
0010
0000
0100
0000
,
0002
0000
2003
0000
3000
0000
0010
0100
0010
0000
1000
0000
0100
0000
0010
0000
,
0001
0100
0001
0100
0010
1000
0010
1000
0001
0010
0001
0010
0100
1000
0100
1000
,
0001
0010
1000
0010
0001
0100
1000
0100
,
0001
0010
1000
0001
0100
1000
0010
0100
,
0001
0010
0100
0000
0100
1000
0010
0000
0010
0100
0001
0000
0001
0010
1000
0000
,
1000
0010
0001
0010
0001
0100
0001
0100
0010
1000
0100
1000
0100
0001
0100
1000
,
0001
0000
0000
0101
,
1010
0000
0000
1100
,
0011
0000
0000
0000
,
1001
0000
0000
0000
,
0220
0330
1010
0101
,
1100
0000
0000
0011
,
1010
0000
0000
0000
,
1001
0000
0000
0000
,
0110
0000
1001
0000
0002
0203
0320
2030
,
3001
0000
0010
0000
0100
0000
1000
0000
0010
0001
0010
1000
0010
0000
0100
0000
,
0001
0000
0010
0100
0010
0000
0001
0100
0001
0000
1000
0010
1000
0000
0100
0010
,
0100
0000
1000
0000
0001
0000
0010
0000
0100
0001
0100
1000
0100
0000
0010
0000
,
0001
0000
0100
0000
0010
0000
1000
0000
0001
0100
0010
1000
0001
0100
0010
1000
,
0001
0000
0010
0000
0100
0000
1000
0000
0010
0001
0010
1000
0200
0000
0300
0000
,
1000
0000
0100
0000
0010
0000
0001
0000
0100
1000
0100
0001
0020
0000
0030
0000
,
0001
0000
0100
0000
0010
0000
1000
0000
0100
0001
0100
1000
0020
0000
0030
0000
,
1000
0000
0010
0000
0100
0000
0001
0000
0010
1000
0010
0001
0100
1000
0100
1000
,
0100
0100
0001
0010
1000
1000
0001
0010
,
0100
0100
0001
0010
1000
1000
0100
1001
,
0010
0010
1000
0100
0001
0001
1000
0100
,
0010
0010
1000
0100
0001
0001
0010
1001
,
0100
0110
0000
0011
0000
1100
0000
1010
,
0000
0000
0101
0000
1001
0000
0000
0000
0001
0100
1000
0000
1000
0100
0001
0000
,
0010
0110
0000
1100
0000
0011
0000
0101
,
0000
0000
1010
0000
1001
0000
0000
0000
1000
0010
0001
0000
0001
0010
1000
0000
,
1100
0101
0000
0011
0000
1010
0000
1100
,
0000
0101
1001
0000
0000
0000
0000
0000
;

//---------------dance-double - ----------------
#NOTES:
     dance-double:
     :
     Challenge:
     17:
     0.895733,0.981406,0.271739,0.191224,0.744766,623.000000,596.000000,27.000000,19.000000,0.000000,0.000000,0.895733,0.981406,0.271739,0.191224,0.744766,623.000000,596.000000,27.000000,19.000000,0.000000,0.000000:
// measure 0
00000000
00000000
00000000
00000000
,  // measure 1
00000000
00000000
00000000
00000000
,  // measure 2
00000000
00000000
00000000
00000000
,  // measure 3
00011000
00000000
00000000
00000000
,  // measure 4
01001000
00000000
00000000
00000000
00010010
00000000
00000000
00000000
00010000
00001000
00010000
00001000
00010000
00001000
00010000
00001000
,  // measure 5
00010000
00000000
01000000
00000000
10000000
00000000
00100000
00000000
00010000
00001000
00010000
00001000
00020000
00000000
00030000
00000000
,  // measure 6
00001000
00000000
00000100
00000000
00000001
00000000
00000010
00000000
00001000
00010000
00001000
00010000
00002000
00000000
00003000
00000000
,  // measure 7
00010000
00000000
00100000
00000000
10000000
00000000
01000000
00000000
00010000
00001000
00010000
00001000
00020000
00000000
00030000
00000000
,  // measure 8
00001000
00000000
00000010
00000000
00000001
00000000
00000100
00000000
00001000
00010000
00001000
00010000
00002000
00000000
00003000
00000000
,  // measure 9
00010000
00000000
00100000
00000000
10000000
00000000
01000000
00000000
00010000
00001000
00010000
00001000
00020000
00000000
00030000
00000000
,  // measure 10
00001000
00010000
00001000
00010000
00002000
00000000
00003000
00000000
00010000
00001000
00000100
00000010
00001000
00000100
00000010
00000001
,  // measure 11
00000100
00000000
00000000
00000100
00001000
00000000
00000000
00001000
00010000
00000000
00000000
00010000
01000000
00000000
00000000
01000000
,  // measure 12
10000000
00000000
00000000
00000000
10010000
00000000
00000000
00000000
00010000
10000000
00010000
10000000
00010000
10000000
00010000
10000000
,  // measure 13
00010000
00000000
10000000
01000000
10000000
00000000
01000000
10000000
01000000
00000000
10000000
01000000
10000000
00000000
01000000
00000000
,  // measure 14
00010000
00000000
00001000
00010000
00001000
00000000
00010000
00001000
00010000
00000000
00001000
00010000
00001000
00000000
00000100
00000000
,  // measure 15
00000001
00000000
00000010
00000100
00000010
00000000
00000100
00000010
00000100
00000000
00000010
00000100
00000010
00000000
00001000
00000000
,  // measure 16
00010000
00000100
00010000
00000100
00010000
00001000
00010000
00001000
01000000
00001000
01000000
00001000
00010000
00001000
00010000
00001000
,  // measure 17
00000010
00000000
00000001
00000100
00000001
00000000
00000100
00000001
00000100
00000000
00000001
00000100
00000001
00000000
00000010
00000000
,  // measure 18
00001000
00000000
00010000
00001000
00010000
00000000
00001000
00010000
00001000
00000000
00010000
00001000
00010000
00000000
01000000
00000000
,  // measure 19
10000000
00000000
00100000
01000000
00100000
00000000
01000000
00100000
01000000
00000000
00100000
01000000
00100000
00000000
00010000
00000000
,  // measure 20
00001000
01000000
00001000
01000000
00001000
00010000
00001000
00010000
00000010
00010000
00000010
00010000
00001000
00010000
00001000
00010000
,  // measure 21
00100000
10000000
01000000
00100000
00010000
01000000
00100000
00010000
,  // measure 22
00001000
00100000
00010000
00001000
00000100
00010000
00001000
00000100
,  // measure 23
00000010
00001000
00000001
00000100
00001000
00010000
00100000
10000000
,  // measure 24
01000000
00010000
00001000
00000010
00000001
00000100
00001000
00010000
,  // measure 25
00100000
00000000
10000000
01000000
00100000
00000000
00000000
00000000
01000000
00000000
00010000
00001000
00000010
00000000
00000000
00000000
,  // measure 26
00000001
00000000
00000100
00000010
00001000
00000000
00000100
00000010
00000001
00000000
00000100
00000000
00001000
00000000
00000000
00000000
,  // measure 27
00011000
00000000
00010000
00001000
00010000
00000000
00001000
00010000
00000100
00001000
00000100
00010000
00001000
00010000
00100000
01000000
,  // measure 28
00100000
10000000
01000000
00010000
00001000
00000010
00000001
00000100
,  // measure 29
00001000
00000000
10000000
00000000
,  // measure 30
00010000
00000000
00000001
00000000
,  // measure 31
00000100
00010000
00001000
00000000
00100000
00001000
00010000
00000000
00000010
00010000
00001000
00000000
01000000
00001000
00010000
00000000
,  // measure 32
00001000
00010000
00000100
00001000
00000010
00010000
00001000
01000000
00010000
00100000
01000000
10000000
00100000
00010000
00001000
00000100
,  // measure 33
00000001
00000000
00000010
00000100
00000010
00000000
00000001
00000000
00000100
00000000
00001000
00000000
00010000
00000000
00100000
00000000
,  // measure 34
10000000
00000000
01000000
00100000
01000000
00000000
10000000
00000000
00100000
00000000
00010000
00000000
00001000
00000000
00000100
00000000
,  // measure 35
00000002
00000000
00002003
00000000
00003000
00000000
00000100
00000010
00000100
00000000
00010000
00000000
00001000
00000000
00100000
00000000
,  // measure 36
00010000
00100000
01000000
10000000
01000000
00100000
00001000
00010000
00000100
00000010
00000001
00000010
00000100
00001000
00000010
00000100
,  // measure 37
00000010
00001000
00000100
00000001
00000100
00010000
00001000
00100000
,  // measure 38
10000000
00100000
00010000
01000000
00100000
10000000
01000000
00010000
,  // measure 39
00001000
00000010
00000001
00000000
00000001
00000100
00001000
00000000
00010000
00100000
10000000
00000000
10000000
01000000
00010000
00000000
,  // measure 40
00001000
00010000
01000000
00000000
00010000
00001000
00000100
00000000
00001000
00010000
00100000
10000000
01000000
00010000
00001000
00000010
,  // measure 41
00000001
00000000
00000000
00001001
,  // measure 42
00000010
00000000
00000100
00000001
00000100
00000000
00000001
00000100
00000001
00000000
00000100
00000001
00000100
00000000
00001000
00000000
,  // measure 43
00010000
00000000
00100000
10000000
00100000
00000000
10000000
00100000
10000000
00000000
00100000
10000000
00100000
00000000
00010000
00000000
,  // measure 44
00001000
00000000
00000010
00000001
00000010
00000000
00000001
00000010
00000001
00000000
00000010
00000001
00000010
00000000
00001000
00000000
,  // measure 45
00022000
00000000
00000000
00000000
00033000
00000000
00000000
00000000
00010000
00001000
00010000
00001000
01000000
00100000
01000000
00100000
,  // measure 46
10000000
00000000
01000000
00010000
01000000
00000000
00010000
01000000
00010000
00000000
01000000
00010000
01000000
00000000
00010000
00000000
,  // measure 47
00001000
00000000
00000100
00001000
00000100
00000000
00001000
00000100
00001000
00000000
00000100
00001000
00000100
00000000
00000001
00000000
,  // measure 48
00000010
00000000
00000100
00010000
00000100
00000000
00010000
00001000
00010000
00000000
00001000
01000000
00001000
00000000
01000000
00000000
,  // measure 49
01100000
00000000
00000000
00000000
10100000
00000000
00000000
00000000
10000000
01000000
10000000
01000000
10000000
01000000
10000000
01000000
,  // measure 50
00100000
00000000
01000000
00000000
00010000
00000000
00001000
00000000
00000010
00000001
00000100
00000001
00000020
00000000
00000030
00000000
,  // measure 51
00000001
00000100
00001000
00010000
00000010
00001000
00010000
00100000
,  // measure 52
00010000
00000000
10000000
00000000
00100000
00000000
01000000
00000000
00010000
00100000
01000000
00100000
00020000
00000000
00030000
00000000
,  // measure 53
10000000
00000000
00100000
00000000
00010000
00000000
00001000
00000000
00000010
00000100
00000010
00000100
00001000
00000001
00001000
00000001
,  // measure 54
00000100
00000000
00001000
00000000
00010000
00000000
00100000
00000000
10000000
01000000
00100000
01000000
20000000
00000000
30000000
00000000
,  // measure 55
00100000
00000000
00010000
00000000
00001000
00000000
00000100
00000000
00000001
00000010
00000100
00000010
00000002
00000000
00000003
00000000
,  // measure 56
00000010
00000000
00001000
00000000
00010000
00000000
01000000
00000000
10000000
00100000
01000000
00100000
20000000
00000000
30000000
00000000
,  // measure 57
01000000
00000000
00010000
00000000
00001000
00000000
00000010
00000000
00000001
00000100
00001000
00000000
00001000
00000100
00000001
00000010
,  // measure 58
00001000
00010000
01000000
10000000
00100000
00010000
00001000
00000100
,  // measure 59
00000001
00000010
00001000
00010000
00100000
10000000
01000000
00010000
,  // measure 60
00001000
00000100
00000010
00000001
00000010
00000100
00001000
00010000
,  // measure 61
00100000
01000000
10000000
01000000
00100000
00010000
00001000
00000100
,  // measure 62
00000001
00000011
00000000
00001100
00000000
01010000
00000000
10100000
,  // measure 63
00000000
01100000
10010000
00000000
20000000
30100000
00020000
01030000
,  // measure 64
10000000
10100000
00000000
01010000
00000000
00001100
00000000
00000011
,  // measure 65
00000000
00000110
00001001
00000000
00002000
00003100
00000002
00000013
,  // measure 66
00001000
00001100
00000000
00010010
00000000
00101000
00000000
01010000
,  // measure 67
00000000
01100000
10010000
00000000
00000000
00000000
00000000
00000000
;
