#TITLE:Pretty Girl;
#SUBTITLE:;
#ARTIST:Crayon from PRODUCE X 101;
#TITLETRANSLIT:;
#SUBTITLETRANSLIT:;
#ARTISTTRANSLIT:;
#GENRE:K-POP;
#CREDIT:MUINELIM;
#BANNER:Pretty Girl.png;
#BACKGROUND:Pretty Girl-bg.png;
#LYRICSPATH:;
#CDTITLE:;
#MUSIC:Pretty Girl.ogg;
#OFFSET:-0.077000;
#SAMPLESTART:60.689243;
#SAMPLELENGTH:10.960411;
#SELECTABLE:YES;
#BPMS:0.000000=196
;
#STOPS:296.000000=0.306122,327.000000=0.306122
;
#BGCHANGES:;
#KEYSOUNDS:;
#ATTACKS:;

//---------------dance-single - ----------------
#NOTES:
     dance-single:
     :
     Beginner:
     3:
     0.104814,0.197121,0.009529,0.038114,0.000000,77.000000,76.000000,1.000000,4.000000,0.000000,0.000000,0.104814,0.197121,0.009529,0.038114,0.000000,77.000000,76.000000,1.000000,4.000000,0.000000,0.000000:
0000
0000
0000
0000
,
0000
0000
0000
0000
,
0000
0000
0000
0000
,
0000
0000
0000
0000
,
0000
0000
0000
0000
,
0000
0000
0000
0000
,
0000
0000
0000
0000
,
0000
0000
0000
0000
,
0000
0000
0000
0000
,
0000
0000
0000
0000
,
1000
0000
0000
0000
,
0000
0000
0000
0000
,
0001
0000
0000
0000
,
0000
0000
0000
0000
,
1000
0000
0000
0000
,
0000
0000
0000
0000
,
0001
0000
0000
0000
,
0000
0000
0000
0000
,
1000
0000
0000
0000
,
1000
0000
0000
0000
,
1000
0000
0000
0000
,
0000
0000
0000
0000
,
0010
0000
0000
0000
,
0010
0000
0000
0000
,
0010
0000
0000
0000
,
0000
0000
0000
0000
,
0100
0000
0000
0000
,
0100
0000
0000
0000
,
0100
0000
0000
0000
,
0000
0000
0000
0000
,
0001
0000
0000
0000
,
0001
0000
0000
0000
,
0001
0000
0000
0000
,
0000
0000
0000
0000
,
1000
0000
0000
0000
,
0001
0000
0000
0000
,
1000
0000
1000
0000
,
1000
0000
0000
0000
,
0001
0000
0000
0000
,
1000
0000
0000
0000
,
0001
0000
0001
0000
,
0001
0000
0000
0000
,
0100
0000
0000
0000
,
0010
0000
0000
0000
,
0100
0000
0000
0000
,
0010
0000
0000
0000
,
0100
0000
0100
0000
,
0010
0000
0010
0000
,
0200
0000
0300
0000
,
0020
0030
0000
0000
,
0100
0000
0000
0000
,
0001
0000
0000
0000
,
1000
0000
0000
0000
,
0010
0000
0000
0000
,
0100
0000
0000
0000
,
0001
0000
0000
0000
,
1000
0000
0000
0000
,
0010
0000
0000
0000
,
1000
0000
0000
0000
,
0100
0000
0000
0000
,
0010
0000
0000
0000
,
0001
0000
0000
0000
,
1000
0000
0000
0000
,
0100
0000
0000
0000
,
0010
0000
0000
0000
,
0001
0000
0000
0000
,
0010
0000
0000
0000
,
0010
0000
0000
0000
,
0001
0000
1000
0000
,
0001
0000
1000
0000
,
0100
0000
0000
0000
,
0100
0000
0000
0000
,
1000
0000
0001
0000
,
1000
0000
0001
0000
,
0010
0010
0000
0000
,
0000
0001
0000
0000
,
0000
0100
0000
0000
,
0000
1000
0000
0000
,
0000
0010
0000
0000
,
0000
0001
0000
1000
,
0000
0001
0000
1000
,
0000
0001
0000
0000
,
2002
0000
0000
3003
;

//---------------dance-single - ----------------
#NOTES:
     dance-single:
     :
     Hard:
     14:
     0.583963,0.788486,0.343027,0.581240,0.571712,429.000000,393.000000,36.000000,61.000000,0.000000,0.000000,0.583963,0.788486,0.343027,0.581240,0.571712,429.000000,393.000000,36.000000,61.000000,0.000000,0.000000:
0000
0000
0000
0000
,
0000
0000
0000
0000
,
0000
0000
0000
0000
,
0000
0000
0000
0000
,
0000
0000
0000
0000
,
0000
0000
0000
0000
,
0000
0000
0000
0000
,
0000
0000
0000
0100
,
0100
0000
0001
0010
0000
0001
1000
0000
0000
0020
0000
0000
,
1030
0000
0100
0000
0000
0100
0010
0000
0000
1001
0000
0000
,
0001
0000
0000
1000
0000
0000
0010
0000
0100
0002
0000
0000
,
0000
0000
0103
0010
0000
0000
1000
0000
0010
1000
0000
0000
,
1001
0000
0000
0001
0000
0000
1000
0000
0010
0100
0000
0000
,
0001
0000
0010
0000
0000
0010
0100
0000
0000
1001
0000
0000
,
1000
0000
0000
0001
0000
0000
0010
0000
0100
2000
0000
0000
,
0000
0000
3100
0010
0000
0000
0001
0000
0010
0001
0000
0000
,
1000
0000
0010
0100
0000
0100
0001
0000
0001
1000
0100
0010
,
0002
0103
2000
3010
,
0110
0000
0000
0100
0000
0001
0010
0000
0000
0100
0000
0020
,
0000
0000
0230
0000
0000
2300
0000
0000
0000
3010
0000
0100
,
0001
0000
0000
0010
0000
0002
0000
0000
2003
0000
0000
3020
,
0000
0000
0130
0001
0000
0000
0011
0000
0000
1100
0000
0000
,
1001
1000
0010
0210
,
0000
0301
0100
0120
,
0000
2030
3200
0302
,
2003
3020
0032
1003
,
0110
0000
0000
0010
0000
1000
0100
0000
0000
1000
0000
0010
,
0100
0000
0100
0001
0000
0001
1000
0000
1000
0100
0000
0000
,
1000
0000
0000
1001
0000
0000
0001
0000
1000
0010
0000
0000
,
0100
0000
0100
0001
0000
0001
0010
0000
0010
0100
0000
0100
,
1000
0010
0100
0102
,
0000
0103
0010
2010
,
0000
3002
0203
2300
,
3002
0000
0000
0013
0000
0010
0100
0000
0100
0001
0000
0000
,
1001
0100
0001
0100
,
1000
0100
0001
0100
,
2000
0000
0000
3020
0000
0000
0230
0000
,
0000
0000
0301
0010
0000
0000
0001
0000
1000
0010
0000
0100
,
0010
1001
0100
0010
,
0001
0100
1000
0010
,
0002
0000
0000
0203
0000
0000
0020
0000
,
0330
0000
0000
1010
0000
0000
0101
0000
0000
0001
0000
1000
,
0020
0031
0020
1030
,
1000
0000
0001
0100
0000
0100
0010
0000
0010
1000
0001
0010
,
0200
1300
0200
0301
,
0100
0000
1000
0010
0000
0010
0100
0000
0100
0001
1000
0100
,
0010
0000
0010
0001
0000
0000
0100
0000
0100
0010
0000
0000
,
1000
0000
1000
0100
0000
0000
0010
0000
0010
0001
0010
0100
,
2000
0000
0010
3000
0000
0000
0002
0000
0010
0003
0000
0000
,
0220
0000
0000
0330
0000
0010
1000
0000
0001
0100
0000
0010
,
1000
0000
0000
0100
0000
0001
0100
0000
0000
1000
0000
0000
,
0010
0001
0110
1001
,
0001
0000
0000
0010
0000
1000
0010
0000
0000
0001
0000
0000
,
0100
0000
1000
0100
0000
0000
0110
0000
0000
1001
0000
0000
,
0002
0013
2000
3010
,
0002
0103
2000
3100
,
0001
0000
0010
0100
0000
0000
1000
0000
0100
0010
0000
0000
,
0002
0203
2300
0000
,
3010
0000
0000
0010
0000
0001
0010
0000
0000
1000
0000
0000
,
0100
0001
0101
1100
,
0001
0000
0000
0100
0000
1000
0100
0000
0000
0001
0000
0000
,
0010
0000
1000
0010
0000
0000
0011
0000
0000
1010
0000
0000
,
0002
0000
0000
0010
0000
0000
1000
0000
0000
0103
0000
0100
,
2000
0000
0000
0010
0000
0000
0001
0000
0000
3100
0000
0100
,
0002
0000
0000
1000
0000
0000
0010
0000
0000
0103
0000
0100
,
1000
0000
1000
0010
0000
0010
0100
0000
0100
0001
0000
0001
,
2000
0000
0000
3010
0000
0000
0100
0000
0001
0020
0000
0000
,
0000
0000
0031
0100
0000
0000
1000
0000
0100
0010
0000
0000
,
1000
0000
0001
0100
0000
0010
1000
0000
0001
0100
0000
0000
,
1000
0000
0100
0000
0000
0100
0010
0000
0000
1010
0000
0000
,
0101
0000
0000
0001
0000
0000
1000
0000
0010
0200
0000
0000
,
0000
0000
0301
0010
0000
0000
1000
0000
0010
0100
0000
0000
,
1100
0000
1000
0010
0000
0100
0001
0000
1000
0100
0010
0001
,
0100
0000
1000
0200
0000
0000
0320
0000
0000
0130
0000
0000
,
2002
0000
0000
3003
0000
0000
1001
0000
0000
0000
1000
0000
0010
0000
0000
0000
0000
0000
0001
0000
0000
0000
0010
0000
,
1000
0000
1000
0100
0000
0100
0001
0000
0000
0100
0000
0010
,
0001
0000
0100
0010
0000
1000
0100
0000
0000
0001
0000
0200
,
0000
0000
1300
0010
0000
0000
0100
0000
0000
0101
0000
0000
,
1010
0000
0000
1001
0000
0001
0010
0000
0000
1000
0000
1000
,
0010
0000
0010
0001
0000
0001
0100
0000
0000
1100
0000
1000
,
0010
0100
0001
2000
0000
0000
3100
0010
0001
0100
0001
1000
,
0100
0000
1000
0000
0001
0000
0020
0000
0000
0000
0000
0000
0000
0000
0000
0000
0000
0000
0200
0000
0000
0330
0000
0000
,
1000
0000
0020
0000
0000
0031
0100
0000
0000
1001
0000
0000
;

//---------------dance-double - ----------------
#NOTES:
     dance-double:
     :
     Hard:
     14:
     0.575795,0.788486,0.285856,0.619354,0.571712,423.000000,393.000000,30.000000,65.000000,0.000000,0.000000,0.575795,0.788486,0.285856,0.619354,0.571712,423.000000,393.000000,30.000000,65.000000,0.000000,0.000000:
00000000
00000000
00000000
00000000
,
00000000
00000000
00000000
00000000
,
00000000
00000000
00000000
00000000
,
00000000
00000000
00000000
00000000
,
00000000
00000000
00000000
00000000
,
00000000
00000000
00000000
00000000
,
00000000
00000000
00000000
00000000
,
00000000
00000000
00000000
01000000
,
01000000
00000000
00001000
00010000
00000000
00000010
00010000
00000000
00000000
00000020
00000000
00000000
,
00001030
00000000
00000100
00000000
00000000
00000100
00000010
00000000
00000000
00001001
00000000
00000000
,
00000001
00000000
00000000
00000100
00000000
00000000
00001000
00000000
00010000
00002000
00000000
00000000
,
00000000
00000000
00103000
00010000
00000000
00000000
10000000
00000000
00100000
10000000
00000000
00000000
,
10010000
00000000
00000000
00010000
00000000
00000000
01000000
00000000
00001000
00010000
00000000
00000000
,
00001000
00000000
00100000
00000000
00000000
00100000
01000000
00000000
00000000
10010000
00000000
00000000
,
10000000
00000000
00000000
00100000
00000000
00000000
00010000
00000000
00001000
00020000
00000000
00000000
,
00000000
00000000
00030010
00001000
00000000
00000000
00000001
00000000
00000010
00000001
00000000
00000000
,
00001000
00000000
00000010
00010000
00000000
00010000
00001000
00000000
00001000
00100000
00001000
00100000
,
00020000
01030000
20000000
30100000
,
01100000
00000000
00000000
01000000
00000000
00010000
00100000
00000000
00000000
00001000
00000000
02000000
,
00000000
00000000
03020000
00000000
00000000
00230000
00000000
00000000
00000000
00301000
00000000
00010000
,
00000100
00000000
00000000
00001000
00000000
00000002
00000000
00000000
00000203
00000000
00000000
00000320
,
00000000
00000000
00001030
00000100
00000000
00000000
00010100
00000000
00000000
00011000
00000000
00000000
,
01001000
01000000
00010000
00200000
,
00000000
01300000
00010000
00002000
,
00000000
00003020
00000032
00000203
,
00002300
00023000
00230000
10300000
,
11000000
00000000
00000000
01000000
00000000
00010000
00001000
00000000
00000000
00100000
00000000
01000000
,
00010000
00000000
00010000
00001000
00000000
00001000
00000100
00000000
00000100
00000001
00000000
00000000
,
00001000
00000000
00000000
00001100
00000000
00000000
00000100
00000000
00000010
00001000
00000000
00000000
,
00010000
00000000
00001000
00010000
00000000
00010000
01000000
00000000
01000000
10000000
00000000
10000000
,
00100000
00010000
00001000
00000020
,
00000000
00001030
00010000
00200000
,
00000000
00320000
00032000
00003200
,
00000302
00000000
00000000
00000013
00000000
00000010
00001000
00000000
00001000
00010000
00000000
00000000
,
00011000
00001000
00100000
01000000
,
10000000
00100000
01000000
00010000
,
20000000
00000000
00000000
32000000
00000000
00000000
03020000
00000000
,
00000000
00000000
00031000
00000100
00000000
00000000
00000001
00000000
00000100
00000010
00000000
00000100
,
00000001
00001001
00000020
00000230
,
00002300
00023000
00230000
02300000
,
03020000
00000000
00000000
20030000
00000000
00000000
02000000
00000000
,
33000000
00000000
00000000
10100000
00000000
00000000
01010000
00000000
00000000
00010000
00000000
00100000
,
00002000
00013000
00000020
00001030
,
00000001
00000000
00000100
00001000
00000000
00001000
00010000
00000000
00010000
00100000
00010000
00100000
,
20000000
31000000
00200000
00310000
,
01000000
00000000
00001000
00010000
00000000
00010000
00000100
00000000
00000100
00001000
00000100
00001000
,
00000001
00000000
00000010
00000100
00000000
00000000
00010000
00000000
00001000
00100000
00000000
00000000
,
01000000
00000000
10000000
00100000
00000000
00000000
00010000
00000000
00001000
00010000
00001000
00000100
,
00000020
00000000
00010000
00000030
00000000
00000000
00200000
00000000
00001000
00300000
00000000
00000000
,
00022000
00000000
00000000
00033000
00000000
00010000
01000000
00000000
01000000
10000000
00000000
10000000
,
00100000
00000000
00000000
00010000
00000000
00001000
00100000
00000000
00000000
01000000
00000000
00000000
,
00010000
00001000
00000010
00000110
,
00000001
00000000
00000000
00000100
00000000
00001000
00010000
00000000
00000000
00001000
00000000
00000000
,
00100000
00000000
00010000
01000000
00000000
00000000
10100000
00000000
00000000
01010000
00000000
00000000
,
00020000
00130000
00002000
00013000
,
00000020
00001030
00000200
00000310
,
00000001
00000000
00000100
00001000
00000000
00000000
00010000
00000000
01000000
10000000
00000000
00000000
,
00200000
00320000
00032000
00000000
,
00103000
00000000
00000000
01000000
00000000
10000000
00100000
00000000
00000000
00010000
00000000
00000000
,
00001000
00100000
01000000
11000000
,
10000000
00000000
00000000
00100000
00000000
00010000
00001000
00000000
00000000
00010000
00000000
00000000
,
00000100
00000000
00000010
00000001
00000000
00000000
00001100
00000000
00000000
00000011
00000000
00000000
,
00000002
00000000
00000000
00001000
00000000
00000000
00000100
00000000
00000000
00000013
00000000
00000010
,
00002000
00000000
00000000
00010000
00000000
00000000
00000010
00000000
00000000
00103000
00000000
00100000
,
00020000
00000000
00000000
00001000
00000000
00000000
01000000
00000000
00000000
10030000
00000000
10000000
,
00100000
00000000
00100000
01000000
00000000
01000000
00001000
00000000
00001000
00010000
00000000
00010000
,
00000200
00000000
00000000
00000310
00000000
00000000
00000001
00000000
00001000
00000020
00000000
00000000
,
00000000
00000000
00010030
00001000
00000000
00000000
00100000
00000000
01000000
10000000
00000000
00000000
,
00100000
00000000
00010000
00001000
00000000
00010000
00000010
00000000
00001000
00000010
00000000
00000000
,
00000100
00000000
00000001
00000000
00000000
00000001
00000010
00000000
00000000
00000110
00000000
00000000
,
00001001
00000000
00000000
00001000
00000000
00000000
00000010
00000000
00010000
00002000
00000000
00000000
,
00000000
00000000
00103000
01000000
00000000
00000000
10000000
00000000
00100000
00010000
00000000
00000000
,
00011000
00000000
01000000
00010000
00000000
00100000
00001000
00000000
00010000
00000100
00010000
00000100
,
00000010
00000000
00000001
00000100
00000000
00000000
00001000
00000000
00000000
00010000
00000000
00000000
,
00022000
00000000
00000000
00033000
00000000
00000000
00011000
00000000
00000000
00000000
00010000
00000000
01000000
00000000
00000000
00000000
00000000
00000000
10000000
00000000
00000000
00000000
00100000
00000000
,
00010000
00000000
00100000
01000000
00000000
00010000
00100000
00000000
00000000
00001000
00000000
00010000
,
00000100
00000000
00001000
00000100
00000000
00000010
00000001
00000000
00000000
00000100
00000000
00002000
,
00000000
00000000
00013000
01000000
00000000
00000000
00100000
00000000
00000000
00110000
00000000
00000000
,
11000000
00000000
00000000
10010000
00000000
01000000
00100000
00000000
00000000
00010000
00000000
00010000
,
00001000
00000000
00001000
00000100
00000000
00000100
00000001
00000000
00000000
00000011
00000000
00000010
,
00000100
00000010
00000100
00002000
00000000
00000000
00003010
00010000
00001000
00100000
00001000
00010000
,
00000100
00000000
00010000
00000000
00001000
00000000
02000000
00000000
00000000
00000000
00000000
00000000
00000000
00000000
00000000
00000000
00000000
00000000
00200000
00000000
00000000
03300000
00000000
00000000
,
10000000
00000000
02000000
00000000
00000000
03010000
00001000
00000000
00000000
00011000
00000000
00000000
;

//---------------dance-single - ----------------
#NOTES:
     dance-single:
     :
     Easy:
     5:
     0.187848,0.275136,0.076228,0.095285,0.000000,138.000000,130.000000,8.000000,10.000000,0.000000,0.000000,0.187848,0.275136,0.076228,0.095285,0.000000,138.000000,130.000000,8.000000,10.000000,0.000000,0.000000:
0000
0000
0000
0000
,
0000
0000
0000
0000
,
0000
0000
0000
0000
,
0000
0000
0000
0000
,
0000
0000
0000
0000
,
0000
0000
0000
0000
,
0000
0000
0000
0000
,
0000
0000
0000
0000
,
0000
0000
0000
0000
,
0000
0000
0000
0000
,
1000
0000
1000
0000
,
0000
0000
1000
0000
,
0000
0000
1000
0000
,
0001
0000
1000
0000
,
0001
0000
0001
0000
,
0000
0000
0001
0000
,
0000
0000
0001
0000
,
1000
0000
0001
0000
,
1001
0000
1000
0000
,
0100
0000
1000
0000
,
0001
0000
1000
0000
,
0100
0000
0000
0000
,
0001
0000
1000
0000
,
0001
0000
0010
0000
,
0001
0000
1000
0000
,
0001
0000
0010
0000
,
0000
0000
1000
0000
,
1000
0000
0100
0000
,
0000
0000
0001
0000
,
0001
0000
0100
0000
,
0000
0000
1000
0000
,
1000
0000
0010
0000
,
0000
0000
0001
0000
,
0001
0000
0010
0000
,
1001
1001
0000
0000
,
0000
0000
0000
0000
,
2000
3000
0002
0003
,
0200
0000
0300
0000
,
1001
1001
0000
0000
,
0000
0000
0000
0000
,
0002
0003
2000
3000
,
0020
0000
0030
0000
,
0100
0000
0100
0000
,
0010
0100
0010
0000
,
0100
0000
0100
0000
,
0010
0100
0010
0000
,
0100
0000
0001
0000
,
1000
0000
0010
0000
,
0100
0000
0100
0000
,
2002
0000
3003
0000
,
1000
0000
0010
0000
,
1000
0000
0100
0000
,
1000
0000
0010
0000
,
1000
0000
0100
0100
,
0000
0000
0001
0000
,
0010
0000
0001
0000
,
0100
0000
0001
0000
,
0010
0010
0010
0000
,
1000
0000
0001
0000
,
0100
0000
0010
0000
,
1000
0000
1000
0000
,
0001
0000
0001
0000
,
0200
0000
0300
0010
,
0010
0000
0000
0010
,
0010
0000
0000
0010
,
0010
0000
1000
0000
,
0001
0000
0000
0000
,
0001
0000
0000
0000
,
0001
0000
1000
0000
,
0001
0000
1000
0000
,
1000
0000
0000
0000
,
0001
0000
0000
0000
,
1000
0000
0001
0000
,
1000
0000
0001
0000
,
0001
0100
0000
1000
,
0000
0010
0000
1000
,
0000
0100
0000
1000
,
0000
0010
0000
0001
,
0000
0100
0000
0001
,
0000
0010
0000
0001
,
0000
0100
0000
1000
,
0000
0002
0000
1003
,
1001
0000
1001
0000
;

//---------------dance-single - ----------------
#NOTES:
     dance-single:
     :
     Medium:
     8:
     0.412449,0.512516,0.266799,0.304913,0.000000,303.000000,275.000000,28.000000,32.000000,0.000000,0.000000,0.412449,0.512516,0.266799,0.304913,0.000000,303.000000,275.000000,28.000000,32.000000,0.000000,0.000000:
0000
0000
0000
0000
,
0000
0000
0000
0000
,
0000
0000
0000
0000
,
0000
0000
0000
0000
,
0000
0000
0000
0000
,
0000
0000
0000
0000
,
0000
0000
0000
0000
,
0000
0000
0000
1000
,
0001
1000
0010
0100
,
0010
1000
0000
0001
0200
0000
0310
0000
,
0110
0002
0100
0000
,
0000
0000
0010
0000
,
0000
0000
1003
0001
,
0100
0010
0000
0010
0100
0000
0110
0000
,
2000
0010
0000
0000
,
0000
0100
0000
0000
,
3001
0000
1000
0000
0010
0000
0100
0010
,
0200
0301
0020
1030
,
1000
0100
0001
0000
,
0001
0100
1000
0000
,
1000
0100
0001
0100
,
1000
0000
0010
0100
0010
0000
1000
0000
,
1000
0001
0010
1000
,
0000
1000
0010
0001
,
0000
0001
0010
1000
,
0010
0000
0001
0000
0100
0010
0100
0000
,
0001
0001
0011
0001
,
1000
0001
0100
0000
,
1000
1000
1100
1000
,
0001
1000
0010
0000
,
0001
0001
0101
0001
,
1000
1000
1010
1000
,
0001
0100
0010
1000
,
0001
0010
0100
1001
,
1010
0210
0001
0000
,
0000
0000
1000
0000
,
0000
0000
0001
0000
,
0000
1300
0100
1001
,
0101
0120
1000
0000
,
0000
0000
0001
0000
,
0000
0000
1000
0000
,
0000
0031
0010
1000
,
0200
0000
0301
0000
,
0200
0000
1300
0000
,
0200
0000
0301
0000
,
0200
0000
1300
0000
,
0200
0301
0200
1300
,
0200
0301
0200
1300
,
0100
0001
0000
0000
0100
1000
0000
0000
,
1001
0000
0000
0010
0100
0010
0100
0000
,
0010
1000
1100
0100
,
1000
0001
0011
0010
,
0001
0000
1000
0010
0000
0010
1000
0000
,
0001
0010
0200
1300
,
1001
0100
0001
1000
,
1001
0010
1000
0001
,
1001
0100
0010
1000
,
0002
0023
0230
0000
,
1300
0010
1010
1000
,
0001
0100
0101
0001
,
1000
0010
1000
0000
0001
0010
0001
0000
,
1000
0100
1000
0000
0001
0100
0001
0000
,
2000
0000
0000
3010
0100
0000
0010
0000
,
0002
0000
0000
0013
0100
0000
0010
0000
,
2000
0000
0000
3010
0100
0000
0010
0000
,
2000
3100
0002
0013
,
1001
0000
1000
0000
0010
1000
0100
0000
,
0000
0000
1000
0000
0010
1000
0100
0000
,
1000
0001
1000
0010
,
0100
0001
0000
0001
0100
0000
0001
0000
,
1001
0000
0001
0000
0010
0001
0100
0000
,
0000
0000
0001
0000
0010
0001
0100
0000
,
0001
1000
0010
0100
,
0002
0013
2000
3100
,
1001
0000
0001
1000
0100
0000
1000
0000
,
0001
0000
1000
0001
0010
0000
0001
0000
,
0001
0000
1000
0000
1000
0000
0001
0100
,
0000
1000
0010
0000
0001
0000
1000
0000
,
0100
0110
1000
0001
,
0010
0110
2000
3010
,
0002
0103
2000
0002
,
3003
0220
0330
0110
,
0100
0001
0000
0010
1000
0000
1001
0000
;

//---------------dance-double - ----------------
#NOTES:
     dance-double:
     :
     Easy:
     5:
     0.193293,0.275136,0.104814,0.085757,0.000000,142.000000,131.000000,11.000000,9.000000,0.000000,0.000000,0.193293,0.275136,0.104814,0.085757,0.000000,142.000000,131.000000,11.000000,9.000000,0.000000,0.000000:
00000000
00000000
00000000
00000000
,
00000000
00000000
00000000
00000000
,
00000000
00000000
00000000
00000000
,
00000000
00000000
00000000
00000000
,
00000000
00000000
00000000
00000000
,
00000000
00000000
00000000
00000000
,
00000000
00000000
00000000
00000000
,
00000000
00000000
00000000
00000000
,
00000000
00000000
00000000
00000000
,
00000000
00000000
00000000
00000000
,
00001000
00000000
00001000
00000000
,
00000000
00000000
00001000
00000000
,
00000000
00000000
00001000
00000000
,
00010000
00000000
00001000
00000000
,
00010000
00000000
00010000
00000000
,
00000000
00000000
00010000
00000000
,
00000000
00000000
00010000
00000000
,
00001000
00000000
00010000
00000000
,
00011000
00000000
01000000
00000000
,
00010000
00000000
01000000
00000000
,
10000000
00000000
01000000
00000000
,
00010000
00000000
00000000
00000000
,
00011000
00000000
00000100
00000000
,
00000001
00000000
00000100
00000000
,
00001000
00000000
00000100
00000000
,
00000001
00000000
00000001
00000000
,
00000000
00000000
00000010
00000000
,
00001000
00000000
00010000
00000000
,
00000000
00000000
00100000
00000000
,
00010000
00000000
00001000
00000000
,
00000000
00000000
00000100
00000000
,
00001000
00000000
00010000
00000000
,
00000000
00000000
01000000
00000000
,
00010000
00000000
00001000
00000000
,
00011000
00011000
00000000
00000000
,
00000000
00000000
00000000
00000000
,
02000000
03000000
00002000
00003000
,
00020000
00000000
00030000
00000000
,
00011000
00011000
00000000
00000000
,
00000000
00000000
00000000
00000000
,
00000200
00000300
00020000
00030000
,
00002000
00000000
00003000
00000000
,
00010000
00000000
00010000
00000000
,
00001000
00010000
00001000
00000000
,
00001000
00000000
00001000
00000000
,
00010000
00001000
00010000
00000000
,
01000000
00000000
10000000
00000000
,
00100000
00000000
00010000
00000000
,
00001000
00000000
00000100
00000000
,
00000002
00000000
00001003
00001000
,
00000100
00000000
00000010
00000000
,
00000001
00000000
00001000
00000000
,
00000100
00000000
00000010
00000000
,
00000001
00000000
00000100
00000000
,
00001000
00000000
00010000
00000000
,
00100000
00000000
10000000
00000000
,
01000000
00000000
00100000
00000000
,
00010000
00000000
10000000
00000000
,
01000000
00000000
00100000
00000000
,
00010000
00000000
01000000
00000000
,
00001000
00000000
00001000
00000000
,
00010000
00000000
00010000
00000000
,
00000020
00000000
00000030
00010000
,
00001000
00000000
00000000
00001000
,
00010000
00000000
00000000
00010000
,
00001000
00000000
00010000
00000000
,
00011000
00000000
00000000
00000000
,
01000000
00000000
00000000
00000000
,
00010000
00000000
00001000
00000000
,
00010000
00000000
00001000
00000000
,
00011000
00000000
00000000
00000000
,
00000100
00000000
00000000
00000000
,
00001000
00000000
00010000
00000000
,
00001000
00000000
00010000
00000000
,
00011000
00001000
00000000
00000010
,
00000000
00000001
00000000
00000100
,
00000000
00001000
00000000
00010000
,
00000000
00100000
00000000
10000000
,
00000000
01000000
00000000
00010000
,
00000000
00001000
00000000
00000100
,
00000000
00000001
00000000
00000010
,
00000000
00002000
00000000
00013000
,
00011000
00000000
00011000
00000000
;

//---------------dance-double - ----------------
#NOTES:
     dance-double:
     :
     Medium:
     8:
     0.411088,0.512516,0.238213,0.304913,0.000000,302.000000,277.000000,25.000000,32.000000,0.000000,0.000000,0.411088,0.512516,0.238213,0.304913,0.000000,302.000000,277.000000,25.000000,32.000000,0.000000,0.000000:
// measure 0
00000000
00000000
00000000
00000000
,  // measure 1
00000000
00000000
00000000
00000000
,  // measure 2
00000000
00000000
00000000
00000000
,  // measure 3
00000000
00000000
00000000
00000000
,  // measure 4
00000000
00000000
00000000
00000000
,  // measure 5
00000000
00000000
00000000
00000000
,  // measure 6
00000000
00000000
00000000
00000000
,  // measure 7
00000000
00000000
00000000
00001000
,  // measure 8
00010000
00100000
01000000
00100000
,  // measure 9
10000000
01000000
00000000
01000000
00020000
00000000
00031000
00000000
,  // measure 10
00011000
00000200
00001000
00000000
,  // measure 11
00000000
00000000
00000001
00000000
,  // measure 12
00000000
00000000
00010300
00000100
,  // measure 13
00000001
00000100
00000000
00000100
00001000
00000000
00011000
00000000
,  // measure 14
00200000
00010000
00000000
00000000
,  // measure 15
00000000
10000000
00000000
00000000
,  // measure 16
00301000
00000000
00100000
00000000
10000000
00000000
00100000
00010000
,  // measure 17
00002000
01003000
00020000
00030010
,  // measure 18
00010000
00001000
00000100
00000000
,  // measure 19
00001000
00010000
00000100
00000000
,  // measure 20
00010000
00001000
00000100
00001000
,  // measure 21
00010000
00000000
00001000
00010000
00001000
00000000
00010000
00000000
,  // measure 22
00011000
00001000
00010000
01000000
,  // measure 23
00000000
00010000
00001000
01000000
,  // measure 24
00000000
00001000
00010000
01000000
,  // measure 25
00010000
00000000
00001000
00000000
00010000
00001000
00010000
00000000
,  // measure 26
00001000
00010000
00010010
00000010
,  // measure 27
00001000
00000100
00000010
00001000
,  // measure 28
00010000
00001000
01001000
01000000
,  // measure 29
00010000
00100000
01000000
00010000
,  // measure 30
00001000
00010000
00010100
00010000
,  // measure 31
00010000
00001000
00101000
00001000
,  // measure 32
00001000
00010000
00000100
00000010
,  // measure 33
00000001
00000100
00001000
00010000
,  // measure 34
01000000
01200000
00010000
00000000
,  // measure 35
00000000
00000000
10000000
00000000
,  // measure 36
00000000
00000000
00010000
00000000
,  // measure 37
00000000
10300000
00010000
00001000
,  // measure 38
00000010
00000210
00001000
00000000
,  // measure 39
00000000
00000000
00000001
00000000
,  // measure 40
00000000
00000000
00001000
00000000
,  // measure 41
00000000
00000301
00001000
00010000
,  // measure 42
00200000
00000000
00301000
00000000
,  // measure 43
00000020
00000000
00010030
00000000
,  // measure 44
02000000
00000000
03001000
00000000
,  // measure 45
00000200
00000000
00010300
00000000
,  // measure 46
00200000
00301000
00000020
00010030
,  // measure 47
02000000
03001000
00000200
00010300
,  // measure 48
00010000
00001000
00000000
00000000
00001000
00010000
00000000
00000000
,  // measure 49
00011000
00000000
00000000
00001000
00010000
00001000
00010000
00000000
,  // measure 50
00100000
10000000
11000000
10000000
,  // measure 51
00100000
00010000
00011000
00010000
,  // measure 52
00100000
00000000
10000000
01000000
00000000
01000000
00010000
00000000
,  // measure 53
00001000
00000010
00000002
00001003
,  // measure 54
00001010
00001000
00000100
00010000
,  // measure 55
00011000
00001000
01000000
00010000
,  // measure 56
01010000
00010000
00100000
01000000
,  // measure 57
20000000
30200000
00320000
00000000
,  // measure 58
00031000
00000100
00000101
00000100
,  // measure 59
00001000
00010000
00011000
00001000
,  // measure 60
00010000
00000010
00010000
00000000
00001000
00100000
00001000
00000000
,  // measure 61
00010000
00000100
00010000
00000000
00001000
01000000
00001000
00000000
,  // measure 62
00020000
00000000
00000000
00030100
00001000
00000000
00000010
00000000
,  // measure 63
00020000
00000000
00000000
00030010
00001000
00000000
00000100
00000000
,  // measure 64
00020000
00000000
00000000
00030100
00001000
00000000
00000010
00000000
,  // measure 65
00020000
00031000
00200000
01300000
,  // measure 66
10010000
00000000
10000000
00000000
00100000
00010000
00001000
00000000
,  // measure 67
00000000
00000000
00001000
00000000
00010000
00100000
10000000
00000000
,  // measure 68
01000000
00010000
00001000
00000010
,  // measure 69
00000001
00000100
00000000
00000100
00001000
00000000
00000100
00000000
,  // measure 70
00001001
00000000
00000001
00000000
00000010
00001000
00010000
00000000
,  // measure 71
00000000
00000000
00010000
00000000
00001000
00000010
00000001
00000000
,  // measure 72
00000100
00001000
00010000
01000000
,  // measure 73
20000000
30100000
00020000
00031000
,  // measure 74
00011000
00000000
00010000
00000100
00001000
00000000
00000100
00000000
,  // measure 75
00010000
00000000
00001000
01000000
00010000
00000000
01000000
00000000
,  // measure 76
00001000
00000000
00010000
00000000
00001000
00000000
00000010
00000001
,  // measure 77
00000000
00000100
00001000
00000000
00010000
00000000
00100000
00000000
,  // measure 78
10000000
11000000
01000000
00010000
,  // measure 79
00001000
00011000
00000200
00000310
,  // measure 80
00000002
00000103
00002000
00020000
,  // measure 81
00033000
02200000
03300000
01100000
,  // measure 82
10000000
01000000
00000000
01000000
00010000
00000000
00011000
00000000
;
