#TITLE:Phantom ~Psycho Orchestra~;
#SUBTITLE:;
#ARTIST:Vospi vs BanYa;
#TITLETRANSLIT:;
#SUBTITLETRANSLIT:;
#ARTISTTRANSLIT:;
#GENRE:XROSS;
#CREDIT:MUINELIM;
#BANNER:Phantom Pyscho Orchestra.png;
#BACKGROUND:Phantom Pyscho Orchestra-bg.png;
#LYRICSPATH:;
#CDTITLE:;
#MUSIC:Phantom Pyscho Orchestra.ogg;
#OFFSET:-0.010000;
#SAMPLESTART:33.113449;
#SAMPLELENGTH:12.353790;
#SELECTABLE:YES;
#DISPLAYBPM:73:290;
#BPMS:0.000000=145,64.000000=72.5,80.000000=290,215.000000=145,231.000000=290,323.000000=580,325.000000=290
;
#STOPS:214.000000=0.207,243.000000=0.103,244.000000=0.103,258.000000=0.103,259.000000=0.103,273.000000=0.103,274.000000=0.103,288.000000=0.103,289.000000=0.103,323.000000=0.207
;
#BGCHANGES:;
#KEYSOUNDS:;
#ATTACKS:;

//---------------dance-single - ----------------
#NOTES:
     dance-single:
     :
     Beginner:
     4:
     0.148339,0.286614,0.018880,0.028319,0.000000,110.000000,108.000000,2.000000,3.000000,0.000000,0.000000,0.148339,0.286614,0.018880,0.028319,0.000000,110.000000,108.000000,2.000000,3.000000,0.000000,0.000000:
0000
0000
0000
0000
,
0000
0000
0000
0000
,
0000
0000
0000
0000
,
0000
0000
0000
0000
,
0000
0000
0000
0000
,
0000
0000
0000
0000
,
0000
0000
0000
0000
,
0000
0000
0000
0000
,
1000
0000
0000
0000
,
1000
0000
0000
0000
,
0001
0000
0000
0000
,
0001
0000
0000
0000
,
1000
0000
0001
0000
,
1000
0000
0001
0000
,
0100
0100
0100
0000
,
0020
0000
0000
0030
,
0010
0000
1000
0000
,
0001
0000
0100
0100
,
0010
0000
1000
0000
,
0001
0000
0100
0100
,
0010
0000
0000
0000
,
1000
0000
0000
0000
,
0010
0000
0000
0000
,
1000
0000
0000
0000
,
0001
0000
0000
0000
,
0100
0000
0000
0000
,
0001
0000
0000
0000
,
0100
0000
0000
0000
,
0010
0000
0000
0000
,
1000
0000
0000
0000
,
0001
0000
0000
0000
,
0100
0000
0000
0000
,
0010
0000
0000
0000
,
1000
0000
0000
0000
,
0100
0000
0000
0000
,
0010
0000
0000
0000
,
0001
0000
0000
0000
,
0001
0000
0000
0000
,
0001
0000
0001
0000
,
0001
0000
0001
0000
,
1000
0000
0000
0000
,
1000
0000
0000
0000
,
1000
0000
1000
0000
,
1000
0000
1000
0000
,
0010
0000
0000
0000
,
0100
0000
0000
0000
,
0010
0000
0010
0000
,
0010
0000
0010
0000
,
0100
0000
0100
0000
,
0100
0000
0100
0000
,
0010
0000
0000
0000
,
0100
0000
0000
0000
,
0110
0000
0000
0000
,
0000
0000
0000
1000
,
0000
1000
0000
1000
,
1000
1000
0000
0001
,
0000
0001
0000
0001
,
0001
0001
0001
0100
,
0000
0000
0000
0010
,
0000
0000
0000
0100
,
0000
0000
0000
0010
,
0000
0000
1000
0000
,
0000
0000
0001
0000
,
0000
0000
1000
0000
,
0000
0000
0001
0000
,
0000
0100
0000
0000
,
0000
1000
0000
0000
,
0000
0100
0000
0000
,
0000
1000
0000
0000
,
0010
0000
0000
0000
,
0001
0000
0000
0000
,
0010
0000
0000
0000
,
0001
0000
0000
0100
,
0000
0100
0000
0010
,
0000
0010
0000
1000
,
0000
1000
0000
0001
,
0000
0001
0000
0100
,
0000
0010
0000
1000
,
0000
0001
0000
0010
,
0000
0100
0000
1000
,
1000
1000
0000
0000
,
0000
2002
0000
0000
,
0000
0000
0000
0000
,
0000
0000
0000
0000
,
0000
0000
0000
0000
,
0000
0000
0000
0000
,
0000
0000
0000
3003
;

//---------------dance-single - ----------------
#NOTES:
     dance-single:
     :
     Easy:
     9:
     0.327694,0.573229,0.103837,0.207675,0.000000,243.000000,232.000000,11.000000,22.000000,0.000000,0.000000,0.327694,0.573229,0.103837,0.207675,0.000000,243.000000,232.000000,11.000000,22.000000,0.000000,0.000000:
0000
0000
0000
0000
,
0000
0000
0000
0000
,
0000
0000
0000
0000
,
0000
0000
0000
0000
,
1000
0100
0000
0100
,
0001
0100
0000
0100
,
1000
0100
0000
0100
,
0001
0100
0220
0330
,
0010
1000
0100
1000
,
0010
1000
0100
0100
,
0010
0001
0100
0001
,
0010
0001
0100
0100
,
0010
1000
0001
0100
,
0010
1000
1001
0000
,
0010
0100
0010
0000
0200
0000
0320
0000
,
0000
0000
0000
0030
,
0010
1000
0100
0000
0010
0001
0100
0000
,
0010
1000
0001
0000
0010
0001
1000
0000
,
0100
0010
0001
0000
1000
0100
0010
0000
,
0001
0100
0010
0000
1000
0010
0100
0001
,
1000
0000
0100
0000
,
1000
0000
0001
1000
,
0001
0000
1000
0000
,
0100
0000
1100
0000
,
0001
0000
0010
0000
,
0001
0000
1000
0001
,
1000
0000
0001
0000
,
0010
0000
0011
0000
,
1000
0000
0010
0000
,
1000
0000
0001
1000
,
0001
0000
1000
0000
,
0010
0000
1010
0000
,
0001
0000
0100
0000
,
0001
0000
1000
0001
,
1000
0000
0001
0000
,
0100
0000
0101
0000
,
0001
0000
0010
0000
,
0100
0000
1000
0000
,
0020
0000
0230
0000
,
0302
0000
2003
0000
,
3100
0000
0010
0000
,
0001
0000
0100
0000
,
0020
0000
2030
0000
,
3002
0000
0203
0000
,
0310
0000
1000
0000
,
0001
0000
0010
0000
,
0100
1000
0100
0000
,
0010
0001
0010
0000
,
0100
0000
1000
0000
,
0010
0000
0100
0000
,
0002
0000
2003
0000
,
3200
0000
0320
0000
,
0031
0000
0001
0100
,
0000
0000
0110
0010
,
1000
0000
0100
1000
0100
0000
1000
0000
,
0001
0000
0010
0001
0010
0000
0001
0000
,
0100
0000
0010
0100
0010
0000
1000
0001
,
1000
0100
0110
0001
,
0100
0001
0000
1000
,
0100
1000
0000
0001
,
0100
0010
1000
0002
,
0000
0003
1000
0010
,
1000
0000
0001
0010
,
0001
0000
1000
0010
,
0100
0001
2000
0000
,
3000
0001
0010
0100
,
0000
1000
0010
0100
,
0000
0001
0010
0100
,
1000
0020
0000
0030
,
1000
0100
0010
0000
,
0001
0100
0010
0000
,
1000
0100
0010
0001
,
0200
0000
0000
0300
0000
0000
0010
0000
,
1000
0010
0000
0100
,
0001
0100
0000
0010
,
1000
0100
0010
0001
,
0000
1001
0000
0010
,
0100
0001
0100
0010
,
0100
0001
0100
0010
,
1000
0100
0010
0001
,
1000
0010
0110
0000
,
0000
0220
0000
0000
,
0000
0000
0000
0000
,
0000
0000
0000
0000
,
0000
0000
0000
0000
,
0000
0000
0000
0000
,
0000
0000
0000
0330
;

//---------------dance-single - ----------------
#NOTES:
     dance-single:
     :
     Medium:
     12:
     0.500307,1.187403,0.292632,0.330391,0.075518,371.000000,340.000000,31.000000,35.000000,0.000000,0.000000,0.500307,1.187403,0.292632,0.330391,0.075518,371.000000,340.000000,31.000000,35.000000,0.000000,0.000000:
0000
0000
0000
0000
,
0000
0000
0000
0000
,
0000
0000
0000
0000
,
0000
0000
0000
0000
,
1000
0000
0100
1000
0000
0000
1100
0000
,
0001
0000
0100
0001
0000
0000
0101
0000
,
1000
0000
0010
1000
0000
0000
1010
0000
,
0001
0000
0010
0001
0000
0000
0011
0000
,
0001
0100
0001
0000
1000
0000
0100
0000
,
1000
0010
1000
0000
0001
0000
0010
0000
,
0001
0100
0010
0000
0100
0000
0001
0000
,
1000
0010
0100
0000
0010
0000
1000
0000
,
0200
0320
0032
0203
,
0320
2030
0002
3003
,
0001
0010
0100
1000
0020
0000
0230
0000
,
0302
2000
0000
3003
,
1000
0100
0010
0000
1000
0100
0001
0000
1000
0100
0010
0000
1000
0100
0001
0100
,
2000
0000
3010
0100
0010
0000
0110
0000
1100
0000
0101
0000
1100
0000
0101
0000
,
0001
0010
0100
0000
0001
0010
1000
0000
0001
0010
0100
0000
0001
0010
1000
0010
,
0002
0000
0103
0010
0100
0000
0110
0000
0011
0000
1010
0000
1000
0001
0100
0010
,
1000
0000
1100
0000
,
1000
0000
1001
0000
,
1000
0100
0010
0001
,
1000
0010
0200
0300
,
0001
0000
0011
0000
,
0001
0000
1001
0000
,
0001
0010
0100
1000
,
0001
0100
0020
0030
,
1000
0000
1100
0000
,
0010
0000
0011
0000
,
0001
0100
1000
0100
,
0001
0010
0200
0300
,
1000
0000
1010
0000
,
0001
0000
0101
0000
,
0100
1000
0100
0001
,
0010
0000
0100
0000
1000
0010
1000
0010
,
1000
0001
0010
0100
,
1000
0001
0010
0100
,
2100
0000
3020
0000
,
0230
0000
0302
0000
,
1003
0100
0010
0001
,
1000
0100
0010
0001
,
0201
0000
0320
0000
,
2030
0000
3002
0000
,
0013
0100
0010
0000
0001
0000
0100
0000
,
0010
1000
0001
0010
,
0100
1000
0100
0000
1000
0000
0010
0000
,
0100
0001
1000
0100
,
0010
0001
0010
0000
0001
0000
0100
0000
,
0010
1000
0001
0010
,
0012
0000
0203
0000
,
0320
0000
2030
3200
,
0320
0000
0000
0031
0100
0000
0220
0000
,
0000
0000
0330
0000
0110
0000
0010
1000
,
0100
0010
0001
0100
0010
0000
0100
0001
,
0010
0100
1000
0010
0100
0000
0001
0100
,
1000
0000
0100
0000
0002
0000
0000
0000
1003
0000
0100
0000
0010
0100
0000
0010
,
0100
0010
0001
1000
1001
0000
0001
0000
,
0100
1000
0100
0001
,
0100
1000
0100
0001
,
0100
1000
0100
0001
,
0001
0011
1000
0010
,
0001
0010
1000
0010
,
0001
0010
1000
0010
,
0001
0010
1000
1000
,
1100
0001
0100
1000
,
0001
0010
1000
0001
,
0100
1000
0001
0010
,
1000
0100
0100
0101
,
1000
0010
0001
1000
,
0100
0001
1000
0010
,
0001
1000
0100
0001
,
0010
0010
1010
1000
,
0100
0010
0001
1000
,
0010
0100
0001
0010
,
0100
0000
1000
0000
0010
0000
0100
0001
,
0100
0000
0010
1000
0010
0000
1000
0100
,
0010
0000
0001
0010
0100
0000
1000
0010
,
0100
0000
0001
0100
0010
0000
1000
0001
,
1000
0001
0100
0000
0010
0000
1000
0001
,
1000
0001
0100
0010
0100
0010
0100
0000
,
0000
0220
0000
0000
,
0000
0000
0000
0000
,
0000
0000
0000
0000
,
0000
0000
0000
0000
,
0000
0000
0000
0000
,
0000
0000
0000
0330
;

//---------------dance-single - ----------------
#NOTES:
     dance-single:
     :
     Hard:
     16:
     0.817213,1.514962,0.660783,0.453108,0.344551,606.000000,536.000000,70.000000,48.000000,0.000000,0.000000,0.817213,1.514962,0.660783,0.453108,0.344551,606.000000,536.000000,70.000000,48.000000,0.000000,0.000000:
// measure 0
0000
0000
0000
0000
,  // measure 1
0000
0000
0000
0000
,  // measure 2
0000
0000
0000
0000
,  // measure 3
0000
0000
0000
0000
,  // measure 4
2010
0000
0010
0001
0000
0000
3100
0000
,  // measure 5
0012
0000
0010
1000
0000
0000
0103
0000
,  // measure 6
1200
0000
0010
0001
0000
0000
0310
0000
,  // measure 7
0021
0000
0100
1000
0000
0000
0130
0000
,  // measure 8
1001
0000
0100
0000
0101
0000
0001
0010
0100
0010
0001
0000
0200
0000
0300
0000
,  // measure 9
1001
0000
0010
0000
1010
0000
1000
0100
0010
0100
1000
0000
0020
0000
0030
0000
,  // measure 10
0110
0000
0001
0000
0011
0000
0010
0100
1000
0100
0001
0100
2000
0000
3000
0000
,  // measure 11
0110
0000
1000
0000
1100
0000
0100
0010
0001
0010
1000
0010
0002
0000
0003
0000
,  // measure 12
0101
0000
0100
0000
1010
0000
1000
0100
0010
0001
0010
0000
0100
0000
0001
0000
,  // measure 13
0100
1000
0010
0100
0002
0000
2000
3003
,  // measure 14
1000
0100
0010
0001
1000
0100
0010
0001
0200
0000
0000
0000
0320
0000
0000
0000
,  // measure 15
2030
0000
0002
0000
0000
0000
0000
3003
,  // measure 16
0101
0000
0000
0010
1000
0000
0000
0000
0101
0000
0000
0010
1000
0000
0000
0000
0101
0000
0000
0010
1000
0000
0000
0000
0100
0000
0010
0000
0001
0000
0100
0000
,  // measure 17
1010
0000
0000
0100
0001
0000
0000
0000
1010
0000
0000
0100
0001
0000
0000
0000
0010
0100
0000
0000
1000
0010
0000
0000
0001
0100
0000
0000
1000
0010
0100
0000
,  // measure 18
0110
0000
0000
1000
0100
0000
0000
0000
0110
0000
0000
0001
0100
0000
0000
0000
0110
0000
0000
1000
0100
0000
0000
0000
0010
0000
0100
0000
1000
0000
0010
0000
,  // measure 19
1001
0000
0000
0010
0100
0000
0000
0000
1001
0000
0000
0100
0010
0000
0000
0000
0001
0010
0000
0000
1000
0100
0000
0000
0010
0100
0010
0100
0010
0100
0010
0100
,  // measure 20
1000
1010
1000
1100
,  // measure 21
1000
1001
1000
1100
,  // measure 22
0100
1000
0020
0000
0130
0010
2000
0000
,  // measure 23
3001
0100
0020
0000
0130
0001
0020
0000
,  // measure 24
0031
0101
0001
0011
,  // measure 25
0001
1001
0001
0011
,  // measure 26
0010
0001
0200
0000
0310
0100
0002
0000
,  // measure 27
1003
0010
0200
0000
0310
1000
0200
0000
,  // measure 28
0310
0011
0010
1010
,  // measure 29
0010
0011
0010
0110
,  // measure 30
0100
0010
0002
0000
0103
0010
0002
0000
,  // measure 31
0013
0100
0002
0000
1003
0100
0020
0000
,  // measure 32
0130
0101
0100
1100
,  // measure 33
0100
0101
0100
0110
,  // measure 34
0010
0100
2000
0000
3010
0100
2000
0000
,  // measure 35
3100
0010
2000
0000
3001
0010
0100
0000
,  // measure 36
0110
0000
0010
0100
1000
0010
0100
0010
,  // measure 37
1000
0100
0010
0100
1000
0010
0100
0001
,  // measure 38
2000
3010
0002
0103
,  // measure 39
2000
3100
0002
0013
,  // measure 40
1001
0000
0001
0100
0010
0001
0010
0100
,  // measure 41
0001
0010
0001
0100
0010
0001
0010
0100
,  // measure 42
0002
0013
2000
3100
,  // measure 43
0002
0103
2000
3010
,  // measure 44
1001
0000
0001
0010
0100
1000
0010
0100
,  // measure 45
0001
1000
0100
0010
0001
0100
0010
0000
,  // measure 46
1000
0010
0100
0001
0010
0100
1000
0001
,  // measure 47
0100
0010
1000
0100
0010
0001
0100
0000
,  // measure 48
0010
1000
0001
0010
0100
1000
0010
0001
,  // measure 49
0010
1000
0100
0010
0001
0100
0010
1000
,  // measure 50
1200
0000
0302
0000
,  // measure 51
0023
0000
2030
3100
,  // measure 52
0120
0000
0000
0031
0200
0000
0002
0000
,  // measure 53
0000
0000
0000
0000
0300
0000
0000
0000
1003
0000
0000
0000
1000
0100
0010
0100
,  // measure 54
1000
0100
0010
0000
0001
0100
0010
0100
0001
0100
0010
0000
1000
0100
0001
0100
,  // measure 55
1000
0100
0010
0000
0001
0010
0100
1000
0020
0000
0000
0000
0130
0001
0100
1000
,  // measure 56
0100
0001
1000
0000
0010
1000
0010
0001
0010
1000
0001
0000
0010
0100
0000
0010
,  // measure 57
0001
0000
0101
0000
0100
0010
1000
0001
0020
0000
0130
0010
0001
0000
0100
0000
,  // measure 58
0001
0100
1000
0100
1000
0100
0001
0010
,  // measure 59
0001
0010
1000
0010
1000
0010
0001
0100
,  // measure 60
1000
0100
0001
0010
0100
1000
1010
0000
,  // measure 61
0101
0000
1001
0000
1000
0100
1000
0100
,  // measure 62
0001
0100
0001
0100
1000
0010
1000
0010
,  // measure 63
0001
0010
0001
0010
1000
0100
0001
0100
,  // measure 64
1000
0010
0100
0001
0011
0000
1100
0000
,  // measure 65
1001
0000
0001
0100
1000
0100
0001
0100
,  // measure 66
1000
0100
0001
0010
1000
0010
0001
0010
,  // measure 67
1000
0010
0001
0100
1000
0001
0010
1000
,  // measure 68
0100
0010
0011
0000
1010
0000
1001
0000
,  // measure 69
1000
0100
0001
0100
1000
0100
0001
0100
,  // measure 70
1000
0010
0001
0010
1000
0010
0001
0010
,  // measure 71
1000
0100
0001
1000
0010
0001
0100
0010
,  // measure 72
1010
0011
1001
0100
,  // measure 73
0110
0010
1010
1000
,  // measure 74
1100
0010
0011
0001
,  // measure 75
0101
1010
0011
1100
,  // measure 76
0110
0000
1001
0000
0110
0000
0010
1000
,  // measure 77
0100
0010
0001
0100
0010
0001
0010
0100
,  // measure 78
1000
0100
0010
1000
0100
0010
0001
0100
,  // measure 79
0010
0000
0000
1000
0000
0000
0001
0000
0000
0010
0000
0000
0100
0000
0000
1000
0000
0000
0010
0000
0100
0000
0001
0000
,  // measure 80
0100
0010
1000
0010
0100
0001
0010
0100
1000
0010
0000
0000
,  // measure 81
0000
0220
0000
0000
,  // measure 82
0000
0000
0000
0000
,  // measure 83
0000
0000
0000
0000
,  // measure 84
0000
0000
0000
0000
,  // measure 85
0000
0000
0000
0000
,  // measure 86
0000
0000
0000
0330
;

//---------------dance-double - ----------------
#NOTES:
     dance-double:
     :
     Easy:
     9:
     0.314209,0.532284,0.151036,0.226554,0.000000,233.000000,217.000000,16.000000,24.000000,0.000000,0.000000,0.314209,0.532284,0.151036,0.226554,0.000000,233.000000,217.000000,16.000000,24.000000,0.000000,0.000000:
00000000
00000000
00000000
00000000
,
00000000
00000000
00000000
00000000
,
00000000
00000000
00000000
00000000
,
00000000
00000000
00000000
00000000
,
00001000
01000000
00000000
00001000
,
00010000
00001000
00000000
00010000
,
00000010
00010000
00000000
00001000
,
00010000
00001000
00022000
00033000
,
00010000
00000100
00010000
00000010
,
00010000
00000100
00010000
00010000
,
00001000
00100000
00001000
01000000
,
00001000
00100000
00001000
00001000
,
00010000
01000000
10000000
00100000
,
00010000
00001000
00011000
00000000
,
00010000
00001000
00010000
00000000
00000200
00000000
00002300
00000000
,
00000000
00000000
00000000
00003000
,
00000001
00000000
00000100
00000000
00001000
00000000
00010000
00100000
,
10000000
01000000
00200000
00000000
00310000
00000000
00010000
00000000
,
10000000
00000000
01000000
00000000
00010000
00000000
00001000
00000100
,
00000001
00000010
00000200
00000000
00001300
00000000
00001000
00000001
,
00000100
00000000
00001000
00000000
,
00010000
00000000
01000000
00000000
,
10000000
00000000
00100000
00000000
,
00010000
00000000
00011000
00000000
,
00100000
00000000
00010000
00000000
,
00001000
00000000
00000010
00000000
,
00000001
00000000
00000100
00000000
,
00001000
00000000
00011000
00000000
,
01000000
00000000
10000000
00000000
,
00100000
00000000
00010000
00000000
,
00001000
00000000
00000100
00000000
,
00000001
00000000
00001001
00000000
,
00000010
00000000
00000001
00000000
,
00000100
00000000
00001000
00000000
,
00010000
00000000
00100000
00000000
,
10000000
00000000
10010000
00000000
,
00010000
00000000
01000000
00000000
,
00001000
00000000
00010000
00000000
,
00000200
00000000
00001000
00000000
,
00020300
00000000
00001000
00000000
,
00030010
00000000
00000100
00000000
,
00000001
00000000
00001000
00000000
,
00000200
00000000
00010000
00000000
,
00000320
00000000
00000001
00000000
,
00001030
00000000
00010000
00000000
,
00100000
00000000
10000000
00000000
,
02000000
00000000
00010000
00000000
,
03200000
00000000
00001000
00000000
,
00310000
00000000
01000000
00000000
,
00100000
00000000
00010000
00000000
,
00002000
00000000
00000010
00000000
,
00023000
00000000
00100000
00000000
,
00031000
00000000
00001000
00010000
,
00000000
00000000
00011000
00010000
,
01000000
00010000
01010000
00010000
,
00001000
00010000
00011000
00001000
,
00000100
00000000
00001000
00000000
00001100
00000000
00001000
00010000
,
00001000
00000000
00010000
00001000
00010000
00000000
00001000
00000000
,
00010000
00100000
00000000
00100000
,
10000000
01000000
00000000
01000000
,
00010000
00001000
00000000
00022000
,
00000000
00033000
00010000
00001000
,
00000100
00000000
00000100
00000001
,
00000010
00000000
00000010
00001000
,
00010000
00000000
00022000
00000000
,
00033000
00100000
01000000
10000000
,
00000000
00100000
00010000
00001000
,
00000000
00010000
00001000
00000100
,
00000000
00002002
00000000
00003003
,
00000100
00000010
00000001
00000000
,
00000100
00001000
00010000
00000000
,
00001000
00010000
00100000
00000000
,
20020000
00000000
30030000
10000000
,
01000000
10000000
00000000
01000000
,
00010000
01000000
00000000
00010000
,
00001000
00010000
00000000
00001000
,
00000010
00001000
00000000
00000010
,
00000001
00000010
00000001
00000100
,
00000010
00000100
00000010
00001000
,
00000100
00010000
00001000
00100000
,
00010000
01000000
00001000
00011000
,
00000000
00022000
00000000
00000000
,
00000000
00000000
00000000
00000000
,
00000000
00000000
00000000
00000000
,
00000000
00000000
00000000
00000000
,
00000000
00000000
00000000
00000000
,
00000000
00000000
00000000
00033000
;

//---------------dance-double - ----------------
#NOTES:
     dance-double:
     :
     Medium:
     12:
     0.484124,1.023623,0.339831,0.235994,0.042479,359.000000,323.000000,36.000000,25.000000,0.000000,0.000000,0.484124,1.023623,0.339831,0.235994,0.042479,359.000000,323.000000,36.000000,25.000000,0.000000,0.000000:
00000000
00000000
00000000
00000000
,
00000000
00000000
00000000
00000000
,
00000000
00000000
00000000
00000000
,
00000000
00000000
00000000
00000000
,
10000000
00000000
00010000
01000000
00000000
00000000
00011000
00000000
,
00010000
00000000
00000100
00001000
00000000
00000000
00000101
00000000
,
00000001
00000000
00001000
00000100
00000000
00000000
00011000
00000000
,
00001000
00000000
00100000
00010000
00000000
00000000
10100000
00000000
,
10000000
01000000
00100000
00000000
01000000
00000000
00010000
00000000
,
00001000
00010000
00100000
00000000
00010000
00000000
00001000
00000000
,
00000010
00001000
00010000
00000000
00001000
00000000
00000100
00000000
,
00000010
00000100
00000001
00000000
00000010
00000000
00000100
00000000
,
00020000
00001000
00000100
00030010
,
00002000
00010000
00100000
01003000
,
00001000
00010000
00100000
01000000
20000000
00000000
32000000
00000000
,
03002000
00020000
00000000
00033000
,
00001000
00010000
00001000
00000000
00100000
00000000
01000000
00000000
10000000
00000000
01000000
00000000
00010000
00001000
00010000
00000100
,
00001000
00000000
00000100
00000010
00000001
00000000
00000101
00000000
00000100
00000000
00001100
00000000
00001000
00000000
00011000
00000000
,
00010000
00001000
00010000
00000000
00000100
00000000
00000010
00000000
00000001
00000000
00000010
00000000
00001000
00010000
00001000
00100000
,
00010000
00000000
00100000
01000000
10000000
00000000
10100000
00000000
00100000
00000000
00110000
00000000
00010000
00000000
00011000
00000000
,
00001000
00000000
01000000
00000000
,
00010000
00000000
00000100
00000000
,
00000001
00000010
00000100
00010000
,
00001000
00100000
01100000
00000000
,
00010000
00000000
00000010
00000000
,
00001000
00000000
00100000
00000000
,
10000000
01000000
00100000
00001000
,
00010000
00000100
00000110
00000000
,
00000001
00000000
00000100
00000000
,
00010000
00000000
01000000
00000000
,
00100000
10000000
01000000
00100000
,
00010000
01000000
10010000
00000000
,
10000000
00000000
00100000
00000000
,
00001000
00000000
00000010
00000000
,
00000100
00000001
00000010
00000100
,
00001000
00000000
00000010
00000000
00001001
00000000
00001000
00000100
,
00001000
00000001
00000100
00001000
,
00010000
00001000
00000100
00001000
,
00021000
00030000
00010200
00000300
,
00002100
00003000
00001020
00000000
,
00000130
00000001
00000100
00001000
,
00000100
00000001
00000010
00000100
,
00002100
00003000
00001020
00000030
,
00020010
00030000
00012000
00000000
,
00103000
01000000
10000000
00100000
,
00010000
00100000
01000000
00010000
,
00100000
01000000
00100000
00000000
00001000
00000000
00010000
00000000
,
00000100
00000010
00000001
00000100
,
00011000
00100000
10000000
01000000
,
00100000
00010000
01000000
00001000
,
00021000
00030000
00010020
00000030
,
00002010
00003000
00001002
00000203
,
00002300
00000000
00000000
00013000
00001000
00000000
00022000
00000000
,
00000000
00000000
00033000
00000000
00011000
00000000
00010000
00100000
,
01000000
00010000
00100000
01000000
10000000
00000000
01000000
00100000
,
00010000
10000000
01000000
00100000
00001000
00000000
00010000
00001000
,
00000100
00000000
00000010
00000000
00000002
00000000
00000000
00000000
00000013
00000000
00001000
00000000
00000100
00000000
00000000
00010000
,
00000000
00001000
00010000
01000000
11000000
00000000
10000000
00000000
,
00100000
01000000
00010000
00100000
,
00001000
00010000
00000100
00001000
,
00000010
00000100
00000001
00001000
,
00001000
00001010
00000001
00000100
,
00000010
00001000
00000100
00010000
,
00001000
00100000
00010000
01000000
,
00100000
10000000
00010000
00010000
,
01010000
10000000
01000000
00100000
,
00010000
01000000
00100000
00010000
,
00001000
00100000
00010000
00000010
,
00001000
00010000
00010000
00010010
,
00000001
00000010
00000100
00001000
,
00000010
00000100
00001000
00010000
,
00000100
00001000
01000000
00010000
,
00001000
00001000
01001000
10000000
,
01000000
00100000
00010000
01000000
,
00001000
00010000
00000010
00001000
,
00000100
00000010
00000001
00000100
,
00001000
00000000
00010000
00000000
00100000
00000000
10000000
01000000
,
00100000
00000000
01000000
00000000
00100000
00000000
01000000
00100000
,
00010000
00000000
00100000
00000000
00001000
00000000
00010000
00001000
,
00000100
00000000
00000010
00000000
00000100
00000000
00000010
00000100
,
00000001
00000000
00000010
00000100
00001000
00000000
00011000
00000000
,
00000000
00022000
00000000
00000000
,
00000000
00000000
00000000
00000000
,
00000000
00000000
00000000
00000000
,
00000000
00000000
00000000
00000000
,
00000000
00000000
00000000
00000000
,
00000000
00000000
00000000
00033000
;

//---------------dance-double - ----------------
#NOTES:
     dance-double:
     :
     Hard:
     16:
     0.796985,1.514962,0.651343,0.500307,0.278473,591.000000,522.000000,69.000000,53.000000,0.000000,0.000000,0.796985,1.514962,0.651343,0.500307,0.278473,591.000000,522.000000,69.000000,53.000000,0.000000,0.000000:
00000000
00000000
00000000
00000000
,
00000000
00000000
00000000
00000000
,
00000000
00000000
00000000
00000000
,
00000000
00000000
00000000
00000000
,
00011000
00000000
01000000
10000000
00100000
00010000
00001000
00000000
,
00011000
00000000
00000100
00000001
00000010
00001000
00010000
00000000
,
00011000
00000000
00100000
10000000
01000000
00010000
00001000
00000000
,
00011000
00000000
00000010
00000001
00000100
00001000
00010000
00000000
,
00011000
00000000
01000000
00000000
01010000
00000000
10000000
01000000
00100000
00010000
01000000
00000000
00002000
00000000
00003000
00000000
,
00011000
00000000
00000010
00000000
00001010
00000000
00000001
00000010
00000100
00001000
00000010
00000000
00020000
00000000
00030000
00000000
,
00011000
00000000
01000000
00000000
01100000
00000000
00100000
10000000
01000000
00100000
00010000
00000000
00002000
00000000
00003000
00000000
,
00011000
00000000
00000010
00000000
00000110
00000000
00000100
00000001
00000010
00000100
00001000
00000000
00020000
00000000
00030000
00000000
,
00011000
00000000
01000000
00000000
10010000
00000000
10000000
01000000
00100000
00010000
00100000
00000000
01000000
00000000
00010000
00000000
,
00001000
00000010
00000001
00000100
00002000
00000000
00020000
00033000
,
00001000
00010000
00100000
01000000
00001000
00010000
00100000
01000000
20000000
00000000
00000000
00000000
32000000
00000000
00000000
00000000
,
03002000
00000000
00020000
00000000
00000000
00000000
00000000
00033000
,
00011000
00000000
00000000
00001000
00000100
00000000
00000000
00000000
00011000
00000000
00000000
00001000
00000010
00000000
00000000
00000000
00011000
00000000
00000000
00001000
00000100
00000000
00000000
00000000
00000001
00000000
00000010
00000000
00001000
00000000
00010000
00000000
,
00011000
00000000
00000000
00010000
01000000
00000000
00000000
00000000
00011000
00000000
00000000
00010000
00100000
00000000
00000000
00000000
00100000
10000000
00000000
00000000
10000000
01000000
00000000
00000000
01000000
00010000
00000000
00000000
00010000
00001000
00010000
00000000
,
00011000
00000000
00000000
00100000
01000000
00000000
00000000
00000000
00011000
00000000
00000000
01000000
00100000
00000000
00000000
00000000
00011000
00000000
00000000
00100000
01000000
00000000
00000000
00000000
10000000
00000000
00100000
00000000
00010000
00000000
00001000
00000000
,
00011000
00000000
00000000
00000100
00000010
00000000
00000000
00000000
00011000
00000000
00000000
00000010
00000100
00000000
00000000
00000000
00000100
00000001
00000000
00000000
00000001
00001000
00000000
00000000
00001000
00000100
00001000
00000100
00010000
00001000
00010000
00001000
,
01000000
01100000
01000000
01010000
,
01000000
01001000
01000000
01010000
,
00010000
02000000
03001000
00000000
00010000
02000000
03001000
00000000
,
00010000
00000200
00001300
00000000
00010000
00000200
00001300
00000000
,
00000010
00000110
00000010
00001010
,
00000010
00010010
00000010
00001010
,
00001000
00000020
00010030
00000000
00001000
00000020
00010030
00000000
,
00001000
00200000
00310000
00000000
00001000
00200000
00310000
00000000
,
00010000
01010000
00010000
00011000
,
00010000
00110000
00010000
00011000
,
00010000
02000000
03100000
00000000
00010000
02000000
03100000
00000000
,
00001000
00000020
00000130
00000000
00001000
00000020
00000130
00000000
,
00001000
00001100
00001000
00011000
,
00001000
00001010
00001000
00011000
,
00001000
00000200
00000310
00000000
00001000
00000200
00000310
00000000
,
00010000
00200000
01300000
00000000
00010000
00200000
01300000
00000000
,
11000000
00000000
10000000
00100000
01000000
00010000
00100000
00001000
,
00010000
00000100
00000010
00000001
00000100
00000010
00001000
00000100
,
00020100
00030000
00102000
00003000
,
02010000
03000000
10200000
00300000
,
11000000
00000000
10000000
01000000
00100000
00001000
00010000
00000100
,
00001000
00000010
00000100
00000001
00001000
00000100
00000010
00000001
,
00000201
00000300
00001020
00000030
,
00020100
00030000
00102000
00003000
,
01010000
00000000
00010000
10000000
01000000
00000000
10000000
00010000
,
01000000
00000000
10000000
01000000
00010000
00000000
00100000
01000000
,
00010000
00000000
00001000
00000010
00000100
00000000
00001000
00000100
,
00000001
00000000
00000010
00000001
00001000
00000000
00000010
00001000
,
00000001
00000100
00000010
00010000
00001000
00100000
01000000
10000000
,
00100000
01000000
00010000
00100000
00001000
00010000
00000100
00000010
,
00000012
00000003
00001200
00000300
,
00020010
00030000
01002000
00003000
,
00120000
00000000
00000000
10000000
02030000
00000000
00002000
00000000
,
00000000
00000000
00000000
00000000
03000000
00000000
00000000
00000000
00013000
00000000
00000000
00000000
00010000
01000000
00010000
01000000
,
00010000
00000000
00001000
00000000
00010000
00100000
00010000
00100000
00010000
00000000
00001000
00000000
00010000
01000000
00010000
01000000
,
00010000
00000000
00001000
00000000
00010000
00001000
00010000
00000000
00022000
00000000
00033000
00000000
00001000
00000010
00001000
00000010
,
00001000
00000000
00010000
00000000
00001000
00000100
00001000
00000100
00001000
00000000
00010000
00000000
00100000
01000000
00000000
00100000
,
10000000
00000000
11000000
00000000
01000000
00000000
00010000
00000000
00001000
00000000
00000010
00000001
00000100
00000000
00000010
00000000
,
00010000
00001000
00010000
00000010
00000100
00000010
00010000
00001000
,
00000100
00000010
00010000
00000010
00000100
00001000
00010000
00001000
,
00000010
00000100
00001000
00000010
00000100
00001000
00020000
00000000
,
02030000
00000000
13000000
00000000
01000000
00100000
00001000
00010000
,
00001000
00100000
01000000
00100000
00001000
00010000
01000000
00100000
,
00001000
00100000
01000000
00010000
00001000
00010000
00100000
01000000
,
00010000
00100000
01000000
00010000
00002000
00000000
00003200
00000000
,
00000301
00000000
00000001
00000010
00000100
00010000
00001000
00000010
,
00001000
00010000
00000100
00000010
00000001
00000100
00001000
00010000
,
00001000
00000100
00000001
00000010
00000100
00010000
00001000
00100000
,
01000000
00010000
00002000
00000000
00203000
00000000
01300000
00000000
,
10000000
00100000
01000000
00001000
00010000
00100000
00010000
00001000
,
01000000
00100000
10000000
01000000
00010000
00001000
00010000
01000000
,
10000000
00100000
01000000
00001000
00010000
00000010
00000100
00001000
,
00020000
00030020
00000130
00000110
,
00000100
00000001
00000010
00000000
00001010
00000000
00001000
00010000
,
01000000
10000000
00100000
00000000
01100000
00000000
01010000
00000000
,
00010000
00100000
01000000
00000000
00110000
00000000
00011000
00000000
,
00001010
00000000
00000011
00000000
00001001
00000000
00000001
00000010
,
00000100
00001000
00000010
00000100
00001000
00010000
00100000
01000000
,
00010000
00100000
01000000
10000000
01000000
00100000
00001000
00010000
,
00000100
00000000
00000000
00000010
00000000
00000000
00000001
00000000
00000000
00000100
00000000
00000000
00001000
00000000
00000000
00010000
00000000
00000000
00100000
00000000
10000000
00000000
00100000
00000000
,
10000000
00000000
00000000
01000000
00000000
00000000
00100000
00000000
00001000
00000000
00100000
00000000
00001000
00000000
00000000
00010000
00000000
00000000
00011000
00000000
00000000
00000000
00000000
00000000
,
00000000
00022000
00000000
00000000
,
00000000
00000000
00000000
00000000
,
00000000
00000000
00000000
00000000
,
00000000
00000000
00000000
00000000
,
00000000
00000000
00000000
00000000
,
00000000
00000000
00000000
00033000
;
