#VERSION:0.83;
#TITLE:Party 4U (Holy Nite Mix);
#SUBTITLE:;
#ARTIST:Cranky;
#TITLETRANSLIT:;
#SUBTITLETRANSLIT:;
#ARTISTTRANSLIT:;
#GENRE:VARIETY;
#ORIGIN:;
#CREDIT:MUINELIM;
#BANNER:Party 4U (Holy Nite Mix).png;
#BACKGROUND:Party 4U (Holy Nite Mix)-bg.PNG;
#PREVIEWVID:;
#JACKET:Party 4U (Holy Nite Mix)-jacket.png;
#CDIMAGE:;
#DISCIMAGE:;
#LYRICSPATH:;
#CDTITLE:;
#MUSIC:Party 4U (Holy Nite Mix).ogg;
#OFFSET:0.071000;
#SAMPLESTART:40.306358;
#SAMPLELENGTH:12.075470;
#SELECTABLE:YES;
#BPMS:0.000=159.000;
#STOPS:67.000=0.377;
#DELAYS:;
#WARPS:;
#TIMESIGNATURES:0.000=4=4;
#TICKCOUNTS:0.000=4;
#COMBOS:0.000=1;
#SPEEDS:0.000=1.000=0.000=0;
#SCROLLS:0.000=1.000;
#FAKES:;
#LABELS:0.000=Song Start;
#BGCHANGES:0.000=Party 4U (Holy Nite Mix).mpg=1.000=0=0=0=StretchNoLoop====,
99999=-nosongbg-=1.000=0=0=0 // don't automatically add -songbackground-
;
#KEYSOUNDS:;
#ATTACKS:
;

//---------------dance-single - ----------------
#NOTEDATA:;
#CHARTNAME:;
#STEPSTYPE:dance-single;
#DESCRIPTION:;
#CHARTSTYLE:;
#DIFFICULTY:Challenge;
#METER:16;
#RADARVALUES:0.870492,0.948239,0.579875,0.313703,0.931603,641.000000,580.000000,61.000000,33.000000,0.000000,0.000000,0.000000,0.000000,0.000000,0.870492,0.948239,0.579875,0.313703,0.931603,641.000000,580.000000,61.000000,33.000000,0.000000,0.000000,0.000000,0.000000,0.000000;
#CREDIT:MILEN;
#NOTES:
0000
0000
0000
0000
,
0000
0000
0000
0000
,
0000
0000
0000
0000
,
0000
0000
0000
0000
,
0000
0000
0000
1002
,
0000
0000
0003
0201
,
0000
0000
0300
0120
,
0000
0000
0030
2010
,
3000
0000
1200
0000
0000
0000
0310
0001
,
0010
0000
0001
1000
0000
1000
0100
0000
1000
0000
0010
0000
0001
0000
0010
0000
,
1000
0000
0100
0010
0000
0010
0001
0000
0100
0000
1000
0000
0100
0000
0010
0000
,
1000
0000
0001
0010
0000
0010
0100
0000
0001
0000
0100
0000
1000
0000
0010
0000
,
0100
0000
0001
1000
0000
1000
0010
0000
0100
0000
0001
0000
0011
0000
0010
0000
,
0100
0000
1000
0010
0000
0100
0010
0100
0010
0000
1000
0000
0100
0000
0010
0000
,
0001
0000
0100
0010
0000
0100
0001
0100
0001
0000
0010
0000
0100
0000
0001
0000
,
0100
0000
1000
0001
0000
0010
0001
0010
0001
0000
0100
0000
1000
0000
0100
0000
,
0010
0000
0100
0001
0000
0010
0001
0010
0001
0010
0100
1000
0020
0000
0000
0000
,
0130
0001
0100
0001
0100
0001
0100
0001
2000
0000
3000
0000
1020
0000
0030
0000
,
0012
0000
0003
0000
0201
0000
0000
0000
1300
0000
0100
0000
0010
0001
0000
0100
,
0001
0000
0010
0001
0000
1000
0001
0000
0100
0000
0010
0000
1000
0100
0000
1000
,
0010
0000
1000
0100
0000
1000
0001
0000
0010
0000
0100
0000
1000
0010
0000
0100
,
0010
0000
0001
0010
0000
0100
0010
0000
1010
0000
0001
0000
0011
0000
1000
0000
,
1010
0000
0010
0100
0010
0100
0001
1000
0100
0000
0010
0000
0001
0100
0000
1000
,
0100
0000
0010
0100
0000
0001
0100
0000
0010
0000
1000
0000
0100
0001
0000
0100
,
0010
0000
0100
1000
0000
0100
0010
0000
0001
0000
0100
0000
0010
1000
0000
0010
,
0001
0000
0010
0100
0000
0010
1000
0000
1100
0000
0010
0000
0011
0000
0100
0000
,
0101
0000
1000
0100
0010
0100
0010
0001
0100
0000
0000
1010
0000
0000
0011
0000
,
0000
0101
0000
0000
1100
0000
1000
0000
0011
0000
0000
1010
0000
0000
1100
0000
,
0000
0101
0000
0000
0011
0000
0100
0000
0110
0000
0000
1010
0000
0000
0011
0000
,
0000
1100
0000
0000
0101
0000
1000
0000
1001
0000
0000
0011
0000
0000
1100
0000
,
0000
1010
0000
0000
0101
0000
0110
0000
1001
0000
0001
0100
0000
0100
0010
0000
,
0010
1000
0000
1000
0001
0000
0010
0000
0100
0000
1000
0010
0000
0010
0100
0000
,
0100
0001
0000
0001
1000
0000
0100
0000
0010
0000
0001
0100
0000
0100
0010
0000
,
0010
1000
0000
1000
0100
0000
0010
0000
0001
0100
0001
0100
0001
0010
0001
0010
,
0100
1000
0100
1000
0200
0000
0000
0000
0310
0001
0000
0001
1000
0000
0010
0001
,
0000
0001
0100
0000
0010
0000
0001
0000
0100
0010
1000
0000
0010
0000
0100
0000
,
0010
0100
0001
0000
1001
0000
0000
0000
0010
1000
0000
1000
0001
0000
0010
1000
,
0000
1000
0100
0000
0010
0000
1000
0000
0100
0010
0001
0000
0010
0000
0100
0000
,
0010
0100
1000
0000
1001
0000
0000
0000
0001
0100
0000
0100
1000
0000
0001
0010
,
0000
0010
1000
0000
0100
0000
0010
0000
0001
0100
0001
0100
0010
0000
1000
0000
,
0001
0010
0001
0010
0200
0000
0000
0000
1300
0010
0000
0010
0001
0000
1000
0100
,
0000
0100
0001
0000
0010
0000
0100
0000
1000
0010
0100
0000
0001
0100
0010
0000
,
1000
0100
0010
0001
0020
0000
0000
0000
0031
0100
0002
0000
1003
0100
2000
0000
,
3001
0100
0002
0000
1003
0100
1000
0000
1001
0000
0001
0000
0100
0000
1000
0000
,
0100
0001
0100
1000
1100
0100
0001
0010
,
1000
0010
0001
0010
0011
0001
1100
1000
,
0101
0000
0001
0000
1010
0000
1001
0000
0001
0100
0020
0000
1030
0100
0020
0000
,
0031
0100
0020
0000
1030
0100
0010
0000
0110
0000
0100
0000
0010
0000
0001
0000
,
1000
0100
0010
0001
0101
0100
1000
0001
,
0010
0100
0001
1000
1010
0001
0011
1000
,
1100
0000
0001
0000
0101
0000
1001
0000
1000
0100
0010
0001
0010
0100
1000
0100
,
0010
0001
0010
0100
1000
0100
0010
0001
0100
0000
0000
0100
0000
0000
0100
0000
,
0010
0100
0000
0000
2002
0000
3003
0000
0001
0100
0010
1000
0010
0100
0001
0100
,
0010
1000
0010
0100
0001
0100
0010
1000
0001
0000
0000
0001
0000
0000
0001
0000
,
0200
0000
0302
0000
2003
0000
3020
0000
0130
0001
0010
0100
1000
0010
0100
0001
,
0010
0100
1000
0010
0100
0001
0010
0100
1000
0000
0000
1000
0000
0000
1000
0000
,
0000
0000
0220
0000
0000
0000
0330
0000
0001
0010
0100
1000
0001
0100
0010
1000
,
0001
0010
0100
1000
0001
0100
0010
1000
0100
0000
0000
0100
0000
0000
0010
0000
,
0000
0011
0000
0000
1100
0000
1001
0000
0001
0100
0001
0100
0010
1000
0010
0000
,
1000
0100
1000
0100
0010
0001
0010
0000
0001
0100
0000
1000
0100
0000
0001
0100
,
0000
0010
0100
0000
0001
0000
1001
0000
1000
0100
1000
0100
0010
0001
0010
0000
,
0001
0100
0001
0100
0010
1000
0010
0000
1000
0100
0000
0001
0100
0000
0010
0100
,
0000
1000
0100
0000
0010
0000
0110
0000
0100
0010
0001
0010
0100
0010
0001
0010
,
0100
1000
0100
0010
0100
1000
0100
0010
0001
0000
0100
1000
0000
1000
0100
0000
,
0100
0001
0000
0001
0010
0000
0110
0000
0100
1000
0010
1000
0100
0010
0001
0100
,
0001
0010
0100
0001
0100
1000
0010
0100
0002
0000
0023
0000
2030
0000
3002
0000
,
0103
0220
0330
0000
;

//---------------dance-double - ----------------
#NOTEDATA:;
#CHARTNAME:;
#STEPSTYPE:dance-double;
#DESCRIPTION:;
#CHARTSTYLE:;
#DIFFICULTY:Challenge;
#METER:16;
#RADARVALUES:0.835184,0.885023,0.475308,0.218642,0.879319,615.000000,565.000000,50.000000,23.000000,0.000000,0.000000,0.000000,0.000000,0.000000,0.835184,0.885023,0.475308,0.218642,0.879319,615.000000,565.000000,50.000000,23.000000,0.000000,0.000000,0.000000,0.000000,0.000000;
#CREDIT:MILEN;
#NOTES:
00000000
00000000
00000000
00000000
,
00000000
00000000
00000000
00000000
,
00000000
00000000
00000000
00000000
,
00000000
00000000
00000000
00000000
,
00000000
00000000
00000000
02002000
,
00000000
00000000
03003000
00020200
,
00000000
00000000
00030300
00202000
,
00000000
00000000
00303000
00020020
,
00030030
00000000
00022000
00000000
00033000
00000000
00001000
00100000
,
00010000
00000000
01000000
00100000
00000000
00100000
01000000
00000000
00010000
00000000
10000000
00000000
01000000
00000000
00100000
00000000
,
00010000
00000000
01000000
00001000
00000000
00001000
01000000
00000000
00010000
00000000
00100000
00000000
00001000
00000000
00010000
00000000
,
00000100
00000000
00000010
00000001
00000000
00000001
00000010
00000000
00000100
00000000
00001000
00000000
00000010
00000000
00010000
00000000
,
00001000
00000000
01000000
00010000
00000000
00010000
01000000
00000000
00001000
00000000
00010000
00000000
00011000
00000000
00001000
00000000
,
00100000
00000000
01000000
10000000
00000000
00100000
01000000
00100000
01000000
00000000
00010000
00000000
10000000
00000000
01000000
00000000
,
00100000
00000000
00001000
00010000
00000000
00000100
00001000
00000100
00001000
00000000
00000100
00000000
00000010
00000000
00000001
00000000
,
00001000
00000000
00000010
00000100
00000000
00000001
00000100
00000001
00000100
00000000
00000001
00000000
00000010
00000000
00001000
00000000
,
00010000
00000000
00100000
10000000
00000000
00100000
01000000
00100000
01000000
00010000
00100000
00001000
00020000
00000000
00000000
00000000
,
00030100
00001000
00000100
00001000
00000100
00001000
00000100
00001000
00000002
00000000
00000003
00000000
00000020
00000000
00000030
00000000
,
00002000
00000000
00000000
00000000
00020000
00000000
00033000
00000000
00001000
00000000
00100000
00000000
00010000
01000000
00000000
00010000
,
00100000
00000000
00010000
10000000
00000000
00010000
01000000
00000000
00100000
00000000
10000000
00000000
01000000
00100000
00000000
01000000
,
00010000
00000000
01000000
10000000
00000000
01000000
00100000
00000000
00001000
00000000
00010000
00000000
00000100
00000010
00000000
00000100
,
00001000
00000000
00000100
00000001
00000000
00000100
00000010
00000000
00000011
00000000
00000000
00000000
00001100
00000000
00000000
00000000
,
00001001
00000000
00000001
00000100
00000001
00000100
00000010
00001000
00000100
00000000
00000010
00000000
00000001
00000100
00000000
00001000
,
00000100
00000000
00000010
00000100
00000000
00000001
00000100
00000000
00001000
00000000
00010000
00000000
00100000
10000000
00000000
00100000
,
01000000
00000000
00100000
00010000
00000000
00100000
10000000
00000000
01000000
00000000
00100000
00000000
00001000
00010000
00000000
00001000
,
00000010
00000000
00001000
00010000
00000000
00001000
00100000
00000000
00110000
00000000
00000000
00000000
00011000
00000000
00000000
00000000
,
00001010
00000000
00000010
00000100
00000001
00000100
00000001
00001000
00000100
00000000
00000000
00000110
00000000
00000000
00000011
00000000
,
00000000
00000101
00000000
00000000
00001100
00000000
00010000
00000000
00011000
00000000
00000000
01010000
00000000
00000000
11000000
00000000
,
00000000
10100000
00000000
00000000
01100000
00000000
00010000
00000000
10010000
00000000
00000000
01100000
00000000
00000000
01001000
00000000
,
00000000
00011000
00000000
00000000
00010100
00000000
00000010
00000000
00000110
00000000
00000000
00000011
00000000
00000000
00001010
00000000
,
00000000
00011000
00000000
00000000
00010010
00000000
00001000
00000000
00011000
00000000
00010000
00001000
00000000
00001000
00100000
00000000
,
00100000
01000000
00000000
01000000
10000000
00000000
00100000
00000000
01000000
00000000
00010000
00100000
00000000
00100000
00001000
00000000
,
00001000
00010000
00000000
00010000
00000100
00000000
00000010
00000000
00000001
00000000
00000100
00000010
00000000
00000010
00010000
00000000
,
00010000
00001000
00000000
00001000
00100000
00000000
01000000
00000000
10000000
00100000
10000000
00100000
01000000
00100000
01000000
00100000
,
00010000
00001000
00010000
00001000
00000200
00000000
00000000
00000000
00000301
00000010
00000000
00000010
00000001
00000000
00000100
00001000
,
00000000
00001000
00000100
00000000
00000001
00000000
00000010
00000000
00001000
00000000
00010000
00000000
01000000
00000000
10000000
00000000
,
00100000
00000000
01000000
00000000
01010000
00000000
00000000
00000000
10000000
00100000
00000000
00100000
10000000
00000000
01000000
00010000
,
00000000
00010000
01000000
00000000
10000000
00000000
00100000
00000000
00010000
00000000
00001000
00000000
00000100
00000000
00000001
00000000
,
00000010
00000000
00000100
00000000
00001100
00000000
00000000
00000000
00000001
00000010
00000000
00000010
00001000
00000000
00001000
00010000
,
00000000
00010000
00100000
00000000
00010000
00000000
00001000
00000000
00100000
01000000
00100000
00000000
00010000
00000000
10000000
00000000
,
01000000
00100000
01000000
00000000
11000000
00000000
00000000
00000000
10000000
00100000
00000000
00100000
00010000
00000000
00010000
00001000
,
00000000
00001000
00000010
00000000
00001000
00000000
00010000
00000000
00000010
00000100
00000010
00000000
00001000
00000001
00001000
00000000
,
00000001
00000100
00000010
00001000
00000002
00000000
00000000
00000000
00000103
00001000
00000100
00000000
00001000
00010000
00001000
00000000
,
00000100
00001000
00000100
00000000
00001000
00010000
00001000
00000000
00011000
00000000
00010000
00000000
01000000
00000000
10000000
00000000
,
00100000
01000000
00010000
00100000
01000000
01000000
00010000
00001000
,
00000010
00000100
00000001
00000100
00000010
00000010
00000001
00000001
,
00000100
00000000
00000100
00000000
00001000
00000000
00011000
00000000
00010000
00001000
00010000
00000000
01000000
00010000
01000000
00000000
,
00010000
00001000
00010000
00000000
01000000
00010000
01000000
00000000
01100000
00000000
00100000
00000000
00010000
00000000
10000000
00000000
,
01000000
00010000
00001000
00000010
00000100
00000100
00010000
00001000
,
00000010
00000001
00000100
00001000
00010000
00010000
00100000
00100000
,
01000000
00000000
01000000
00000000
00001000
00000000
00011000
00000000
00010000
00001000
00010000
00001000
00010000
00001000
00010000
00001000
,
00010000
00001000
00010000
00001000
00010000
00001000
00010000
00001000
01000000
00000000
00000000
01000000
00000000
00000000
01000000
00000000
,
00100000
01000000
00000000
00000000
20020000
00000000
30030000
00000000
01000000
00100000
01000000
00100000
01000000
00100000
01000000
00100000
,
01000000
00100000
01000000
00100000
01000000
00100000
01000000
00100000
10000000
00000000
00000000
10000000
00000000
00000000
10000000
00000000
,
01000000
00000000
00010000
00000000
00001000
00000000
00000010
00000000
00000100
00000010
00000100
00000010
00000100
00000010
00000100
00000010
,
00000100
00000010
00000100
00000010
00000100
00000010
00000100
00000010
00000001
00000000
00000000
00000100
00000000
00000000
00001000
00000000
,
00000000
00000000
00022000
00000000
00000000
00000000
00033000
00000000
00001000
00010000
00001000
00010000
00001000
00010000
00001000
00010000
,
00001000
00010000
00001000
00010000
00001000
00010000
00001000
00010000
00000010
00000000
00000000
00001010
00000000
00000000
00010100
00000000
,
00000000
00101000
00000000
00000000
01010000
00000000
00011000
00000000
00001000
00100000
00001000
00000000
00010000
00000010
00010000
00000000
,
00001000
01000000
00001000
00000000
00010000
00000100
00010000
00000000
00001000
00000010
00000000
00000010
00000001
00000000
00000001
00000100
,
00000000
00000100
00001000
00000000
00010000
00000000
00011000
00000000
00010000
00000010
00010000
00000000
00001000
00100000
00001000
00000000
,
00010000
00000100
00010000
00000000
00001000
01000000
00001000
00000000
00010000
00100000
00000000
00100000
10000000
00000000
10000000
01000000
,
00000000
01000000
00010000
00000000
00001000
00000000
00011000
00000000
00010000
00001000
01000000
00001000
00010000
00000100
00010000
00000000
,
00001000
00010000
00000010
00010000
00001000
00100000
00001000
00000000
00010000
00000000
01000000
10000000
00000000
10000000
00100000
00000000
,
00100000
00010000
00000000
00010000
00001000
00000000
00000110
00000000
00000010
00000001
00000010
00000001
00001000
00000100
00001000
00000100
,
00010000
00001000
00100000
00010000
01000000
00100000
10000000
01000000
00010000
00000000
00001000
00000000
00000010
00000000
00000001
00000000
,
00000100
00001000
00000000
00000000
00022000
00000000
00000000
00000000
00033000
00000000
00000000
00000000
00000000
00000000
00000000
00000000
;

//---------------dance-single - ----------------
#NOTEDATA:;
#CHARTNAME:;
#STEPSTYPE:dance-single;
#DESCRIPTION:;
#CHARTSTYLE:;
#DIFFICULTY:Hard;
#METER:13;
#RADARVALUES:0.611110,0.726983,0.456295,0.313703,0.228148,450.000000,402.000000,48.000000,33.000000,0.000000,0.000000,0.000000,0.000000,0.000000,0.611110,0.726983,0.456295,0.313703,0.228148,450.000000,402.000000,48.000000,33.000000,0.000000,0.000000,0.000000,0.000000,0.000000;
#CREDIT:MILEN;
#NOTES:
0000
0000
0000
0000
,
0000
0000
0000
0000
,
0000
0000
0000
0000
,
0000
0000
0000
0000
,
0000
0000
0000
2000
,
0000
0000
0000
3020
,
0000
0000
0000
0230
,
0000
0000
0000
0302
,
0000
0000
2000
0000
3003
0000
1001
0001
,
0100
0001
0010
0001
1000
0000
1000
1000
,
0010
1000
0100
1000
0001
0000
0010
0010
,
0001
0100
0010
1000
0001
0000
0100
0100
,
1000
0010
0100
0001
1000
0000
1001
0001
,
0100
0010
1000
0010
0100
0001
0100
0010
,
1000
0100
0010
0100
1000
0010
0100
0001
,
0010
0100
0010
0001
0100
0010
1000
0001
,
0010
0100
1000
0010
0100
0001
2001
0000
,
3020
0000
0000
0000
0000
0000
0000
0000
0130
0001
0000
0000
0001
1000
0000
0000
,
1000
0010
0000
0000
0110
0000
0000
0000
0100
0000
0001
0000
0010
0000
0000
0000
,
0100
0001
0010
0000
0100
0001
0010
1000
,
0010
0001
0110
0000
0100
1000
0010
0000
,
0100
1000
0010
0000
0100
1000
0010
0001
,
0010
1000
0110
0000
1000
0010
0001
0000
,
1000
0010
0001
0000
1000
0010
0001
0100
,
0010
0100
1001
0000
0001
0100
1000
0000
,
0001
0100
1000
0000
0001
0100
1000
0010
,
0100
0000
0010
0000
0110
0000
0000
0000
1001
0000
0000
0010
0000
0000
0001
0000
,
0000
0100
0000
0000
1000
0000
0010
0000
0110
0000
0000
0001
0000
0000
0010
0000
,
0000
1000
0000
0000
0100
0000
0010
0000
0110
0000
0000
0001
0000
0000
0100
0000
,
0000
1000
0000
0000
0010
0000
0100
0000
0101
0000
0000
0010
0000
0000
1000
0000
,
0000
0100
0000
0000
0010
0000
0100
0000
1100
0000
0000
1010
0000
0000
0110
0000
,
0000
0101
0000
0000
0001
0000
1000
0000
1010
0000
0000
0110
0000
0000
0101
0000
,
0000
0011
0000
0000
0110
0000
0100
0000
1000
0000
0000
1010
0000
0000
0011
0000
,
0000
1100
0000
0000
0101
0000
0001
0000
1000
0010
1000
0000
0001
0100
0001
0000
,
1000
0010
0110
0000
0100
0100
1000
0001
,
0100
0100
1000
0001
0010
1000
0010
0100
,
1000
0001
0011
0000
0010
0010
0001
1000
,
0010
0010
0001
1000
0100
0001
0100
0010
,
0001
1000
1100
0000
0100
0100
0001
0010
,
0100
0100
0001
0010
0100
0001
0100
1000
,
0010
0100
0101
0000
0010
0010
1000
0100
,
0010
0000
0010
0000
1000
0000
0100
0000
0010
0001
0010
0000
0100
1000
0100
0000
,
0010
0000
0100
0000
1001
0000
0000
0000
1000
0000
0002
0000
0000
0203
0000
0000
,
0320
0000
0000
2030
0000
0000
3001
0000
0001
0000
0020
0000
0000
0230
0000
0000
,
2300
0000
0000
3020
0000
0000
0130
0000
0100
0000
0002
0000
0000
2003
0000
0000
,
3200
0000
0000
0302
0000
0000
0013
0000
0010
0000
2000
0000
0000
3002
0000
0000
,
0203
0000
0000
2300
0000
0000
3010
0000
0110
0000
0100
0000
0001
0000
0100
0000
,
1000
0100
0010
0000
1010
1000
0100
0001
,
1000
0010
0001
0000
0101
0001
0010
1000
,
0001
0100
1000
0000
1100
0000
1010
0000
,
0011
0000
0101
0000
1000
0100
0001
1000
,
0100
0000
0001
0000
1000
0000
0100
0000
0001
0000
0000
0010
0000
0000
0220
0000
,
0000
0000
0330
0000
0001
0010
1000
0001
,
0010
0000
1000
0000
0001
0000
0010
0000
1000
0000
0000
0100
0000
0000
0220
0000
,
0000
0000
0330
0000
1000
0100
0001
0010
,
1000
0000
0100
0000
0001
0000
0010
0000
0100
0000
0000
0010
0000
0000
2002
0000
,
0000
0000
3003
0000
1000
0010
0001
0100
,
1000
0000
0010
0000
0001
0000
0100
0000
0010
0000
0000
0100
0000
0000
1001
0000
,
0000
0110
0000
0000
2002
0000
3003
0000
0001
0000
0100
0010
0000
0010
0100
0000
,
0001
0000
0010
0000
0100
0000
1000
0000
0010
0000
0100
0001
0000
0001
0100
0000
,
1000
0000
0100
0000
0110
0000
0000
0000
1000
0000
0100
0010
0000
0010
0100
0000
,
1000
0000
0010
0000
0100
0000
0001
0000
0010
0000
0100
1000
0000
1000
0100
0000
,
0001
0000
0100
0000
0110
0000
0000
0000
0001
0000
0100
0010
0100
0000
1000
0000
,
0100
0010
0100
0000
0001
0000
0010
0000
0100
0000
1000
0010
0000
0010
0001
0000
,
0010
0000
0100
0000
1001
0000
0000
0000
1000
0000
0100
0001
0100
0000
1000
0000
,
0010
0001
0010
0000
1000
0000
0100
0000
0110
0000
0001
0000
0100
0000
1000
0000
,
0010
0220
0330
0000
;

//---------------dance-double - ----------------
#NOTEDATA:;
#CHARTNAME:;
#STEPSTYPE:dance-double;
#DESCRIPTION:;
#CHARTSTYLE:;
#DIFFICULTY:Hard;
#METER:13;
#RADARVALUES:0.589382,0.695375,0.389752,0.313703,0.209135,434.000000,393.000000,41.000000,33.000000,0.000000,0.000000,0.000000,0.000000,0.000000,0.589382,0.695375,0.389752,0.313703,0.209135,434.000000,393.000000,41.000000,33.000000,0.000000,0.000000,0.000000,0.000000,0.000000;
#CREDIT:MILEN;
#NOTES:
00000000
00000000
00000000
00000000
,
00000000
00000000
00000000
00000000
,
00000000
00000000
00000000
00000000
,
00000000
00000000
00000000
00000000
,
00000000
00000000
00000000
20000000
,
00000000
00000000
00000000
32000000
,
00000000
00000000
00000000
03020000
,
00000000
00000000
00000000
00032000
,
00000000
00000000
00003020
00000000
00000000
00000000
00000031
00000001
,
00000100
00001000
00000100
00000001
00000100
00000000
00001000
00001000
,
00010000
01000000
00010000
00001000
00010000
00000000
00010000
00010000
,
00001000
00000010
00001000
00010000
00001000
00000000
00010000
00010000
,
00100000
10000000
00100000
00010000
00100000
00000000
10010000
10000000
,
01000000
00100000
00010000
01000000
00001000
00000000
00010000
00001000
,
00000100
00000010
00001000
00000100
00000010
00000000
00000001
00000100
,
00001000
00010000
00100000
01000000
00010000
00000000
10000000
01000000
,
00100000
00001000
00010000
00000100
00000010
00000001
00002001
00000000
,
00003020
00000000
00000000
00000000
00000000
00000000
00000000
00000000
00010030
00001000
00000000
00000000
00001000
00100000
00000000
00000000
,
00100000
00010000
00000000
00000000
10010000
00000000
00000000
00000000
10000000
00000000
01000000
00000000
00010000
00000000
00000000
00000000
,
00001000
00000100
00000001
00000000
00000010
00001000
00010000
00001000
,
00000010
00001000
00011000
00000000
00000001
00000100
00001000
00000000
,
00010000
00100000
10000000
00000000
01000000
00010000
00001000
00010000
,
01000000
00010000
00011000
00000000
10000000
01000000
00010000
00000000
,
00001000
00000010
00000001
00000000
00000100
00001000
00010000
01000000
,
00010000
00001000
00011000
00000000
00000001
00000100
00001000
00000000
,
00010000
00100000
10000000
00000000
01000000
00010000
00001000
00000100
,
00001000
00000000
00010000
00000000
00011000
00000000
00000000
00000000
00001000
00000000
00000000
00100000
00000000
00000000
00010000
00000000
,
00000000
01000000
00000000
00000000
00100000
00000000
10000000
00000000
01000000
00000000
00000000
00010000
00000000
00000000
00001000
00000000
,
00000000
00000010
00000000
00000000
00000001
00000000
00000100
00000000
00001000
00000000
00000000
00010000
00000000
00000000
00001000
00000000
,
00000000
00000010
00000000
00000000
00001000
00000000
00010000
00000000
01000000
00000000
00000000
00010000
00000000
00000000
00001000
00000000
,
00000000
00010000
00000000
00000000
00100000
00000000
10000000
00000000
11000000
00000000
00000000
01010000
00000000
00000000
11000000
00000000
,
00000000
01010000
00000000
00000000
00010000
00000000
00100000
00000000
00101000
00000000
00000000
00011000
00000000
00000000
00010010
00000000
,
00000000
00011000
00000000
00000000
00001000
00000000
00000100
00000000
00000101
00000000
00000000
00001100
00000000
00000000
00000101
00000000
,
00000000
00001100
00000000
00000000
00001000
00000000
00000001
00000000
00000100
00000000
00001000
00000000
00010000
00000000
00100000
00000000
,
10000000
01000000
01100000
00000000
10000000
10000000
01000000
00010000
,
10000000
10000000
00100000
00010000
10000000
01000000
00010000
00001000
,
00000010
00000001
00000100
00000000
00000001
00000001
00000010
00001000
,
00000001
00000001
00000100
00001000
00000001
00000010
00001000
00010000
,
01000000
10000000
00100000
00000000
10000000
10000000
01000000
00100000
,
00010000
00010000
00001000
00000100
00000001
00000100
00000010
00000001
,
00000100
00001000
00000100
00000000
00000001
00000001
00000100
00000010
,
00001000
00001000
00010000
01000000
10100000
00000000
01010000
00000000
,
01000000
00000000
00100000
00000000
10010000
00000000
00000000
00000000
10000000
00000000
02000000
00000000
00000000
03020000
00000000
00000000
,
00032000
00000000
00000000
00003020
00000000
00000000
00000031
00000000
00000001
00000000
00000200
00000000
00000000
00002300
00000000
00000000
,
00023000
00000000
00000000
00230000
00000000
00000000
10300000
00000000
10000000
00000000
02000000
00000000
00000000
03200000
00000000
00000000
,
00302000
00000000
00000000
00023000
00000000
00000000
00030100
00000000
00000100
00000000
00000020
00000000
00000000
00000032
00000000
00000000
,
00000203
00000000
00000000
00002300
00000000
00000000
00013000
00000000
00011000
00000000
01000000
00000000
00010000
00000000
01000000
00000000
,
10000000
01000000
00010000
00000000
00011000
00000100
00001000
00000100
,
00000001
00000100
00001000
00000000
00011000
00100000
00010000
00001000
,
00000010
00001000
00010000
00000000
01010000
00000000
00011000
00000000
,
00001100
00000000
00011000
00000000
00010000
00100000
10000000
01000000
,
00010000
00000000
00001000
00000000
00000010
00000000
00000001
00000000
00000100
00000000
00000000
00001000
00000000
00000000
00022000
00000000
,
00000000
00000000
00033000
00000000
00001000
00000010
00000001
00000100
,
00001000
00000000
00010000
00000000
00100000
00000000
10000000
00000000
01000000
00000000
00000000
00010000
00000000
00000000
00022000
00000000
,
00000000
00000000
00033000
00000000
00001000
00010000
00100000
01000000
,
10000000
00000000
01000000
00000000
00100000
00000000
00010000
00000000
00001000
00000000
00000000
00010000
00000000
00000000
00022000
00000000
,
00000000
00000000
00033000
00000000
00010000
00001000
00000010
00000100
,
00000001
00000000
00000100
00000000
00000010
00000000
00001000
00000000
00010000
00000000
00000000
00010100
00000000
00000000
01001000
00000000
,
00000000
00010010
00000000
00000000
00202000
00000000
00303000
00000000
00100000
00000000
00010000
01000000
00000000
01000000
00010000
00000000
,
10000000
00000000
01000000
00000000
00100000
00000000
00010000
00000000
01000000
00000000
00001000
00010000
00000000
00010000
00001000
00000000
,
00000100
00000000
00000001
00000000
00001001
00000000
00000000
00000000
00000010
00000000
00001000
00000100
00000000
00000100
00001000
00000000
,
00000001
00000000
00000100
00000000
00000010
00000000
00001000
00000000
00000100
00000000
00010000
00001000
00000000
00001000
00010000
00000000
,
01000000
00000000
10000000
00000000
10010000
00000000
00000000
00000000
00100000
00000000
10000000
01000000
10000000
00000000
01000000
00000000
,
00010000
00001000
00010000
00000000
00001000
00000000
00000010
00000000
00000001
00000000
00000100
00000010
00000000
00000010
00001000
00000000
,
00000100
00000000
00010000
00000000
00011000
00000000
00000000
00000000
00001000
00000000
00100000
01000000
00100000
00000000
10000000
00000000
,
00100000
01000000
00100000
00000000
00010000
00000000
00001000
00000000
00000100
00000000
00000010
00000000
00000001
00000000
00000100
00000000
,
00001000
00022000
00033000
00000000
;

//---------------dance-single - ----------------
#NOTEDATA:;
#CHARTNAME:;
#STEPSTYPE:dance-single;
#DESCRIPTION:;
#CHARTSTYLE:;
#DIFFICULTY:Beginner;
#METER:3;
#RADARVALUES:0.130370,0.188935,0.000000,0.038025,0.000000,96.000000,96.000000,0.000000,4.000000,0.000000,0.000000,0.000000,0.000000,0.000000,0.130370,0.188935,0.000000,0.038025,0.000000,96.000000,96.000000,0.000000,4.000000,0.000000,0.000000,0.000000,0.000000,0.000000;
#CREDIT:MILEN;
#NOTES:
0000
0000
0000
0000
,
0000
0000
0000
0000
,
0000
0000
0000
0000
,
0000
0000
0000
0000
,
0000
0000
0000
0000
,
0000
0000
0000
0000
,
0000
0000
0000
0000
,
0000
0000
0000
0000
,
0000
0000
0000
1000
,
0000
0000
0000
0001
,
0000
0000
0000
1000
,
0000
0000
0000
0001
,
0000
0000
0000
1000
,
0000
1000
0000
0001
,
0000
0001
0000
1000
,
0000
0001
0000
1000
,
0000
0001
0001
0001
,
0000
0000
0100
0000
,
0100
0000
0100
0000
,
0000
0000
0010
0000
,
0000
0000
1000
0000
,
0000
0000
0001
0000
,
0000
0000
0100
0000
,
0000
0000
0010
0000
,
0000
0000
1000
0000
,
0000
0000
0001
0000
,
0000
0000
0100
0000
,
0100
0000
0100
0000
,
0000
0000
0010
0000
,
0010
0000
0010
0000
,
0000
0000
1000
0000
,
1000
0000
1000
0000
,
0000
0000
0001
0000
,
0001
0000
0001
0000
,
0001
0001
0001
0000
,
0100
0000
1000
0000
,
0000
0000
0001
0000
,
0100
0000
1000
0000
,
0000
0000
1000
0000
,
0010
0000
0001
0000
,
0000
0000
1000
0000
,
0010
0000
0001
0000
,
0001
0000
1000
0000
,
0010
0000
0100
0000
,
0000
0000
0001
0000
,
0100
0000
0010
0000
,
0010
0000
1000
0000
,
0100
0000
0010
0000
,
0000
0000
0001
0000
,
0010
0000
0100
0000
,
0100
0000
2000
0000
,
0000
3000
1000
1000
,
1000
0000
0002
0000
,
0000
0003
0001
0001
,
0001
0000
2000
0000
,
0000
3000
1000
1000
,
0001
0000
0002
0000
,
0000
0003
0001
0001
,
1000
0000
0001
0000
,
0100
0000
1000
0000
,
0000
0000
1000
0000
,
0010
0000
0001
0000
,
0000
0000
0001
0000
,
0100
0000
1000
0000
,
0010
0000
0001
0000
,
0100
0000
1000
0000
,
0010
0010
0000
0000
;

//---------------dance-single - ----------------
#NOTEDATA:;
#CHARTNAME:;
#STEPSTYPE:dance-single;
#DESCRIPTION:;
#CHARTSTYLE:;
#DIFFICULTY:Easy;
#METER:7;
#RADARVALUES:0.310987,0.442512,0.218642,0.038025,0.000000,229.000000,206.000000,23.000000,4.000000,0.000000,0.000000,0.000000,0.000000,0.000000,0.310987,0.442512,0.218642,0.038025,0.000000,229.000000,206.000000,23.000000,4.000000,0.000000,0.000000,0.000000,0.000000,0.000000;
#CREDIT:MILEN;
#NOTES:
0000
0000
0000
0000
,
0000
0000
0000
0000
,
0000
0000
0000
0000
,
0000
0000
0000
0000
,
0000
0000
0000
0000
,
0000
0000
0000
0000
,
0000
0000
0000
0000
,
0000
0000
0000
0000
,
0000
0000
0000
1000
,
0001
1000
0000
0001
,
1000
0001
0000
1000
,
0010
0100
0000
0001
,
0100
0010
0000
0100
,
0010
0100
0000
0010
,
0100
0010
0000
1000
,
0100
0010
0000
0001
,
0010
0100
0000
1001
,
0000
0000
0100
0100
,
0100
0100
0001
0010
,
0001
0010
1000
0100
,
1000
0100
0001
0010
,
0001
0010
1000
0100
,
1000
0100
0001
0100
,
0001
0100
1000
0010
,
1000
0010
0001
0100
,
0001
0100
1000
0010
,
1000
0010
0001
0010
,
0100
1000
1001
0000
,
1001
0000
0001
0010
,
0100
1000
1001
0000
,
1001
0000
1000
0010
,
0100
0001
1001
0000
,
1001
0000
1000
0010
,
0100
0001
1001
0110
,
2002
3003
1000
0010
,
1000
0100
1000
0010
,
0001
1000
0001
0010
,
0001
0100
0001
0010
,
1000
0001
1000
0100
,
1000
0010
1000
0100
,
0001
1000
0001
0100
,
0001
0010
0001
0100
,
1000
0001
1000
0100
,
0010
0001
0100
0000
,
0100
0000
1000
0100
,
0010
0001
0100
0100
,
0100
1001
0001
0010
,
0100
1000
0010
0000
,
0010
0000
0001
0010
,
0100
1000
0010
0010
,
0010
1001
1000
0100
,
0001
0010
1000
0100
,
0110
0000
0001
0100
,
1000
0010
0001
0100
,
0110
0000
1000
0010
,
0001
0100
1000
0010
,
1001
0000
0001
0010
,
1000
0100
0001
0010
,
1001
0000
1000
0100
,
0010
0001
1000
0100
,
0001
1001
0001
0010
,
0100
1000
0001
0010
,
1000
1001
1000
0010
,
0001
0100
1000
0100
,
0010
0110
0001
0010
,
1000
0100
0110
1001
,
0110
2002
3003
0000
;

//---------------dance-double - ----------------
#NOTEDATA:;
#CHARTNAME:;
#STEPSTYPE:dance-double;
#DESCRIPTION:;
#CHARTSTYLE:;
#DIFFICULTY:Easy;
#METER:7;
#RADARVALUES:0.300123,0.347688,0.142592,0.038025,0.000000,221.000000,206.000000,15.000000,4.000000,0.000000,0.000000,0.000000,0.000000,0.000000,0.300123,0.347688,0.142592,0.038025,0.000000,221.000000,206.000000,15.000000,4.000000,0.000000,0.000000,0.000000,0.000000,0.000000;
#CREDIT:MILEN;
#NOTES:
00000000
00000000
00000000
00000000
,
00000000
00000000
00000000
00000000
,
00000000
00000000
00000000
00000000
,
00000000
00000000
00000000
00000000
,
00000000
00000000
00000000
00000000
,
00000000
00000000
00000000
00000000
,
00000000
00000000
00000000
00000000
,
00000000
00000000
00000000
00000000
,
00000000
00000000
00000000
00001000
,
00010000
00001000
00000000
00010000
,
00001000
00010000
00000000
00001000
,
00100000
00010000
00000000
00100000
,
00001000
00010000
00000000
00001000
,
00010000
00001000
00000000
00010000
,
00001000
00010000
00000000
00000010
,
00010000
00001000
00000000
00010000
,
00000010
00001000
00000000
00001001
,
00000000
00000000
00000001
00000001
,
00000001
00000001
00000100
00001000
,
00000100
00001000
00010000
01000000
,
00010000
01000000
10000000
00100000
,
10000000
00100000
00010000
00001000
,
00010000
00001000
00001000
00000100
,
00001000
00000100
00000001
00000010
,
00000001
00000010
00001000
00010000
,
00001000
00010000
00100000
10000000
,
00100000
10000000
10000000
01000000
,
00100000
00010000
00001000
00000000
,
00011000
00000000
00000001
00000010
,
00000100
00001000
00010000
00000000
,
00011000
00000000
10000000
00100000
,
01000000
00010000
00001000
00000000
,
00011000
00000000
00000001
00000100
,
00000010
00001000
00010000
00001000
,
00022000
00033000
00010000
01000000
,
10000000
01000000
00010000
00001000
,
00010000
01000000
00010000
00001000
,
00000010
00001000
00010000
00001000
,
00000010
00000001
00000010
00001000
,
00010000
00100000
10000000
00100000
,
00010000
00001000
00010000
00100000
,
00010000
00001000
00000010
00000001
,
00000010
00001000
00010000
00100000
,
10000000
01000000
00010000
00000000
,
00010000
00000000
00010000
00100000
,
10000000
01000000
00010000
00001000
,
00010000
00011000
00001000
00000010
,
00000001
00000100
00001000
00000000
,
00001000
00000000
00001000
00000010
,
00000001
00000100
00001000
00010000
,
00001000
00011000
00010000
01000000
,
10000000
00100000
00010000
00001000
,
00011000
00000000
00001000
00000100
,
00000001
00000010
00001000
00010000
,
00011000
00000000
00010000
00100000
,
01000000
10000000
01000000
00100000
,
00011000
00000000
00001000
00000010
,
00000100
00000001
00000100
00000010
,
00011000
00000000
00001000
00010000
,
00100000
01000000
00001000
00010000
,
01000000
10010000
00010000
00001000
,
00000100
00000010
00010000
00001000
,
00000100
00001001
00001000
00010000
,
00100000
10000000
01000000
00010000
,
00001000
00011000
00010000
00001000
,
00000010
00000001
00000100
00001000
,
00010000
00022000
00033000
00000000
;

//---------------dance-single - ----------------
#NOTEDATA:;
#CHARTNAME:;
#STEPSTYPE:dance-single;
#DESCRIPTION:;
#CHARTSTYLE:;
#DIFFICULTY:Medium;
#METER:9;
#RADARVALUES:0.425061,0.474120,0.389752,0.142592,0.019012,313.000000,272.000000,41.000000,15.000000,0.000000,0.000000,0.000000,0.000000,0.000000,0.425061,0.474120,0.389752,0.142592,0.019012,313.000000,272.000000,41.000000,15.000000,0.000000,0.000000,0.000000,0.000000,0.000000;
#CREDIT:MILEN;
#NOTES:
0000
0000
0000
0000
,
0000
0000
0000
0000
,
0000
0000
0000
0000
,
0000
0000
0000
0000
,
0000
0000
0000
2000
,
0000
0000
3000
0020
,
0000
0000
0030
0200
,
0000
0000
0300
0002
,
0000
2000
3003
1001
,
0001
0100
0010
1000
,
0001
0100
0010
1000
,
0100
0010
0001
1000
,
0100
0010
0001
0110
,
1000
0010
0001
0100
,
1000
0001
0010
1000
,
0100
0000
0001
0000
1001
0000
1000
0010
,
1000
0000
0001
0100
0001
0000
2002
0000
,
0000
3003
0100
0100
,
0010
0000
0010
0000
1000
0100
1000
0000
,
0001
0100
0001
0000
1000
0000
0010
0000
,
0001
0000
0100
0000
1000
0010
1000
0000
,
0001
0010
0001
0000
0100
0000
1000
0000
,
0010
0000
1001
0000
0001
0100
0010
0000
,
1000
0010
0100
0000
0001
0000
0010
0000
,
1000
0000
0100
0000
0001
0010
0100
0000
,
1000
0100
0010
0000
0001
0000
0100
0000
,
1000
1001
0010
1010
,
0100
1100
0010
1010
,
1100
1001
0010
0011
,
0100
0101
0010
0011
,
0101
1001
0100
1010
,
0100
0011
0100
1100
,
0101
1100
0010
0101
,
0010
1100
0010
0011
,
2002
3003
1000
0001
,
0100
0010
0100
0000
0001
0000
1000
0000
,
0010
0010
0100
0000
0001
0000
1000
0000
,
0010
1000
0010
0000
1000
0000
0001
0000
,
0100
0001
0001
0000
1000
0000
0010
0000
,
0001
0010
0100
0000
0001
0000
0100
0000
,
1000
0100
0100
0000
0010
0000
1000
0000
,
0100
0001
0100
0000
0010
0000
0001
0000
,
0100
1000
1000
0000
0100
0000
0100
0000
,
0001
0001
0011
0100
,
1000
0001
0011
0100
,
1000
0001
0011
1100
,
1010
0101
0010
0010
,
1000
1000
1100
0010
,
0001
1000
1100
0010
,
0001
1000
1100
0011
,
0101
0000
1010
0000
1000
0100
0010
0000
,
0001
0000
0010
0000
0100
0000
0000
0000
1000
0000
0000
1000
0000
0000
2000
0000
,
0000
0000
3000
0000
0001
0100
0010
0000
,
1000
0000
0010
0000
0100
0000
0000
0000
0001
0000
0000
0001
0000
0000
0002
0000
,
0000
0000
0003
0000
0010
0100
1000
0000
,
0001
0000
0010
0000
0100
0000
0000
0000
0010
0000
0000
0010
0000
0000
0020
0000
,
0000
0000
0030
0000
0001
0100
1000
0000
,
0001
0000
0010
0000
1000
0000
0000
0000
0100
0000
0000
0100
0000
0000
0200
0000
,
0000
0000
0310
0000
0010
0001
0010
0000
,
0100
1000
0100
0000
0010
0001
0010
0100
,
0010
0000
0110
0000
0100
1000
0010
0000
,
0100
0001
0010
0000
0100
1000
0100
0010
,
0100
0000
0110
0000
1000
0010
0100
0000
,
0001
0100
0010
0000
1000
0100
0010
0001
,
1000
0000
1001
0000
0001
0100
1000
0000
,
0001
0010
1000
0000
0100
0010
0001
1000
,
0100
0220
0330
0000
;

//---------------dance-double - ----------------
#NOTEDATA:;
#CHARTNAME:;
#STEPSTYPE:dance-double;
#DESCRIPTION:;
#CHARTSTYLE:;
#DIFFICULTY:Medium;
#METER:9;
#RADARVALUES:0.387036,0.474120,0.247160,0.095062,0.019012,285.000000,259.000000,26.000000,10.000000,0.000000,0.000000,0.000000,0.000000,0.000000,0.387036,0.474120,0.247160,0.095062,0.019012,285.000000,259.000000,26.000000,10.000000,0.000000,0.000000,0.000000,0.000000,0.000000;
#CREDIT:MILEN;
#NOTES:
// measure 0
00000000
00000000
00000000
00000000
,  // measure 1
00000000
00000000
00000000
00000000
,  // measure 2
00000000
00000000
00000000
00000000
,  // measure 3
00000000
00000000
00000000
00000000
,  // measure 4
00000000
00000000
00000000
00000000
,  // measure 5
00000000
00000000
00000000
00000000
,  // measure 6
00000000
00000000
00000000
00000000
,  // measure 7
00000000
00000000
00000000
00000000
,  // measure 8
00000000
00000000
00000000
00011000
,  // measure 9
00010000
01000000
10000000
00100000
,  // measure 10
01000000
00010000
00100000
00001000
,  // measure 11
00010000
00000100
00001000
00000010
,  // measure 12
00000100
00001000
00010000
00011000
,  // measure 13
00001000
00000010
00000001
00000100
,  // measure 14
00000010
00001000
00000100
00010000
,  // measure 15
00001000
00100000
00010000
01000000
,  // measure 16
00100000
00010000
00001000
00022000
,  // measure 17
00000000
00033000
01000000
00001000
,  // measure 18
00010000
00000000
00000010
00000000
00000100
00000001
00000100
00000000
,  // measure 19
00000010
00001000
00000010
00000000
00000100
00000000
00001000
00000000
,  // measure 20
00010000
00000000
00100000
00000000
10000000
01000000
10000000
00000000
,  // measure 21
00010000
00100000
00010000
00000000
01000000
00000000
00100000
00000000
,  // measure 22
00010000
00000000
00011000
00000000
00100000
00010000
00100000
00000000
,  // measure 23
01000000
10000000
01000000
00000000
00100000
00000000
00001000
00000000
,  // measure 24
00010000
00000000
00000100
00000000
00001000
00000100
00001000
00000000
,  // measure 25
00000001
00000010
00000001
00000000
00000100
00000000
00000010
00000000
,  // measure 26
00010000
00011000
00001000
00010000
,  // measure 27
01000000
10000000
10100000
00010000
,  // measure 28
00011000
00001000
00010000
00001000
,  // measure 29
00000010
00000001
00000101
00001000
,  // measure 30
00011000
00010000
00001000
00010000
,  // measure 31
01000000
11000000
00010000
00011000
,  // measure 32
00001000
00010000
00001000
00000100
,  // measure 33
00000001
00000011
00001000
00011000
,  // measure 34
00022000
00033000
00010000
01000000
,  // measure 35
10000000
00100000
00010000
00001000
,  // measure 36
00010000
00001000
00010000
00000000
00001000
00000000
00000100
00000000
,  // measure 37
00000001
00000010
00001000
00010000
,  // measure 38
00001000
00010000
00001000
00000000
00010000
00000000
00100000
00000000
,  // measure 39
10000000
01000000
00100000
00010000
,  // measure 40
00001000
00010000
00001000
00000000
00001000
00000000
00000100
00000000
,  // measure 41
00000001
00000010
00000100
00001000
,  // measure 42
00001000
00010000
00001000
00000000
00010000
00000000
01000000
00000000
,  // measure 43
10000000
00100000
01100000
00010000
,  // measure 44
01000000
00100000
01100000
10000000
,  // measure 45
00100000
01000000
01100000
00010000
,  // measure 46
00001000
00011000
00001000
00000100
,  // measure 47
00000001
00000010
00000110
00001000
,  // measure 48
00000100
00000010
00000110
00000001
,  // measure 49
00000010
00000100
00000110
00001000
,  // measure 50
00010000
00000000
00011000
00000000
00001000
00010000
00000010
00000000
,  // measure 51
00001000
00000000
00000010
00000000
00010000
00000000
00000000
00000000
00001000
00000000
00000000
00001000
00000000
00000000
00002000
00000000
,  // measure 52
00000000
00000000
00003000
00000000
00010000
00001000
00100000
00000000
,  // measure 53
00010000
00000000
00100000
00000000
00001000
00000000
00000000
00000000
00010000
00000000
00000000
00010000
00000000
00000000
00020000
00000000
,  // measure 54
00000000
00000000
00030000
00000000
00001000
00000010
00000001
00000000
,  // measure 55
00000001
00000000
00000100
00000000
00001000
00000000
00000000
00000000
00010000
00000000
00000000
00010000
00000000
00000000
00002000
00000000
,  // measure 56
00000000
00000000
00003000
00000000
00010000
01000000
10000000
00000000
,  // measure 57
10000000
00000000
00100000
00000000
00010000
00000000
00000000
00000000
00001000
00000000
00000000
00001000
00000000
00000000
00020000
00000000
,  // measure 58
00000000
00000000
00031000
00000000
00001000
01000000
00001000
00000000
,  // measure 59
00010000
00000010
00010000
00000000
00001000
00010000
00001000
00000000
,  // measure 60
00010000
00000000
00011000
00000000
00010000
00000100
00010000
00000000
,  // measure 61
00001000
00100000
00001000
00000000
00010000
00001000
00010000
00000000
,  // measure 62
00001000
00000000
00011000
00000000
00010000
00100000
10000000
00000000
,  // measure 63
10000000
01000000
00010000
00000000
00001000
00010000
00001000
00010000
,  // measure 64
00001000
00000000
00011000
00000000
00001000
00000010
00000001
00000000
,  // measure 65
00000001
00000100
00001000
00000000
00010000
00001000
00010000
00001000
,  // measure 66
00010000
00022000
00033000
00000000
;
