#TITLE:Palette;
#SUBTITLE:;
#ARTIST:IU feat. G-Dragon;
#TITLETRANSLIT:;
#SUBTITLETRANSLIT:;
#ARTISTTRANSLIT:;
#GENRE:K-POP;
#CREDIT:MUINELIM;
#BANNER:Palette.png;
#BACKGROUND:Palette-bg.png;
#LYRICSPATH:;
#CDTITLE:;
#MUSIC:Palette.ogg;
#OFFSET:0.625000;
#SAMPLESTART:46.727940;
#SAMPLELENGTH:11.604702;
#SELECTABLE:YES;
#BPMS:0.000000=102.000000
;
#STOPS:12.500000=2.353000
;
#BGCHANGES:0.000=Palette-bg.png=1.000=0=0=1====#000000=#000000,
1.000=Palette.mp4=1.000=1=0=1===CrossFade==,
99999=-nosongbg-=1.000=0=0=0 // don't automatically add -songbackground-
;
#KEYSOUNDS:;
#ATTACKS:;

//---------------dance-single - ----------------
#NOTES:
     dance-single:
     :
     Beginner:
     3:
     0.110426,0.123265,0.000000,0.030019,0.000000,103.000000,103.000000,0.000000,4.000000,0.000000,0.000000,0.110426,0.123265,0.000000,0.030019,0.000000,103.000000,103.000000,0.000000,4.000000,0.000000,0.000000:
0000
0000
0000
0000
,
0000
0000
0000
0000
,
0000
0000
0000
0000
,
0000
1000
0000
1000
,
0000
1000
0000
1000
,
0000
1000
0000
1000
,
0000
1000
0000
0000
,
0000
0001
0000
0001
,
0000
0001
0000
0001
,
0000
0001
0000
0001
,
0000
0001
0000
0000
,
0000
0100
0000
0100
,
0000
0100
0000
0100
,
0000
0100
0000
0100
,
0000
0100
0000
0000
,
0000
0010
0000
0010
,
0000
0010
0000
0010
,
0000
1000
0000
0001
,
0000
0100
0000
0010
,
0000
1000
1000
0000
,
0000
0001
0001
0000
,
0000
0100
0100
0000
,
0000
0010
0010
0000
,
0000
1000
1000
0000
,
0000
0001
0001
0000
,
0000
0100
0100
0000
,
0000
0010
0010
0020
,
0030
0010
0000
1000
,
0000
0001
0000
0100
,
0000
0010
0000
1000
,
0000
0100
0000
0010
,
0000
0001
0000
0100
,
0000
0010
0000
1000
,
0000
0001
0000
0010
,
0000
0100
0000
1000
,
0000
0010
0000
0100
,
0000
0001
0000
1000
,
0000
0100
0000
0010
,
0000
0001
0000
0100
,
0000
0010
0000
1000
,
0000
0001
0000
0010
,
0000
0010
0000
0010
,
0000
0010
0010
0020
,
0030
0010
0001
0000
,
0000
0001
0100
0000
,
0000
0100
0010
0000
,
0000
0010
1000
0000
,
0000
1000
0100
0000
,
0000
0100
0010
0000
,
0000
0010
0001
0000
,
0000
0001
1000
0002
,
0003
0001
0000
0001
,
0000
0001
0000
0001
,
0000
1000
0000
1000
,
0000
2000
0000
3000
;

//---------------dance-single - ----------------
#NOTES:
     dance-single:
     :
     Easy:
     5:
     0.175824,0.205441,0.075047,0.052533,0.000000,164.000000,154.000000,10.000000,7.000000,0.000000,0.000000,0.175824,0.205441,0.075047,0.052533,0.000000,164.000000,154.000000,10.000000,7.000000,0.000000,0.000000:
// measure 0
0000
0000
0000
0000
,  // measure 1
0000
0000
0000
0000
,  // measure 2
0000
0000
0000
0000
,  // measure 3
0000
1000
0000
0100
,  // measure 4
0000
1000
0000
0100
,  // measure 5
0000
1000
0000
0100
,  // measure 6
0000
1001
0000
0100
,  // measure 7
0100
0001
0000
0100
,  // measure 8
0000
0001
0000
0100
,  // measure 9
0000
0001
0000
0100
,  // measure 10
0000
1001
0000
0010
,  // measure 11
0010
1000
0000
0010
,  // measure 12
0000
1000
0000
0010
,  // measure 13
0000
1000
0000
0010
,  // measure 14
0000
1001
0000
0010
,  // measure 15
0010
0001
0000
0010
,  // measure 16
0000
0001
0000
0010
,  // measure 17
0000
0001
0000
0100
,  // measure 18
0000
0010
0000
1000
,  // measure 19
0000
0100
1000
0010
,  // measure 20
0000
1000
0100
0010
,  // measure 21
0000
0010
0001
0100
,  // measure 22
0000
0001
0010
0100
,  // measure 23
0000
0100
1000
0001
,  // measure 24
0000
0010
0001
1000
,  // measure 25
0000
0010
0100
0010
,  // measure 26
1000
0001
0100
0020
,  // measure 27
0030
0010
1000
0100
,  // measure 28
0010
0001
1000
0100
,  // measure 29
0000
0100
1000
0010
,  // measure 30
0100
0001
0010
0100
,  // measure 31
0000
1001
0010
0100
,  // measure 32
0000
1001
0010
0100
,  // measure 33
0000
1001
0010
0100
,  // measure 34
0100
0010
0001
0100
,  // measure 35
1000
0001
0001
1000
,  // measure 36
0001
1000
1000
0001
,  // measure 37
1000
0000
0010
0110
,  // measure 38
0000
0100
0010
0110
,  // measure 39
0000
1000
0100
0001
,  // measure 40
0100
1000
0100
0001
,  // measure 41
1001
0020
0030
0020
,  // measure 42
0030
0010
1000
0200
,  // measure 43
0300
0100
0010
0001
,  // measure 44
1000
0100
0010
0001
,  // measure 45
0100
0010
1000
0001
,  // measure 46
0100
0010
1000
0001
,  // measure 47
0100
0100
0010
0001
,  // measure 48
0010
1000
0010
0001
,  // measure 49
0010
0100
0010
1000
,  // measure 50
0001
0010
0100
2002
,  // measure 51
3003
1000
0000
0010
,  // measure 52
0000
0001
0000
0100
,  // measure 53
0000
1000
0010
0100
,  // measure 54
0001
0002
0000
0000
0000
0000
0003
0000
;

//---------------dance-single - ----------------
#NOTES:
     dance-single:
     :
     Medium:
     8:
     0.288395,0.349250,0.157598,0.165103,0.000000,269.000000,248.000000,21.000000,22.000000,0.000000,0.000000,0.288395,0.349250,0.157598,0.165103,0.000000,269.000000,248.000000,21.000000,22.000000,0.000000,0.000000:
0000
0000
0000
0000
,
0000
0000
0000
0000
,
0000
0000
0000
0000
,
0000
1000
0100
0010
,
0001
1000
0010
0100
,
0001
1000
0100
0010
,
0001
1000
0010
0100
,
0202
0303
0001
0000
0010
0000
0100
0000
,
1000
0001
0100
0010
,
1000
0001
0010
0100
,
1000
0001
0100
0010
,
2020
3030
1000
0000
0001
0000
0010
0000
,
0100
1000
0010
0100
,
0001
0010
0100
0010
,
0001
1000
0100
0010
,
0022
0033
0001
0000
1000
0000
0100
0000
,
0010
0001
1000
0010
,
0100
0002
1003
2000
,
3001
0001
0100
0010
,
0220
0330
0100
0001
0100
0010
0000
0010
,
0100
0000
0001
0010
0100
0000
1000
0010
,
0100
0001
0011
1000
,
1010
0000
0010
0001
0200
0000
0301
0010
,
0100
1000
0010
1000
0010
0100
0000
0100
,
0010
0000
1000
0100
0010
0000
0001
0100
,
0010
1000
1100
0001
,
0101
0000
0100
1000
0020
0000
0200
0000
,
0330
0000
0010
1000
0100
0000
1000
0010
,
0100
0000
0010
1000
0100
0010
0011
0000
,
0000
0000
0010
0001
0100
0000
0001
0010
,
0100
0000
0010
0001
0100
0010
1010
0000
,
0000
0000
1000
0001
0100
0000
1000
0001
,
0100
0000
1000
0001
0010
0000
1000
0001
,
0010
0000
0000
0000
1000
0000
1000
0100
,
0010
0000
0001
0010
0100
0000
1000
0010
,
0110
0000
0001
0100
1000
0000
0001
0100
,
1000
0000
0010
0000
0100
0000
0010
0100
,
0010
0010
0000
0000
1000
0000
0001
0000
,
0010
1000
0001
0100
,
1000
0000
0010
0100
0002
0000
0103
0010
,
2000
0000
3010
0100
0001
0100
0010
0010
,
0000
1010
0000
1010
0000
0101
0000
0101
,
0000
0001
1000
0001
0100
0010
0220
0000
,
0330
0000
0100
1000
0100
0010
0000
0010
,
0100
0000
0001
0010
0100
0000
1000
0010
,
0100
0001
0011
1000
,
1010
0000
0010
0001
0200
0000
0301
0100
,
0010
1000
0100
0010
0100
1000
0000
0100
,
0010
0000
0001
0100
1000
0000
1000
0100
,
0001
1000
1100
0001
,
0101
0000
0100
1000
0020
0000
0200
0000
,
0330
1000
0010
0001
,
0100
1000
0010
0001
,
0100
1000
0010
0001
,
0100
0220
0000
0000
0000
0000
0330
0000
;

//---------------dance-single - ----------------
#NOTES:
     dance-single:
     :
     Hard:
     11:
     0.415974,0.410882,0.157598,0.060038,0.311445,388.000000,367.000000,21.000000,8.000000,0.000000,0.000000,0.415974,0.410882,0.157598,0.060038,0.311445,388.000000,367.000000,21.000000,8.000000,0.000000,0.000000:
0000
0000
0000
0000
,
0000
0000
0000
0000
,
0000
0000
0000
0000
,
0000
0000
1001
0000
1000
0100
0000
0001
,
0100
1000
0001
0000
1000
0010
0000
0001
,
0010
1000
0001
0000
1000
0100
0000
0001
,
0100
1000
0001
0000
1000
0010
0001
0010
,
0110
0000
1001
0000
0001
0010
0000
1000
,
0010
0001
1000
0000
0001
0100
0000
1000
,
0100
0001
1000
0000
0001
0010
0000
1000
,
0010
0001
1000
0000
0001
0100
1000
0100
,
0110
0000
1010
0000
1000
0100
0000
0001
,
0100
1000
0001
0000
1000
0010
0000
0001
,
0010
1000
0001
0000
1000
0100
0000
0010
,
0100
1000
0010
0001
0010
1000
0100
0010
,
0110
0000
0011
0000
0001
0010
0000
1000
,
0010
0001
1000
0000
0001
0100
1000
0100
,
0001
0021
0000
0130
0000
1200
0000
0310
,
0000
0010
0001
0100
0010
0100
0000
0100
,
0010
0000
1000
0000
1001
0000
0000
0001
0100
0000
0000
0100
0010
0000
0000
0010
,
1000
0000
0000
1000
0100
0000
0000
0100
0010
0000
0000
0010
0001
0000
0000
0001
,
0100
0000
0000
0100
0010
0000
0000
0010
1000
0000
0000
1000
0100
0000
0000
0100
,
0001
0000
0000
0001
0100
0000
0000
0100
1000
0000
0000
1000
0010
0000
0100
0000
,
0100
0000
0001
0000
1001
0000
0000
1000
0100
0000
0000
0100
0010
0000
0000
0010
,
0001
0000
0000
0001
0100
0000
0000
0100
0010
0000
0000
0010
1000
0000
0000
1000
,
0001
0000
0000
0001
0010
0000
0000
0010
1000
0000
0000
1000
0010
0000
0000
0010
,
0001
0000
0000
0000
0000
0000
0000
0000
0000
0001
0000
0000
0100
0000
0000
0000
0000
0000
0000
0000
0000
0100
0000
0000
0010
0000
0000
0000
0000
0000
0000
0000
0000
0010
0000
0000
1000
0000
0000
0000
0100
0000
0000
0000
0010
0000
0000
0000
,
0001
0000
1000
0100
1000
0000
1000
0000
0100
0000
0100
0000
0010
0000
0010
0000
,
0001
0000
0001
0000
0100
0000
0100
0000
0010
0000
0100
0010
0000
0000
0110
0000
,
0000
0000
0010
1000
0010
0000
1000
0000
0100
0000
0010
0000
0001
0100
0001
0000
,
0100
0000
0010
0000
1000
0100
1000
0000
0001
0000
0100
0010
0000
0000
0100
0001
,
0000
0000
0010
0000
0110
0000
0100
0000
1000
0000
0010
0000
0100
0000
0001
1000
,
0000
0000
0001
0000
0010
0000
0100
0000
1000
0000
0010
0000
0100
0000
0010
1000
,
0000
0100
0000
1000
1100
0010
0001
0100
,
0010
0000
0000
0000
0100
0000
0001
0000
0010
0000
0100
0000
1000
0010
1000
0010
,
0000
0000
1000
0000
1000
0000
0001
0010
0001
0010
0000
0000
0001
0000
0100
0000
,
0110
0000
0000
0000
0010
0000
1000
0000
0100
0000
0010
0000
0001
0000
0100
0010
,
0100
0010
0000
1000
0100
0001
0100
1000
,
0010
0000
0001
0010
1000
0010
0001
0100
,
0010
0000
0000
0000
0010
1000
0010
0000
1000
0000
0100
0010
0100
0000
0010
0000
,
0001
0000
0000
0000
0001
0100
0001
0000
1000
0000
0100
0000
0000
0000
0220
0330
,
0000
0012
0000
1003
0000
2100
0000
3001
,
0000
0000
0000
0001
0000
0000
0100
0000
0000
0010
0000
0000
1000
0000
0000
0001
0000
0000
0100
0000
0010
0000
1000
0000
,
0100
0000
0000
0000
0010
0000
0000
0000
0001
0000
0000
0000
1001
0000
0000
0000
0000
0000
0000
0000
0000
1000
0000
0000
0010
0000
0000
0000
0000
0000
0000
0000
0000
0010
0000
0000
0100
0000
0000
0000
0000
0000
0000
0000
0000
0100
0000
0000
,
0001
0000
0000
0001
0010
0000
0000
0010
0100
0000
0000
0100
1000
0000
0000
1000
,
0010
0000
0000
0010
0001
0000
0000
0001
0010
0000
0000
0010
0100
0000
0000
0100
,
1000
0000
0000
1000
0100
0000
0000
0100
0001
0000
0000
0001
0010
0000
0100
0000
,
0100
0000
1000
0000
1001
0000
0000
0001
0010
0000
0000
0010
0100
0000
0000
0100
,
1000
0000
0000
1000
0010
0000
0000
0010
0001
0000
0000
0001
0010
0000
0000
0010
,
1000
0000
0000
1000
0100
0000
0000
0100
0001
0000
0000
0001
0100
0000
0000
0100
,
0010
0000
0000
0000
0000
0000
0000
0000
0000
0010
0000
0000
0001
0000
0000
0000
0000
0000
0000
0000
0000
0001
0000
0000
0100
0000
0000
0000
0000
0000
0000
0000
0000
0100
0000
0000
0010
0000
0000
0000
1000
0000
0000
0000
0001
0000
0000
0000
,
0010
0100
1000
0010
0000
0000
0001
0000
0000
0100
0000
0000
,
1000
0010
0001
0100
,
1000
0010
0001
0100
,
1000
2002
0000
0000
0000
0000
3003
0000
;

//---------------dance-double - ----------------
#NOTES:
     dance-double:
     :
     Easy:
     5:
     0.180113,0.205441,0.097561,0.052533,0.000000,168.000000,155.000000,13.000000,7.000000,0.000000,0.000000,0.180113,0.205441,0.097561,0.052533,0.000000,168.000000,155.000000,13.000000,7.000000,0.000000,0.000000:
00000000
00000000
00000000
00000000
,
00000000
00000000
00000000
00000000
,
00000000
00000000
00000000
00000000
,
00000000
00001000
00000000
01000000
,
00000000
00001000
00000000
01000000
,
00000000
00001000
00000000
01000000
,
00000000
00011000
00000000
00001000
,
00001000
00010000
00000000
00000010
,
00000000
00010000
00000000
00000010
,
00000000
00010000
00000000
00000010
,
00000000
00011000
00000000
00010000
,
00010000
00000100
00000000
00010000
,
00000000
00000100
00000000
00010000
,
00000000
00000100
00000000
00010000
,
00000000
00011000
00000000
00001000
,
00001000
00100000
00000000
00001000
,
00000000
00100000
00000000
00001000
,
00000000
00010000
00000000
00000010
,
00000000
00010000
00000000
00011000
,
00000000
00001000
00010000
01000000
,
00000000
10000000
01000000
00010000
,
00000000
00001000
00010000
01000000
,
00000000
00010000
00001000
00000010
,
00000000
00000001
00000010
00001000
,
00000000
00010000
00001000
00000010
,
00000000
00000001
00000010
00001000
,
00010000
00100000
10000000
02000000
,
03000000
01000000
00100000
00010000
,
01000000
00100000
00010000
00011000
,
00000000
00000010
00000100
00001000
,
00000010
00000100
00001000
00011000
,
00000000
00100000
00010000
01010000
,
00000000
01000000
00001000
00011000
,
00000000
00010000
00000100
00001100
,
00001000
00000001
00000100
00001000
,
00010000
00100000
00010000
00001000
,
00000010
00001000
00010000
01000000
,
11000000
00000000
10000000
00100000
,
01000000
00010000
00100000
00101000
,
00000000
00001000
00010000
01000000
,
00010000
00001000
00000100
00000001
,
00000011
00000200
00000300
00000200
,
00000300
00000001
00000010
00002000
,
00003000
00010000
00001000
00000100
,
00000001
00000010
00000001
00000100
,
00001000
00010000
01000000
10000000
,
00100000
10000000
01000000
00010000
,
00001000
00100000
01000000
00010000
,
00001000
00010000
01000000
00100000
,
00001000
00010000
00100000
00001000
,
00000010
00010000
00001000
00022000
,
00033000
10000000
00000000
01000000
,
00000000
00100000
00000000
00010000
,
00000000
00001000
00000010
00000100
,
00000001
00000002
00000000
00000000
00000000
00000000
00000003
00000000
;

//---------------dance-double - ----------------
#NOTES:
     dance-double:
     :
     Medium:
     9:
     0.288395,0.308161,0.142589,0.082552,0.000000,269.000000,250.000000,19.000000,11.000000,0.000000,0.000000,0.288395,0.308161,0.142589,0.082552,0.000000,269.000000,250.000000,19.000000,11.000000,0.000000,0.000000:
00000000
00000000
00000000
00000000
,
00000000
00000000
00000000
00000000
,
00000000
00000000
00000000
00000000
,
00000000
00001000
00010000
00100000
,
10000000
01000000
10000000
00100000
,
00010000
00001000
00100000
00010000
,
01000000
00100000
00010000
00001000
,
00011000
00010000
00001000
00000100
,
00000001
00000010
00000001
00000100
,
00001000
00010000
00000100
00001000
,
00000010
00000100
00001000
00010000
,
00011000
00001000
01000000
00100000
,
00010000
00100000
10000000
01000000
,
00100000
01000000
00010000
00001000
,
00000010
00000100
00010000
00001000
,
00011000
00010000
00000100
00000010
,
00000001
00000010
00001000
00010000
,
00100000
20000000
30020000
00032000
,
00003001
00000001
00000100
00001000
,
00011000
00000000
00010000
00000100
00010000
00001000
00000000
00001000
,
00000100
00000000
00000001
00000010
00000100
00000000
00000010
00000100
,
00010000
00001000
00101000
00010000
,
00010010
00000000
00000010
00001000
00000100
00000000
00000010
00000100
,
00010000
00000000
00001000
01000000
00001000
00010000
00000000
00010000
,
01000000
00000000
10000000
00100000
01000000
00000000
00100000
01000000
,
00001000
00010000
00010010
00001000
,
00101000
00000000
00100000
00010000
01000000
00000000
00001000
00010000
,
01000000
10000000
00100000
01000000
00100000
00000000
10000000
00100000
,
00010000
00000000
00100000
00010000
00001000
00000010
00000001
00000000
,
00000000
00000000
00000100
00000010
00000100
00000000
00000001
00000010
,
00001000
00000000
00000010
00001000
00010000
00100000
10000000
00000000
,
00000000
00000000
01000000
00100000
00010000
00000000
00100000
00010000
,
00001000
00000000
00010000
00001000
00000100
00000000
00001000
00000100
,
00000010
00000000
00000000
00000000
00000011
00000000
00000001
00000100
,
00001000
00000000
00000100
00001000
00010000
00000000
00001000
00010000
,
01000000
00000000
10000000
00100000
01000000
00000000
10000000
01000000
,
00010000
00000000
00110000
00000000
01000000
00000000
00001000
00010000
,
00100000
00100000
00000000
00000000
00010000
00000000
00001000
00000000
,
00000010
00000001
00000100
00001000
,
00011000
00000000
00010000
00000100
00001000
00000000
00000100
00010000
,
00001000
00000000
00010000
00100000
10000000
01000000
00100000
00100000
,
00000000
00210000
00000000
00301000
00000000
00021000
00000000
00030010
,
00000000
00000010
00001000
00000100
00000010
00000001
00002002
00000000
,
00003003
00000000
00001000
00000100
00010000
00001000
00000000
00001000
,
01000000
00000000
00010000
00100000
01000000
00000000
10000000
00100000
,
00010000
00001000
00101000
00010000
,
00010010
00000000
00000010
00001000
00000100
00000000
00000010
00000001
,
00000100
00001000
00010000
00001000
00000100
00000001
00000000
00000010
,
00000100
00000000
00001000
00000010
00010000
00000000
00001000
00010000
,
01000000
10000000
10100000
01000000
,
01001000
00000000
00001000
00010000
00000200
00000000
00000020
00000000
,
00000330
00000001
00000100
00001000
,
00010000
00100000
10000000
01000000
,
00010000
00001000
00000010
00000001
,
00000100
00000220
00000000
00000000
00000000
00000000
00000330
00000000
;

//---------------dance-double - ----------------
#NOTES:
     dance-double:
     :
     Hard:
     12:
     0.420263,0.431426,0.172608,0.060038,0.303940,392.000000,369.000000,23.000000,8.000000,0.000000,0.000000,0.420263,0.431426,0.172608,0.060038,0.303940,392.000000,369.000000,23.000000,8.000000,0.000000,0.000000:
00000000
00000000
00000000
00000000
,
00000000
00000000
00000000
00000000
,
00000000
00000000
00000000
00000000
,
00000000
00000000
00011000
00000000
00010000
01000000
00000000
10000000
,
00100000
00010000
00001000
00000000
00010000
00100000
00000000
10000000
,
00100000
00010000
00001000
00000000
00010000
00100000
00000000
10000000
,
01000000
00010000
00001000
00000000
00010000
00000100
00001000
00000100
,
00010000
00000000
00011000
00000000
00001000
00000010
00000000
00000001
,
00000100
00001000
00010000
00000000
00001000
00000100
00000000
00000001
,
00000100
00001000
00010000
00000000
00001000
00000100
00000000
00000001
,
00000010
00001000
00010000
00000000
00001000
00100000
00010000
00100000
,
00001000
00000000
00011000
00000000
00010000
00000100
00000000
00000010
,
00000100
00001000
00000010
00000000
00010000
00000100
00000000
00000001
,
00000100
00010000
00001000
00000000
00100000
01000000
00000000
10000000
,
00100000
00010000
00001000
01000000
00100000
10000000
00100000
00010000
,
00001000
00000000
00011000
00000000
00010000
01000000
00000000
10000000
,
00100000
01000000
10000000
00000000
01000000
00001000
00010000
00000100
,
00000010
00000011
00000000
00001100
00000000
01010000
00000000
10100000
,
00000000
10000000
01000000
00100000
00010000
01000000
00000000
01000000
,
00001000
00000000
00010000
00000000
00011000
00000000
00000000
00001000
00100000
00000000
00000000
00100000
00010000
00000000
00000000
00010000
,
01000000
00000000
00000000
01000000
00100000
00000000
00000000
00100000
10000000
00000000
00000000
10000000
01000000
00000000
00000000
01000000
,
00010000
00000000
00000000
00010000
00001000
00000000
00000000
00001000
00000010
00000000
00000000
00000010
00000001
00000000
00000000
00000001
,
00000100
00000000
00000000
00000100
00001000
00000000
00000000
00001000
00010000
00000000
00000000
00010000
00100000
00000000
10000000
00000000
,
01000000
00000000
00010000
00000000
00011000
00000000
00000000
00010000
00000010
00000000
00000000
00000010
00000100
00000000
00000000
00000100
,
00000001
00000000
00000000
00000001
00000010
00000000
00000000
00000010
00001000
00000000
00000000
00001000
00010000
00000000
00000000
00010000
,
00100000
00000000
00000000
00100000
10000000
00000000
00000000
10000000
01000000
00000000
00000000
01000000
00100000
00000000
00000000
00100000
,
00010000
00000000
00000000
00000000
00000000
00000000
00000000
00000000
00000000
00010000
00000000
00000000
00001000
00000000
00000000
00000000
00000000
00000000
00000000
00000000
00000000
00001000
00000000
00000000
00000010
00000000
00000000
00000000
00000000
00000000
00000000
00000000
00000000
00000010
00000000
00000000
00000100
00000000
00000000
00000000
00000001
00000000
00000000
00000000
00000100
00000000
00000000
00000000
,
00000101
00000000
00000001
00000010
00000001
00000000
00000001
00000000
00001000
00000000
00001000
00000000
00000100
00000000
00000100
00000000
,
00000010
00000000
00000010
00000000
00001000
00000000
00001000
00000000
00010000
00000000
01000000
00100000
00000000
00000000
01100000
00000000
,
00000000
00000000
01000000
00100000
00010000
00000000
01000000
00000000
10000000
00000000
01000000
00000000
00100000
01000000
00100000
00000000
,
00010000
00000000
00001000
00000000
00000100
00000010
00000100
00000000
00000001
00000000
00000010
00000001
00000000
00000000
00000100
00001000
,
00000000
00000000
00010000
00000000
00011000
00000000
00100000
00000000
00010000
00000000
01000000
00000000
00100000
00000000
10000000
01000000
,
10000000
00000000
01000000
00000000
00010000
00000000
00001000
00000000
00100000
00000000
00010000
00000000
01000000
00000000
00100000
10000000
,
00100000
01000000
00000000
00010000
00110000
00100000
00001000
00010000
,
00100000
00000000
00000000
00000000
00001000
00000000
00000010
00000000
00000100
00000000
00000001
00000000
00000010
00000100
00000010
00000000
,
00000110
00000000
00000001
00000000
00000001
00000000
00000100
00001000
00000100
00000000
00000010
00000000
00010000
00000000
00001000
00000000
,
00101000
00000000
00000000
00000000
00100000
00000000
00010000
00000000
10000000
00000000
00100000
00000000
00010000
00000000
00001000
00010000
,
00001000
00000100
00000000
00000001
00000010
00000100
00001000
00010000
,
01000000
00000000
10000000
01000000
00100000
00010000
00001000
00000010
,
00000100
00000000
00000000
00000000
00000001
00000100
00000010
00000000
00000001
00000000
00000010
00000100
00000001
00000000
00000010
00000000
,
00000011
00000000
00000000
00000000
00000001
00000100
00001000
00000000
00010000
00000000
00200000
00000000
00000000
00000000
20000000
30300000
,
00000000
12000000
00000000
03010000
00000000
00001020
00000000
00000031
,
00000000
00000000
00000000
00000001
00000000
00000000
00000010
00000000
00000000
00000100
00000000
00000000
00001000
00000000
00000000
00010000
00000000
00000000
01000000
00000000
00100000
00000000
10000000
00000000
,
00100000
00000000
00000000
00000000
10000000
00000000
00000000
00000000
01000000
00000000
00000000
00000000
00100000
00000000
00000000
00000000
00000000
00000000
00000000
00000000
00000000
00100000
00000000
00000000
00010000
00000000
00000000
00000000
00000000
00000000
00000000
00000000
00000000
00010000
00000000
00000000
01000000
00000000
00000000
00000000
00000000
00000000
00000000
00000000
00000000
01000000
00000000
00000000
,
00001000
00000000
00000000
00001000
00010000
00000000
00000000
00010000
00000100
00000000
00000000
00000100
00001000
00000000
00000000
00001000
,
00000010
00000000
00000000
00000010
00000100
00000000
00000000
00000100
00000001
00000000
00000000
00000001
00000010
00000000
00000000
00000010
,
00001000
00000000
00000000
00001000
00010000
00000000
00000000
00010000
01000000
00000000
00000000
01000000
10000000
00000000
00100000
00000000
,
01000000
00000000
00100000
00000000
10100000
00000000
00000000
10000000
01000000
00000000
00000000
01000000
00010000
00000000
00000000
00010000
,
00001000
00000000
00000000
00001000
00000010
00000000
00000000
00000010
00000001
00000000
00000000
00000001
00000100
00000000
00000000
00000100
,
00010000
00000000
00000000
00010000
00001000
00000000
00000000
00001000
01000000
00000000
00000000
01000000
10000000
00000000
00000000
10000000
,
00100000
00000000
00000000
00000000
00000000
00000000
00000000
00000000
00000000
00100000
00000000
00000000
01000000
00000000
00000000
00000000
00000000
00000000
00000000
00000000
00000000
01000000
00000000
00000000
00010000
00000000
00000000
00000000
00000000
00000000
00000000
00000000
00000000
00010000
00000000
00000000
00001000
00000000
00000000
00000000
00100000
00000000
00000000
00000000
00001000
00000000
00000000
00000000
,
00010000
00000010
00010000
00012000
00000000
00000000
00100000
00000000
00000000
01000000
00000000
00000000
,
00000100
00000010
00100000
01000000
,
00013000
00020010
00030100
00102000
,
01000000
02000000
00000000
00000000
00000000
00000000
03003000
00000000
;

//---------------dance-single - ----------------
#NOTES:
     dance-single:
     :
     Challenge:
     13:
     0.457786,0.515947,0.337711,0.187617,0.322702,427.000000,382.000000,45.000000,25.000000,236.000000,0.000000,0.457786,0.515947,0.337711,0.187617,0.322702,427.000000,382.000000,45.000000,25.000000,236.000000,0.000000:
0000
0000
0000
0000
,
0000
0000
0000
0000
,
0000
0000
0000
0000
,
0000
MMMM
2002
3003
MMMM
1000
0100
0010
,
0001
1000
MMMM
0000
MMMM
1000
0100
0010
,
0001
1000
MMMM
0000
MMMM
1000
0100
0010
,
0001
1000
MMMM
MMMM
0010
1000
0001
0100
,
0110
MMMM
2002
3003
MMMM
0001
0100
0010
,
1000
0001
MMMM
0000
MMMM
0001
0100
0010
,
1000
0001
MMMM
0110
MMMM
0001
1000
0000
,
MMMM
0110
MMMM
1000
0002
0000
0103
0010
,
0110
MMMM
2002
3003
1000
0010
MMMM
0001
,
0100
0000
1001
MMMM
0001
0010
0100
1000
,
0010
0110
MMMM
1100
MMMM
0011
MMMM
1010
,
MMMM
0102
0000
0000
0000
1000
1003
0000
,
0110
MMMM
2002
3003
0001
0010
MMMM
1000
,
0100
0000
0110
0000
0010
0001
0010
0100
,
1000
1010
MMMM
0011
MMMM
1100
MMMM
0101
,
MMMM
0001
0010
0100
1000
0020
0000
0130
,
0010
0000
0100
0000
1001
0000
0000
0001
0100
0000
0010
0000
1000
0100
1000
0100
,
1000
0010
0100
0001
MMMM
0012
0000
1003
,
1100
0000
0100
0000
0010
0000
0000
0100
0001
0000
0100
0000
1000
0000
0010
0000
,
MMMM
0000
0001
0000
0100
0000
0010
0100
0020
0000
0000
0000
1030
0001
1000
0000
,
0100
0000
0010
0000
1001
0000
0000
1000
0100
0000
0010
0000
0001
0100
0001
0100
,
0001
0010
0100
1000
MMMM
2010
0000
3001
,
0101
0000
0100
0000
0010
0000
0000
0001
0010
0000
1000
0000
0100
0000
0001
0000
,
1000
0000
0000
0010
0000
0000
MMMM
0000
0000
0110
0000
0000
0001
0000
0000
0100
0000
0000
1000
0000
0010
0000
1000
0000
,
0001
0000
0000
0000
0010
0000
0000
0000
0000
0001
0000
0000
0100
0000
0000
0000
0000
0000
0010
0000
0000
1000
0000
0000
0010
0000
0000
0000
0000
0000
0100
0000
0000
0001
0000
0000
0100
0000
0000
0000
0000
0000
0001
0000
0000
0010
0000
0000
,
0001
0000
1000
0100
1000
0000
0001
1000
0001
0000
0100
0020
0000
0000
0130
0000
,
MMMM
0000
1010
0000
0101
0000
0001
0010
0100
1000
0000
0000
0001
0100
0001
0010
,
0100
1000
0000
0000
0001
0100
0001
0010
0100
1000
0010
0100
0000
0000
0010
0100
,
MMMM
0000
0010
1000
0010
0000
0100
0001
0100
0000
0001
0010
0001
0000
1000
0100
,
0000
0000
MMMM
0000
1000
0010
1000
0010
1000
0000
0001
0100
0001
0000
1000
0001
,
0000
0000
MMMM
0000
MMMM
0000
0100
0010
1000
0000
0010
0100
0010
0100
0001
0000
,
MMMM
0000
0001
0010
0100
0000
0010
0100
1000
0000
0100
0010
0100
0010
0001
0000
,
MMMM
0000
0001
0100
0010
0000
1000
0010
0100
0001
0000
0010
0100
0010
0100
0000
,
1100
0000
MMMM
0000
1000
0010
1000
0010
0100
0001
0100
0000
MMMM
0000
0100
1000
,
0100
0000
0110
0000
MMMM
0000
0010
1000
0100
0000
0010
0001
0100
0000
0010
0100
,
0000
0000
0001
0010
0100
0000
1000
0100
0010
0000
0001
0100
0010
0000
1000
0001
,
MMMM
0000
0001
1000
0100
0010
0001
0000
MMMM
0000
0001
1000
0100
0010
0001
0000
,
MMMM
0000
0000
0000
0001
0100
0001
0100
0010
1000
0100
0000
MMMM
0000
0220
0000
,
0330
0011
MMMM
0101
MMMM
1100
MMMM
1010
,
MMMM
0000
0000
0110
0000
0000
0001
0000
0000
0100
0000
0000
1000
0000
0000
0010
0000
0000
0001
0000
0100
0000
0001
0000
,
1000
0000
0000
0000
0100
0000
0000
0000
1000
0000
0000
0000
1001
0000
0000
0000
0000
0000
0000
0000
0000
0001
0000
0000
0010
0000
0000
0000
0000
0000
0100
0000
0000
0000
0000
0000
1000
0000
0000
0010
0000
0000
0100
0000
0000
0010
0000
0000
,
1000
0100
0010
0001
MMMM
0102
0000
1003
,
1010
0000
0010
0000
0100
0000
0000
0010
0001
0000
0010
0000
1000
0000
0100
0000
,
MMMM
0000
0001
0000
0010
0000
0100
0010
0200
0000
0000
0000
1300
0001
1000
0000
,
0010
0000
0100
0000
1001
0000
0000
1000
0010
0000
0100
0000
0001
0010
0100
0010
,
0001
0100
0010
1000
MMMM
2100
0000
3001
,
0011
0000
0010
0000
0100
0000
0000
0001
0100
0000
1000
0000
0010
0000
0001
0000
,
1000
0000
0000
0100
0000
0000
MMMM
0000
0000
0110
0000
0000
0001
0000
0000
0010
0000
0000
1000
0000
0100
0000
1000
0000
,
0001
0100
0001
2000
0000
0000
0010
0000
0000
0001
0000
0000
,
3100
MMMM
0002
0000
0010
0000
1000
0000
,
0103
MMMM
0020
0000
0001
0000
0100
0000
,
1030
2002
0000
0000
0000
0000
3003
MMMM
,
MMMM
0000
0000
0000
;

//---------------dance-double - ----------------
#NOTES:
     dance-double:
     :
     Challenge:
     13:
     0.428839,0.474672,0.247655,0.180113,0.266417,400.000000,367.000000,33.000000,24.000000,456.000000,0.000000,0.428839,0.474672,0.247655,0.180113,0.266417,400.000000,367.000000,33.000000,24.000000,456.000000,0.000000:
00000000
00000000
00000000
00000000
,
00000000
00000000
00000000
00000000
,
00000000
00000000
00000000
00000000
,
00000000
MMMMMMMM
00022000
00033000
MMMMMMMM
00001000
00010000
01000000
,
00010000
00001000
MMMMMMMM
00000000
MMMMMMMM
00010000
00001000
00000010
,
00001000
00010000
MMMMMMMM
00000000
MMMMMMMM
00001000
00010000
00100000
,
00010000
00001000
MMMMMMMM
MMMMMMMM
00010000
00001000
00000100
00001000
,
00010000
MMMMMMMM
00022000
00033000
MMMMMMMM
00010000
00100000
10000000
,
01000000
00010000
MMMMMMMM
00000000
MMMMMMMM
00001000
00000010
00000001
,
00000100
00001000
MMMMMMMM
00011000
MMMMMMMM
00010000
00100000
00000000
,
MMMMMMMM
10010000
MMMMMMMM
10000000
02000000
00000000
03010000
00001000
,
00010000
MMMMMMMM
00022000
00033000
00001000
00000100
MMMMMMMM
00000001
,
00000010
00000000
00000110
MMMMMMMM
00000001
00000100
00001000
00010000
,
00100000
10000000
MMMMMMMM
00010000
MMMMMMMM
00001000
MMMMMMMM
00000001
,
MMMMMMMM
00000201
00000000
00000000
00000000
00001300
00010000
00000000
,
00011000
MMMMMMMM
02200000
03300000
10000000
01000000
MMMMMMMM
00010000
,
00100000
00000000
10010000
00000000
00010000
01000000
00001000
00010000
,
00000100
00000010
MMMMMMMM
00001000
MMMMMMMM
00010000
MMMMMMMM
01000000
,
MMMMMMMM
00100000
01000000
10000000
00100000
00020000
00000000
00031000
,
00000100
00000000
00000001
00000000
00001001
00000000
00000000
00000100
00000010
00000000
00000100
00000000
00000001
00001000
00000001
00001000
,
00000001
00000100
00000010
00010000
MMMMMMMM
00012000
00000000
01003000
,
01010000
00000000
00010000
00000000
00100000
00000000
00000000
01000000
10000000
00000000
00100000
00000000
00010000
00000000
00001000
00000000
,
MMMMMMMM
00000000
00001000
00000000
00010000
00000000
00100000
00000000
20000000
00000000
00000000
00000000
31000000
00100000
01000000
00000000
,
00100000
00000000
00010000
00000000
10010000
00000000
00000000
00100000
01000000
00000000
00100000
00000000
10000000
00010000
10000000
00010000
,
10000000
00100000
01000000
00001000
MMMMMMMM
00021000
00000000
00030010
,
00001010
00000000
00001000
00000000
00000100
00000000
00000000
00000010
00000001
00000000
00000100
00000000
00001000
00000000
00010000
00000000
,
00100000
00000000
00000000
10000000
00000000
00000000
MMMMMMMM
00000000
00000000
01100000
00000000
00000000
01000000
00000000
00000000
00010000
00000000
00000000
00001000
00000000
00010000
00000000
00001000
00000000
,
00010000
00000000
00000000
00000000
00001000
00000000
00000000
00000000
00010000
00000000
00000000
00000000
00000100
00000000
00000000
00000000
00000000
00000000
00000010
00000000
00000000
00000001
00000000
00000000
00000010
00000000
00000000
00000000
00000000
00000000
00001000
00000000
00000000
00000000
00000000
00000000
00010000
00000000
00000000
00000000
00000000
00000000
01000000
00000000
00000000
10000000
00000000
00000000
,
01000000
00000000
00010000
00000000
00001000
00000000
00000100
00000001
00000100
00000000
00001000
00020000
00000000
00000000
00031000
00000000
,
MMMMMMMM
00000000
00001000
00000000
00010000
00000000
00000100
00001000
00000100
00001000
00000000
00000000
00000001
00000000
00001000
00000100
,
00001000
00000100
00000000
00000000
00010000
00000000
00001000
00010000
00001000
00000000
00100000
01000000
00000000
00000000
10000000
00010000
,
00000000
00000000
01000000
00100000
01000000
00000000
00100000
00000000
10000000
00000000
01000000
00100000
01000000
00000000
00100000
00001000
,
00000000
00000000
MMMMMMMM
00000000
00010000
00001000
00010000
00001000
00010000
00000000
00000100
00001000
00000100
00000000
00000010
00000001
,
00000000
00000000
MMMMMMMM
00000000
MMMMMMMM
00000000
00000010
00001000
00010000
00000000
00001000
00010000
00100000
00000000
10000000
00000000
,
MMMMMMMM
00000000
01000000
00010000
00001000
00000000
00010000
00001000
00000100
00000000
00000001
00000010
00000100
00000000
00000110
00000000
,
MMMMMMMM
00000000
00000001
00000100
00000010
00000000
00001000
00000010
00001000
00000010
00000000
00010000
00001000
00000000
00010000
00000000
,
00011000
00000000
MMMMMMMM
00000000
00100000
00010000
00100000
00000000
01000000
10000000
01000000
00000000
MMMMMMMM
00000000
01000000
00010000
,
01000000
00000000
01100000
00000000
MMMMMMMM
00000000
00100000
00010000
00100000
00000000
00001000
00010000
00001000
00000000
00000100
00000010
,
00000000
00000000
00000100
00000001
00000100
00000000
00000010
00001000
00000010
00000000
00010000
00001000
00010000
00000000
00100000
01000000
,
00000000
00000000
00100000
10000000
01000000
00000000
00010000
00000000
MMMMMMMM
00000000
00010000
00001000
00000010
00000000
00000001
00000000
,
MMMMMMMM
00000000
00000000
00000000
00000001
00000100
00000001
00001000
00000100
00000000
00010000
00000000
MMMMMMMM
00000000
00022000
00000000
,
00033000
01001000
MMMMMMMM
00010100
MMMMMMMM
00101000
MMMMMMMM
00010010
,
MMMMMMMM
00000000
00000000
00011000
00000000
00000000
00001000
00000000
00000000
00000100
00000000
00000000
00000001
00000000
00000000
00000010
00000000
00000000
00001000
00000000
00010000
00000000
00001000
00000000
,
00010000
00000000
00000000
00000000
00001000
00000000
00000000
00000000
00010000
00000000
00000000
00000000
00011000
00000000
00000000
00000000
00000000
00000000
00000000
00000000
00000000
00001000
00000000
00000000
00100000
00000000
00000000
00000000
00000000
00000000
00010000
00000000
00000000
00000000
00000000
00000000
01000000
00000000
00000000
00100000
00000000
00000000
01000000
00000000
00000000
00100000
00000000
00000000
,
01000000
00010000
00100000
01000000
MMMMMMMM
21000000
00000000
30010000
,
00110000
00000000
00100000
00000000
00001000
00000000
00000000
00010000
00001000
00000000
00000010
00000000
00001000
00000000
00010000
00000000
,
MMMMMMMM
00000000
00010000
00000000
00001000
00000000
00000100
00000000
00000002
00000000
00000000
00000000
00000013
00000100
00000010
00000000
,
00001000
00000000
00010000
00000000
00011000
00000000
00000000
00010000
00000010
00000000
00001000
00000000
00000100
00000010
00000100
00000010
,
00000100
00001000
00000010
00000100
MMMMMMMM
00000102
00000000
00001003
,
00001010
00000000
00000010
00000000
00010000
00000000
00000000
00001000
00010000
00000000
00100000
00000000
00010000
00000000
00001000
00000000
,
00100000
00000000
00000000
01000000
00000000
00000000
MMMMMMMM
00000000
00000000
11000000
00000000
00000000
00100000
00000000
00000000
00010000
00000000
00000000
00001000
00000000
00010000
00000000
00001000
00000000
,
00010000
00001000
00010000
00002000
00000000
00000000
00000010
00000000
00000000
00010000
00000000
00000000
,
00103000
MMMMMMMM
00020000
00000000
01000000
00000000
00001000
00000000
,
00030100
MMMMMMMM
00002000
00000000
00000010
00000000
00100000
00000000
,
01000000
00020000
00000000
00000000
00000000
00000000
00033000
MMMMMMMM
,
MMMMMMMM
00000000
00000000
00000000
;
