#TITLE:POTENTIAL;
#SUBTITLE:;
#ARTIST:TAG;
#TITLETRANSLIT:;
#SUBTITLETRANSLIT:;
#ARTISTTRANSLIT:;
#GENRE:VARIETY;
#CREDIT:MUINELIM;
#BANNER:POTENTIAL.png;
#BACKGROUND:POTENTIAL-bg.png;
#JACKET:POTENTIAL-jacket.png;
#LYRICSPATH:;
#CDTITLE:;
#MUSIC:POTENTIAL.mp3;
#OFFSET:1.136000;
#SAMPLESTART:96.780228;
#SAMPLELENGTH:14.239990;
#LASTBEATHINT:0.453333;
#SELECTABLE:YES;
#DISPLAYBPM:100:400;
#BPMS:0.000000=200,40.000000=190,44.000000=180,48.000000=155,52.000000=67,55.000000=134,57.000000=200,88.000000=400,276.000000=150,340.000000=155,344.000000=160,348.000000=165,352.000000=170,356.000000=180,360.000000=185,364.000000=190,368.000000=195,372.000000=100,376.000000=200,381.000000=400,385.000000=800,389.000000=400,581.000000=100,585.000000=200,592.000000=400
;
#STOPS:
;
#BGCHANGES:;
#KEYSOUNDS:;
#ATTACKS:;

//---------------dance-single - ----------------
#NOTES:
     dance-single:
     :
     Challenge:
     18:
     1.097007,1.778006,0.655355,0.491516,0.455899,1078.000000,986.000000,92.000000,69.000000,0.000000,0.000000,1.097007,1.778006,0.655355,0.491516,0.455899,1078.000000,986.000000,92.000000,69.000000,0.000000,0.000000:
0000
0000
0000
0000
,
0000
0000
0000
0000
,
0000
0000
0000
0000
,
0000
0000
0000
0000
,
0000
0000
0000
0000
,
0000
0000
0000
0000
,
1001
0001
0100
0010
0100
0001
0010
0100
,
0110
0010
0100
1000
0010
0100
0001
1000
,
1010
0010
0100
0001
0100
0010
1000
0100
,
0110
0010
0001
0100
0010
1000
0010
0100
,
0101
0001
0010
0100
0001
0100
1000
0100
,
1100
1000
0010
0001
0010
0100
0001
0010
,
0011
0001
0100
1000
0100
0010
1000
0001
,
2002
0000
0000
0003
,
0000
0000
3010
0010
0100
0001
0010
0100
,
1000
0010
0100
0001
0010
0100
1000
0010
,
0200
0001
0301
1000
0100
0010
0001
0100
,
0010
1000
0100
0010
0001
0100
0010
1000
,
0001
0010
0001
0010
0200
0000
0000
0000
0300
0000
2100
0000
3010
0000
0010
0000
,
0001
0001
0100
0100
1000
1000
0010
0010
,
0001
0100
0001
0100
0010
0000
1010
0000
0000
0000
0100
0000
0101
0000
0000
0000
,
1000
1100
0000
0001
0011
0000
0000
0100
,
0220
0000
0330
0000
0010
1000
0100
0000
,
1000
0000
0001
0000
0010
0001
0100
0000
,
0001
0000
1000
0000
0010
0100
0001
0000
,
1000
0000
0001
0000
0100
0010
1000
0000
,
0001
0000
0010
0000
0100
1000
0010
0000
,
1000
0000
0100
0000
0010
0001
0100
0000
,
0010
1010
1000
1100
,
0001
0011
0001
0101
,
1000
0000
1001
0000
0001
0100
0010
0000
,
0100
0010
1000
0000
0001
0010
0100
0000
,
0010
0100
1000
0000
0010
1000
0001
0000
,
0010
0001
1000
0000
0100
1000
0001
0000
,
0100
0001
1000
0000
0010
0000
0100
0002
,
0000
1003
0020
0000
0130
0000
0100
0000
,
0001
0010
0100
1000
0020
0000
0100
0000
,
0100
0000
0130
0001
1000
0010
0100
0001
,
1000
0100
0010
0001
0100
0000
0010
0000
,
1000
0000
0100
0010
0200
0000
2300
0000
,
3020
0000
0230
0000
0302
0000
0013
0100
,
0010
0001
0100
0010
1000
0100
0010
0001
,
1000
0010
0100
0001
0020
0000
0030
0000
,
0110
0110
0000
0011
,
0000
0000
2200
0000
0300
0000
3010
0100
,
0001
0010
0100
1000
0020
0000
0000
0000
,
0130
0001
1000
0001
0100
0000
0010
0000
,
1000
0001
0010
0100
,
1000
0010
1000
0100
0010
0100
0010
0001
,
0100
0010
1000
0001
0010
0000
0100
0000
,
1000
0010
0110
0100
,
0001
0010
0011
0001
,
0100
0010
1010
1000
,
0001
0100
0110
0010
,
1000
0001
0010
0100
1000
0000
1010
0000
,
0000
0011
0000
1100
,
0000
0101
0000
1001
,
1001
0110
0220
0330
,
1010
0101
0000
1100
,
0000
0011
0000
1010
,
0000
0110
0110
1001
,
1001
0000
0110
0000
0010
0000
0100
0001
,
0010
0011
0001
0101
,
1000
1100
1000
1010
,
0110
0000
0101
0000
1001
0000
1000
0010
,
0100
0101
0001
0011
,
0100
1100
1000
1010
,
0110
0000
0000
0000
0101
0000
0000
0000
1010
0000
0000
0000
,
0011
0000
0000
0000
1100
0000
0000
0000
1001
0000
0000
0000
,
0110
0000
0010
1000
0100
1000
0010
0000
0200
0000
0301
0010
0100
0010
0001
0000
,
2000
0000
3010
0100
0001
0100
0010
0000
2000
0000
3100
0010
0001
0010
0100
0000
,
0002
0000
0103
1000
0010
1000
0100
0000
0020
0000
0031
0100
1000
0100
0001
0000
,
0020
0000
0031
0010
0100
1000
0010
0000
0002
0000
0013
0100
0001
0010
0100
0000
,
2100
3010
0010
0001
0001
0100
1000
0010
,
0102
0013
0010
1000
1000
0100
0001
0010
,
0100
1000
0100
1000
0100
1000
0100
1000
0001
0010
0001
0010
0001
0010
0001
0010
,
0100
0000
0000
1100
0000
0000
1010
0000
0101
0000
0000
0011
0000
0000
1001
0000
,
1000
0000
0010
0000
0100
0000
0001
1000
0100
0010
0001
1000
0010
0100
0001
0000
,
0010
0000
0100
0000
1000
0000
0010
0100
0001
1000
0100
0010
0001
0100
0010
0000
,
1000
0000
0001
0000
0010
0000
0100
1000
0010
0100
0001
1000
0100
0010
0001
0000
,
1000
0000
0010
0000
0100
0000
0001
0010
0100
1000
0010
0100
0001
1000
0100
0000
,
0010
0000
0001
0000
1000
0000
0010
0100
0001
0100
1000
0100
0010
1000
0100
0000
,
0010
0000
0001
0000
1000
0000
0010
0001
0010
0100
0010
1000
0100
0010
0001
0000
,
1000
0000
0010
0000
0100
0000
1000
0100
0001
0100
0010
1000
0100
0000
0010
0000
,
0110
0000
0001
0200
0000
0310
2000
0000
3001
0020
0000
0130
1000
0000
1001
0000
,
0001
0100
0010
0100
0001
0010
0100
0010
0001
0100
0010
0100
0001
0010
0200
0000
,
1300
0010
0100
0010
1000
0100
0010
0100
1000
0010
0100
0010
1000
0100
0020
0000
,
0031
1000
0100
0001
0100
1000
0010
1000
0100
0001
0100
1000
0010
0100
0002
0000
,
1003
0001
0010
1000
0010
0001
0100
0001
0010
1000
0010
0001
0100
0010
2000
0000
,
3001
0010
0100
0000
1000
0010
0100
0000
1000
0100
0010
0000
1000
0100
0010
0000
,
0001
0100
0010
0000
0001
0010
0100
0000
0001
0010
0100
0000
1000
0010
0100
0001
,
0010
0100
0010
0100
2000
0000
0010
0000
3100
0010
0100
0010
0002
0000
0100
0000
,
0013
0100
1000
0100
0010
0100
1000
0100
0001
0100
1000
0100
0001
0100
2000
0000
,
0002
0000
0000
0000
0000
0000
0000
3003
,
0220
0000
0000
0000
,
0000
0030
0010
1000
,
0010
0301
0000
0000
,
0000
1001
1000
0100
,
0010
0001
1000
0010
,
0100
0000
0001
0010
0002
0000
1003
0010
,
2000
0000
3001
0100
0002
0000
1003
0100
,
2000
0000
3010
0100
0002
0000
0010
0000
,
0013
0011
0001
0100
,
1000
0000
0100
0010
1000
0100
0010
0000
,
0001
0000
0010
0100
1000
0010
0100
0000
,
0001
0000
1000
0100
0020
0000
0031
0000
,
0001
0100
1000
0000
0100
0000
0010
0000
,
1000
0000
0001
0010
0200
0000
1300
0000
,
1000
0010
0001
0000
0010
0000
0100
0000
,
0001
0000
0010
0100
2000
0000
3010
0000
,
1000
0100
0001
0000
0100
0000
0010
0001
,
0100
0010
1000
0100
0001
0100
1000
0000
,
0001
0100
1000
0100
0001
0000
1000
0100
,
0010
0002
0200
0000
0000
0000
0003
0000
,
0301
0010
0100
0010
0001
1000
0100
0010
,
0100
1000
0020
0000
0130
2000
0000
3100
,
0002
0000
0013
0100
1000
0020
0200
0000
,
0330
0110
0100
0001
,
0010
1000
0001
0100
,
1000
0000
0010
0100
0001
0010
0100
0000
,
1000
0000
0100
0010
0001
0100
0010
0000
,
2000
0002
3000
0103
,
0100
1000
1000
0010
,
0010
0000
0001
0100
0010
0000
0001
0010
,
0100
0000
1000
0100
0010
0000
1000
0010
,
0100
0000
0001
1000
0001
1000
0010
0100
,
0010
0100
0001
1000
0010
0100
0001
1000
,
0010
0100
0001
1000
0200
0000
0301
0000
,
1000
0010
0002
0000
0203
0000
0310
1000
,
0001
0010
0100
1000
0010
1000
0100
0000
,
0010
0001
0100
0001
0010
0000
0100
1000
,
0010
1000
0100
0000
0010
0001
0100
0001
,
0010
0000
1000
0010
0001
0000
0001
0010
,
1000
0000
0010
0100
0010
0001
0010
0000
,
0100
1000
0100
0010
0100
0000
0010
0001
,
0010
1000
0010
0000
0100
0001
0100
1000
,
0100
0000
0001
0100
1000
0000
1000
0100
,
0001
0000
0100
1000
0010
0100
1000
0100
,
0010
1000
0100
0010
0100
1000
0010
0100
,
1000
0100
0010
1000
0100
1000
0010
0100
,
1000
0100
0010
1000
0100
0010
0002
0000
,
2003
0000
3001
0010
0100
0010
0001
0100
,
0010
0100
0001
0010
0100
0010
0001
0100
,
0010
0000
0000
0110
0000
0000
0000
0101
0000
0000
0000
1010
,
0000
0000
0000
0011
0000
0000
0000
1100
0000
0000
0000
1001
,
0000
0000
0000
0000
0000
0000
0110
0000
0000
1000
0000
0100
0001
0000
0000
0001
0000
0100
1000
0000
0000
0001
0000
0010
,
1000
0000
0000
1000
0000
0010
0001
0000
0000
0000
0000
0000
0101
0000
0000
0000
1000
0000
1010
0000
0000
0000
0000
0000
,
1100
0000
0000
0000
0001
0000
0011
0000
0000
0000
0000
0000
0110
0000
0000
0000
1000
0000
1001
0000
0000
0101
0000
0000
,
2020
0000
3030
0000
1000
0100
1000
0100
,
0010
0001
0010
0001
1000
0010
1000
0010
,
0100
0001
0100
0001
0010
0100
0010
0100
,
1000
0001
1000
0001
0010
0100
1000
0010
,
0100
0001
1000
0100
0010
0001
0100
0001
,
0100
1000
0100
1000
0100
0001
0010
1000
,
0010
0001
0200
0000
0300
0000
0110
0000
,
0010
1000
0010
1000
0010
1000
0002
0000
0000
0000
0000
0000
,
0003
0000
0000
0000
;

//---------------dance-double - ----------------
#NOTES:
     dance-double:
     :
     Challenge:
     19:
     1.066478,1.554508,0.612614,0.498639,0.409597,1048.000000,962.000000,86.000000,70.000000,0.000000,0.000000,1.066478,1.554508,0.612614,0.498639,0.409597,1048.000000,962.000000,86.000000,70.000000,0.000000,0.000000:
00000000
00000000
00000000
00000000
,
00000000
00000000
00000000
00000000
,
00000000
00000000
00000000
00000000
,
00000000
00000000
00000000
00000000
,
00000000
00000000
00000000
00000000
,
00000000
00000000
00000000
00000000
,
00011000
00010000
00000100
00001000
00000010
00000100
00000001
00001000
,
00001010
00000010
00010000
00001000
00100000
00010000
01000000
00100000
,
10100000
10000000
01000000
00100000
00001000
00010000
00000100
00000010
,
00000011
00000001
00000100
00000010
00010000
00001000
01000000
00010000
,
00110000
00100000
01000000
10000000
00100000
00010000
00001000
00000100
,
00000101
00000001
00000010
00001000
00010000
00100000
10000000
01000000
,
01100000
00100000
01000000
00010000
00001000
00000010
00000100
00010000
,
00022000
00000000
00000000
00030000
,
00000000
00000000
00103000
00100000
00010000
01000000
00001000
00010000
,
00000100
00001000
00000010
00010000
00001000
01000000
00010000
00100000
,
00002000
00010000
00013000
00001000
00000100
00000001
00000010
00000100
,
00001000
00010000
00100000
01000000
10000000
01000000
00100000
00001000
,
00010000
00000100
00010000
00000100
00000020
00000000
00000000
00000000
00000030
00000000
00000012
00000000
00000103
00000000
00000100
00000000
,
00001000
00001000
00010000
00010000
00100000
00100000
10000000
10000000
,
01000000
00100000
01000000
00100000
00010000
00000000
01010000
00000000
00000000
00000000
01000000
00000000
01001000
00000000
00000000
00000000
,
00001000
00011000
00000000
00010000
00010010
00000000
00000000
00000010
,
00000220
00000000
00000330
00000000
00000001
00000100
00001000
00000000
,
00000100
00000001
00001000
00000000
00000001
00000100
00001000
00000000
,
00010000
00000000
00100000
00000000
10000000
01000000
00010000
00000000
,
01000000
10000000
00010000
00000000
10000000
01000000
00010000
00000000
,
00001000
00000000
00000010
00000000
00000001
00000100
00001000
00000000
,
00000100
00001000
00010000
00000000
00001000
00010000
00100000
00000000
,
10000000
22000000
30000000
00020000
,
03000000
00001000
00001000
00032000
,
00003020
00000000
00000031
00000000
00000001
00000100
00001000
00000000
,
00000100
00000001
00000010
00000000
00000001
00000100
00001000
00000000
,
00010000
00000000
00100000
00000000
10000000
01000000
00010000
00000000
,
01000000
10000000
00100000
00000000
10000000
01000000
00010000
00000000
,
00001000
00000000
00000100
00000000
00000101
00000000
00000001
00000010
,
00000000
00000100
00010000
00000000
00001000
00000000
00101000
00000000
,
00100000
01000000
10000000
00100000
02000000
00000000
00010000
00000000
,
00001000
00000000
03010000
00000000
00010000
10000000
01000000
00100000
,
00001000
00010000
00000100
00000010
00000001
00000000
00001000
00000000
,
00000010
00000000
00000100
00000001
00000200
00000000
00002300
00000000
,
00023000
00000000
00230000
00000000
20300000
00000000
31000000
00100000
,
00010000
01000000
00100000
00010000
00001000
00010000
00100000
01000000
,
00010000
00100000
00001000
00010000
00000200
00000000
00000300
00000000
,
00000110
00000110
00000000
00000011
,
00000000
00000000
00002200
00000000
00003000
00000000
00010300
00001000
,
00010000
00001000
00010000
00001000
00200000
00000000
00000000
00000000
,
01300000
10000000
01000000
00100000
00010000
00000000
10000000
00000000
,
00100000
01000000
00001000
00010000
,
00000100
00000010
00000100
00000010
00000001
00001000
00000001
00001000
,
00000100
00000010
00000001
00001000
00000100
00000000
00000001
00000000
,
00000100
00001000
00001010
00000010
,
00010000
00001000
00011000
00010000
,
00001000
00100000
00101000
00001000
,
00010000
01000000
11000000
10000000
,
00100000
01000000
00100000
01000000
00010000
00000000
00110000
00000000
,
00000000
00101000
00000000
00011000
,
00000000
00010010
00000000
00000110
,
00000100
00001001
00000220
00000330
,
00001010
00000101
00000000
00010010
,
00000000
00011000
00000000
00101000
,
00000000
01100000
01000000
10010000
,
01100000
00000000
10010000
00000000
10000000
00000000
01000000
00010000
,
00001000
00012000
01003000
00021000
,
00030100
00012000
00103000
00110000
,
00001000
00000000
00011000
00000000
00010000
00000000
00001000
00000010
,
00000001
00000101
00000100
00002010
,
00003100
00020100
00031000
01001000
,
01100000
00000000
00000000
00000000
10100000
00000000
00000000
00000000
00110000
00000000
00000000
00000000
,
00011000
00000000
00000000
00000000
00001100
00000000
00000000
00000000
00000101
00000000
00000000
00000000
,
00001001
00000000
00001000
00000100
00000000
00000010
00000001
00000000
00000200
00000000
00001300
00010000
00000000
00100000
01000000
00000000
,
00200000
00000000
10300000
01000000
00000000
00100000
00001000
00000000
00020000
00000000
00030100
00000010
00000000
00000001
00000100
00000000
,
00000020
00000000
00010030
00001000
00000000
00100000
01000000
00000000
20000000
00000000
30100000
00010000
00000000
00001000
00000010
00000000
,
00000002
00000000
00000103
00001000
00000000
00010000
01000000
00000000
20000000
00000000
30100000
01000000
00000000
00010000
00001000
00000000
,
00001020
00000130
00000100
00000001
00000001
00000010
00000010
00001000
,
00120000
01030000
01000000
10000000
10000000
00100000
00100000
00010000
,
00001000
00100000
00001000
00100000
00010000
01000000
00010000
01000000
00001000
00010000
00001000
00010000
00000100
00001000
00000100
00001000
,
00000010
00000000
00000000
00000101
00000000
00000000
00001100
00000000
00011000
00000000
00000000
01010000
00000000
00000000
11000000
00000000
,
10000000
00000000
00100000
00000000
01000000
00000000
00010000
00100000
00010000
00100000
01000000
00100000
00010000
01000000
00001000
00000000
,
00010000
00000000
00001000
00000000
00000100
00000000
00000001
00001000
00000001
00001000
00000100
00001000
00000010
00000100
00000001
00000000
,
00001000
00000000
00000100
00000000
00000010
00000000
00000001
00000100
00000001
00000100
00001000
00000100
00000010
00001000
00000100
00000000
,
00010000
00000000
00001000
00000000
00100000
00000000
01000000
10000000
01000000
10000000
01000000
00100000
01000000
10000000
00010000
00000000
,
01000000
00000000
00100000
00000000
10000000
00000000
00010000
00100000
01000000
10000000
00100000
01000000
00010000
10000000
01000000
00000000
,
00100000
00000000
00001000
00000000
00010000
00000000
00000100
00001000
00000001
00000100
00000010
00001000
00000100
00000010
00000001
00000000
,
00000100
00000000
00001000
00000000
00010000
00000000
00100000
10000000
01000000
00100000
00010000
10000000
00100000
00000000
01000000
00000000
,
01001000
00000000
00001000
00200000
00000000
01300000
00020000
00000000
00031000
00000020
00000000
00000130
00001000
00000000
00001001
00000000
,
00000001
00000010
00000100
00000000
00000010
00000100
00001000
00000000
00000100
00010000
00001000
00000000
00010000
00100000
01000000
00100000
,
10000000
01000000
00100000
00000000
01000000
00100000
00010000
00000000
00100000
00001000
00010000
00000000
00001000
00000100
00000010
00000100
,
00000001
00000010
00001000
00000000
00000010
00001000
00010000
00000000
00001000
00010000
01000000
00000000
00010000
01000000
00100000
01000000
,
10000000
00100000
00010000
00000000
00100000
00010000
00001000
00000000
00010000
00001000
00000100
00000000
00001000
00000100
00000010
00000100
,
00000001
00000010
00001000
00000000
00000010
00000100
00001000
00000000
00000100
00001000
00010000
00000000
00001000
00010000
00100000
00000000
,
00010000
00100000
10000000
00000000
01000000
00100000
00010000
00000000
00001000
00000100
00000010
00000000
00000001
00000100
00001000
00010000
,
00000100
00000010
00000100
00000010
00001000
00000000
00010000
00000000
01000000
00100000
01000000
00100000
00001000
00000000
00010000
00000000
,
00100000
10000000
01000000
00000000
00010000
00001000
00000010
00000000
00000001
00000100
00001000
00010000
01000000
10000000
00100000
00020000
,
00002000
00000000
00000000
00000000
00000000
00000000
00000000
00033000
,
00022000
00000000
00000000
00000000
,
00000000
00033000
00101000
00010010
,
01001000
00010100
00000000
00000000
,
00000000
00011000
00010000
01000000
,
10000000
01000000
00100000
00010000
,
01000000
00000000
00001000
00010000
00000200
00000000
00010300
00001000
,
02000000
00000000
03001000
00010000
00000020
00000000
00010030
00001000
,
00200000
00000000
01300000
10000000
00200000
00000000
00010000
00000000
,
10300000
11000000
01000000
00100000
,
00001000
00000000
00010000
00000100
00000010
00000001
00000100
00000000
,
00001000
00000000
00000100
00000001
00000010
00000100
00010000
00000000
,
00001000
00000000
00010000
01000000
20000000
00000000
30100000
00000000
,
00010000
00100000
10000000
00000000
01000000
00000000
00010000
00000000
,
00011000
00000000
00001000
00000100
00000002
00000000
00000013
00000000
,
00001000
00000010
00000001
00000000
00000100
00000000
00001000
00000000
,
00010000
00000000
01000000
10000000
00200000
00000000
00310000
00000000
,
00001000
00000100
00000001
00000000
00000010
00000000
00000100
00001000
,
00000010
00010000
00001000
00100000
01000000
00100000
00001000
00000000
,
00010000
00000100
00000010
00000100
00010000
00000000
00001000
00010000
,
00100000
02000000
00020000
00000000
00000000
00000000
03000000
00000000
,
10030000
00100000
01000000
00010000
00100000
00001000
00010000
00000100
,
00001000
00000010
00000200
00000000
00000301
00000020
00000000
00001030
,
00020000
00000000
01030000
10000000
00100000
00020000
00002000
00000000
,
00033000
00011000
00001000
00010000
,
01000000
00001000
00010000
00000010
,
00001000
00000000
00010000
00000100
00000010
00001000
00010000
00000000
,
01000000
00000000
00010000
00001000
00000010
00000100
00010000
00000000
,
00002000
00200000
00003000
01300000
,
01000000
10000000
10000000
00100000
,
00100000
00000000
00010000
00001000
00010000
00000000
00001000
00000100
,
00001000
00000000
00000100
00000001
00000100
00000000
00000001
00000010
,
00000001
00000000
00000010
00001000
00000010
00001000
00010000
00001000
,
00010000
00001000
00010000
01000000
00010000
01000000
10000000
01000000
,
10000000
01000000
10000000
00100000
00020000
00000000
00031000
00000000
,
00000001
00000100
00002000
00000000
00013000
00000000
20000000
00000000
,
00000000
00000000
30010000
00100000
10000000
00100000
00010000
00000000
,
10000000
00100000
00010000
00100000
10000000
00000000
00010000
00100000
,
10000000
00100000
00010000
00000000
10000000
00100000
00010000
00100000
,
10000000
00000000
01000000
00100000
00010000
00000000
00001000
00000100
,
00000010
00000000
00000001
00000100
00001000
00000100
00000001
00000000
,
00001000
00000100
00000001
00000100
00001000
00000000
00000001
00000100
,
00001000
00000100
00000001
00000000
00001000
00000100
00000001
00000100
,
00001000
00000000
00000010
00000100
00001000
00010000
00100000
01000000
,
00100000
10000000
00010000
00100000
10000000
00100000
00010000
00000000
,
00001000
00000100
00000001
00000100
00001000
00000000
00010000
01000000
,
10000000
01000000
00010000
00000000
00001000
00000010
00000001
00000010
,
00001000
00000000
00010000
01000000
10000000
01000000
00010000
01000000
,
10000000
01000000
00010000
00100000
01000000
00100000
00001000
00010000
,
00000100
00000010
00000100
00001000
00000001
00000100
00000010
00001000
,
00000100
00000000
00000000
00010100
00000000
00000000
00000000
01001000
00000000
00000000
00000000
00010010
,
00000000
00000000
00000000
00101000
00000000
00000000
00000000
01100000
00000000
00000000
00000000
00011000
,
00000000
00000000
00000000
00000000
00000000
00000000
00000110
00000000
00000000
00000100
00000000
00000001
00000010
00000000
00000000
00000100
00000000
00001000
00000010
00000000
00000000
00010000
00000000
00001000
,
00100000
00000000
00000000
00001000
00000000
00010000
00000010
00000000
00000000
00000000
00000000
00000000
00010000
00000000
00000000
00000000
00001000
00000000
00100000
00000000
00000000
00000000
00000000
00000000
,
01000000
00000000
00000000
00000000
10000000
00000000
00100000
00000000
00000000
00000000
00000000
00000000
00010000
00000000
00000000
00000000
00001000
00000000
00011000
00000000
00000000
00101000
00000000
00000000
,
00020020
00000000
00030030
00000000
00010000
00001000
00000010
00001000
,
00010000
00001000
00000010
00001000
00010000
00100000
00010000
00001000
,
00010000
00100000
00010000
00001000
00000100
00000001
00000100
00001000
,
00000100
00000001
00000100
00001000
00010000
01000000
10000000
01000000
,
00010000
01000000
10000000
01000000
00010000
00001000
00000010
00000001
,
00000100
00000001
00000010
00001000
00010000
01000000
10000000
00100000
,
10000000
01000000
00020000
00000000
00030000
00000000
00011000
00000000
,
00010000
00001000
00000100
00000020
00000002
00000000
00000000
00000033
;

//---------------dance-single - ----------------
#NOTES:
     dance-single:
     :
     Beginner:
     7:
     0.274760,0.555627,0.099728,0.078358,0.000000,270.000000,256.000000,14.000000,11.000000,0.000000,0.000000,0.274760,0.555627,0.099728,0.078358,0.000000,270.000000,256.000000,14.000000,11.000000,0.000000,0.000000:
// measure 0
0000
0000
0000
0000
,  // measure 1
0000
0000
0000
0000
,  // measure 2
0000
0000
0000
0000
,  // measure 3
0000
0000
0000
0000
,  // measure 4
0000
0000
0000
0000
,  // measure 5
0000
0000
0000
0000
,  // measure 6
1000
0000
1000
0000
,  // measure 7
0001
0000
0001
0000
,  // measure 8
1000
0000
0001
0000
,  // measure 9
1000
0000
0001
0000
,  // measure 10
0100
0000
0100
0000
,  // measure 11
0010
0000
0010
0000
,  // measure 12
0100
0000
0010
0000
,  // measure 13
0220
0000
0000
0000
,  // measure 14
0330
0100
0000
0001
,  // measure 15
0000
1000
0000
0010
,  // measure 16
0000
0100
0000
0001
,  // measure 17
0000
1000
0000
0010
,  // measure 18
0000
0000
0100
0000
0000
0200
0000
0000
,  // measure 19
0000
0000
0000
0300
,  // measure 20
0100
0000
0001
0000
0000
1000
0000
0000
,  // measure 21
0001
0000
0000
1000
0000
0000
0000
0000
,  // measure 22
1001
0000
0001
0000
,  // measure 23
0000
0000
0001
0000
,  // measure 24
0000
0000
0100
0000
,  // measure 25
0000
0000
0100
0000
,  // measure 26
0000
0000
0010
0000
,  // measure 27
0000
0000
0010
0000
,  // measure 28
0000
0000
1000
0000
,  // measure 29
0000
0000
1000
0000
,  // measure 30
0000
0000
0001
0000
,  // measure 31
0000
0000
0010
0000
,  // measure 32
0000
0000
0100
0000
,  // measure 33
0000
0000
1000
0000
,  // measure 34
0000
0000
0010
0000
,  // measure 35
0010
0000
0010
0000
,  // measure 36
0000
0000
0100
0000
,  // measure 37
0100
0000
0100
0000
,  // measure 38
0100
0000
0001
0000
,  // measure 39
0000
0000
1000
0000
,  // measure 40
0000
0000
0100
0000
,  // measure 41
0000
0000
0010
0000
,  // measure 42
0000
0000
0001
0000
,  // measure 43
0000
0100
0000
0100
,  // measure 44
0000
0100
0000
0000
,  // measure 45
0010
0000
0010
0000
,  // measure 46
0010
0000
1000
0000
,  // measure 47
0000
0000
0001
0000
,  // measure 48
0000
0000
0100
0000
,  // measure 49
0010
0000
0100
0000
,  // measure 50
0010
0000
1000
0000
,  // measure 51
0000
0000
0001
0000
,  // measure 52
0000
0000
0010
0000
,  // measure 53
0000
0000
0100
0000
,  // measure 54
0000
0000
1000
0000
,  // measure 55
0000
0000
0010
0000
,  // measure 56
0000
0000
1000
0000
,  // measure 57
0000
0000
0010
0000
,  // measure 58
0000
0000
0100
0000
,  // measure 59
0000
0000
0001
0000
,  // measure 60
0000
0000
0100
0000
,  // measure 61
0000
0000
0001
0000
,  // measure 62
0000
0000
0010
0000
,  // measure 63
0000
0000
0100
0000
,  // measure 64
0000
0000
1000
0000
,  // measure 65
0000
0000
0010
0000
,  // measure 66
0000
0000
0100
0000
,  // measure 67
0010
0000
0000
0000
,  // measure 68
0010
0000
0000
0000
,  // measure 69
0110
0000
0000
0000
,  // measure 70
1001
0000
0000
0000
,  // measure 71
0110
0000
0000
0000
,  // measure 72
1001
0000
0000
0000
,  // measure 73
0001
1000
0001
0000
,  // measure 74
1000
0001
1000
0000
,  // measure 75
0001
1000
0001
1000
,  // measure 76
0010
0100
0001
1000
,  // measure 77
0010
0001
0100
0000
,  // measure 78
0100
1000
0010
0000
,  // measure 79
0001
0100
1000
0000
,  // measure 80
1000
0010
0001
0000
,  // measure 81
0100
1000
0010
0000
,  // measure 82
0010
0001
0100
0000
,  // measure 83
1000
0010
0001
0000
,  // measure 84
0001
0100
1000
0001
,  // measure 85
0100
0100
0010
0000
,  // measure 86
0100
0100
0001
0000
,  // measure 87
0100
0100
1000
0000
,  // measure 88
0100
0100
0010
0000
,  // measure 89
0100
0001
0100
0001
,  // measure 90
0100
1000
0100
1000
,  // measure 91
0100
0001
0100
1000
,  // measure 92
0100
0010
0100
0001
,  // measure 93
2002
0000
0000
0000
,  // measure 94
0000
0000
0000
0000
,  // measure 95
0000
3003
0000
0100
,  // measure 96
0000
0100
0000
0000
,  // measure 97
0000
0100
0000
0001
,  // measure 98
0000
1000
0000
0010
,  // measure 99
0000
0100
0000
0100
,  // measure 100
0000
0100
0000
0100
,  // measure 101
0000
0010
0000
1000
,  // measure 102
0000
0001
0000
0100
,  // measure 103
0000
0110
0000
0000
,  // measure 104
0000
0110
0000
0000
,  // measure 105
0000
0010
0000
1000
,  // measure 106
0000
0100
0000
0000
,  // measure 107
0000
0010
0000
0001
,  // measure 108
0000
0100
0000
0000
,  // measure 109
0000
0010
0000
1000
,  // measure 110
0000
0100
0000
0010
,  // measure 111
0000
0001
0000
0000
,  // measure 112
1000
0000
0000
0001
,  // measure 113
0000
1001
0000
0000
,  // measure 114
0000
0010
0000
0010
,  // measure 115
0000
0010
0000
0100
,  // measure 116
0000
0010
0000
0110
,  // measure 117
0000
1000
0000
1000
,  // measure 118
0000
0001
0000
0001
,  // measure 119
0000
1000
0000
0010
,  // measure 120
0000
0100
0000
0001
,  // measure 121
0000
0010
0000
0000
,  // measure 122
0000
0010
0000
0000
,  // measure 123
0000
0010
0000
0000
,  // measure 124
0000
0010
0000
0000
,  // measure 125
0000
0010
0000
0100
,  // measure 126
0000
1000
0000
0001
,  // measure 127
0000
0010
0000
0100
,  // measure 128
0000
1000
0000
0010
,  // measure 129
0000
0100
0000
0000
,  // measure 130
0000
0100
0000
0000
,  // measure 131
0000
0100
0000
0000
,  // measure 132
0000
0100
0000
0100
,  // measure 133
0000
0001
0000
0000
,  // measure 134
0000
0001
0000
0000
,  // measure 135
0000
0001
0000
0000
,  // measure 136
0000
0001
0000
0001
,  // measure 137
0000
1000
0000
0000
,  // measure 138
0000
1000
0000
0000
,  // measure 139
0000
1000
0000
0000
,  // measure 140
0000
1000
0000
1000
,  // measure 141
0000
0010
0000
0000
,  // measure 142
0000
0010
0000
0000
,  // measure 143
0000
0010
0000
0000
,  // measure 144
0010
0000
0000
0010
,  // measure 145
0000
0020
0030
0200
,  // measure 146
0300
0002
0000
0000
,  // measure 147
0003
2000
0000
3000
,  // measure 148
1001
0000
0001
0000
,  // measure 149
0100
0000
0010
0000
,  // measure 150
1000
0000
0001
0000
,  // measure 151
0010
0000
0100
0000
,  // measure 152
1000
0000
0001
0000
,  // measure 153
0100
0000
0010
0010
,  // measure 154
0000
0110
0000
0001
,  // measure 155
1000
0001
2002
0000
,  // measure 156
3003
0000
0000
0000
;

//---------------dance-single - ----------------
#NOTES:
     dance-single:
     :
     Easy:
     12:
     0.483375,0.666752,0.270690,0.334801,0.000000,475.000000,437.000000,38.000000,47.000000,0.000000,0.000000,0.483375,0.666752,0.270690,0.334801,0.000000,475.000000,437.000000,38.000000,47.000000,0.000000,0.000000:
0000
0000
0000
0000
,
0000
0000
0000
0000
,
0000
0000
0000
0000
,
0000
0000
0000
0000
,
0000
0000
0000
0000
,
0000
0000
0000
0000
,
1000
0100
0010
0000
,
1000
0100
0001
0000
,
0001
0010
0100
0000
,
0001
0010
1000
0000
,
1000
0001
1000
0001
,
0100
0010
0100
0010
,
1000
0001
0100
0010
,
0220
0000
0000
0000
,
0330
0100
0001
0010
,
0100
1000
0010
0100
,
0001
0010
0100
1000
,
0010
0100
0001
0010
,
0100
0000
1000
0000
0000
2002
0000
0000
,
0000
0000
0000
0000
,
3003
0000
0001
0001
0000
0100
0100
0000
,
0010
0010
0000
1000
1000
0000
0000
0000
,
2002
3003
0001
0000
,
0001
0000
1000
0000
,
1000
0000
0010
0000
,
0010
0000
0100
0000
,
0100
0000
0001
0000
,
1000
0000
0100
0000
,
0010
0000
0001
0000
,
0100
0000
0010
0000
,
1000
0000
0001
0000
,
0001
0000
1000
0000
,
1000
0000
0010
0000
,
0010
0000
0100
0000
,
0100
0000
0010
1000
,
0010
0000
0100
0001
,
0100
0010
0000
0010
,
1000
0100
0010
0001
,
0100
0010
2000
0000
,
3001
0000
0001
1000
,
0001
1000
0000
1000
,
0002
0000
0203
0000
,
0320
0000
2030
0000
,
3100
0010
0000
0110
,
0000
0110
0000
0100
,
0010
0001
0200
0000
,
0310
1000
0100
0000
,
1000
0010
0100
0000
,
0010
1000
0100
0010
,
0001
0100
0010
0000
,
0100
0001
0010
0000
,
0001
0100
0010
0000
,
0100
0001
0010
0100
,
1000
0010
0100
0000
,
0010
1000
0001
0001
,
0000
0100
0000
1000
,
0000
0010
0000
0001
,
1000
0001
1001
0000
,
1000
1000
0000
0100
,
0000
0001
0000
0010
,
0000
1000
0001
1000
,
0001
1000
0010
0010
,
0000
0001
0000
0100
,
0000
1000
0000
0010
,
0010
0100
0110
0000
,
1000
1000
0000
0100
,
0000
0001
0000
0010
,
0200
0000
0000
0000
,
0302
0000
0000
0000
,
1003
0000
1100
0000
,
0001
0000
0101
0000
,
1000
0000
1010
0000
,
0001
0000
0011
0000
,
0100
0100
0010
0010
,
1000
1000
0001
0001
,
0010
0100
1000
0010
,
0200
0302
2003
3020
,
0130
0001
0100
0000
0001
0000
1000
0000
,
0010
1000
0010
0000
1000
0000
0001
0000
,
0010
0001
0010
0000
0001
0000
1000
0000
,
0100
1000
0100
0000
1000
0000
0001
0000
,
0100
0010
1000
0000
0100
0000
0010
0000
,
0001
0100
0010
0000
1000
0000
0001
0000
,
0010
0100
1000
0000
0010
0000
0100
0000
,
0001
0010
0100
0000
1000
0000
0010
0000
,
0110
0100
0001
0100
,
0110
0010
1000
0010
,
1001
0001
0100
0010
,
1001
1000
0010
0100
,
0101
0001
0010
0100
,
1100
1000
0100
0010
,
0011
0001
0100
0010
,
1010
1000
0001
1000
,
2002
0000
0000
3003
,
0220
0000
0000
0000
,
0000
0330
0010
0100
,
0010
0100
0000
0000
,
0000
0100
0010
0200
,
0000
0310
1000
0100
,
0010
0001
0000
0011
,
0000
1010
0000
1100
,
0000
0101
0000
0001
,
2000
0000
3001
1000
,
0001
0200
0000
0301
,
1000
0020
0000
1030
,
0001
0100
0000
0100
,
0110
0000
0010
1000
,
0000
0100
0000
0010
,
0011
0000
0001
0100
,
0000
0010
0000
1000
,
1100
0000
0100
0010
,
0100
2000
0000
0000
,
3002
0000
0000
0203
,
0000
0320
0000
0000
,
0130
0001
0010
0100
,
1000
0001
0000
1000
,
0000
0001
0000
2002
,
3003
1000
0100
0010
,
0000
0001
0010
0100
,
0000
1000
0010
0100
,
0001
0100
0010
1000
,
0100
0010
0001
0200
,
0000
0320
0000
2030
,
0000
3002
0000
0023
,
0000
0230
0000
2300
,
0000
3010
0100
0001
,
0100
0010
0100
0001
,
0100
0010
0000
0010
,
1000
0100
0010
0002
,
0000
1003
0010
0000
,
0010
1000
0000
1000
,
0010
0000
0010
1000
,
0000
1010
0000
1010
,
0000
0001
0010
0000
,
0010
0001
0000
0001
,
0010
0000
0010
0001
,
0000
0011
0000
0011
,
0000
1000
0100
0000
,
0100
1000
0000
1000
,
0100
0000
0100
1000
,
0000
1100
0000
1100
,
0000
0001
0100
0000
,
0100
0001
0000
0101
,
0000
0002
0000
0000
,
0000
2003
0000
0000
,
0000
0000
3010
0010
0010
0000
0100
0100
,
0100
0001
0001
0001
,
0000
1000
1000
1000
,
2002
3003
0001
0100
,
0010
0000
1000
0010
,
0100
0000
0001
0100
,
1000
0100
0001
0100
,
0010
0000
1000
0010
,
0001
0000
1000
0100
,
0001
0020
0000
0130
,
0010
0100
2002
0000
,
3003
0000
0000
0000
;

//---------------dance-single - ----------------
#NOTES:
     dance-single:
     :
     Medium:
     14:
     0.702166,1.166816,0.491516,0.398912,0.042741,690.000000,621.000000,69.000000,56.000000,0.000000,0.000000,0.702166,1.166816,0.491516,0.398912,0.042741,690.000000,621.000000,69.000000,56.000000,0.000000,0.000000:
0000
0000
0000
0000
,
0000
0000
0000
0000
,
0000
0000
0000
0000
,
0000
0000
0000
0000
,
0000
0000
0000
0000
,
0000
0000
0000
0000
,
0001
0100
0001
0000
1000
0000
0001
0000
,
1000
0100
1000
0000
0001
0000
1000
0000
,
0001
0010
0001
0000
1000
0000
0001
0000
,
1000
0010
1000
0000
0001
0000
1000
0000
,
1001
0000
0010
0000
1000
0100
0010
0000
,
1001
0000
0010
0000
0001
0100
0010
0000
,
1001
0000
0010
0000
1000
0100
0010
0001
,
2002
0000
0000
0003
,
0000
3100
0010
0001
,
1000
0010
0100
0001
,
1000
0100
0010
0001
,
1000
0010
0100
0001
,
0010
0010
0220
0030
0000
2300
0000
0000
,
3002
0203
0320
2030
,
3002
0000
0013
0010
0000
1000
1000
0000
,
0100
0100
0000
0001
0001
0000
0000
0010
,
0220
0330
0100
0001
,
0100
0010
1000
0010
,
0100
0101
0000
1010
,
0000
1000
0100
0020
,
0000
0031
0001
0100
,
1000
0100
0001
0010
,
0100
1100
0000
0011
,
0000
0110
0100
0020
,
0000
0130
0100
1000
,
1000
0010
0010
0001
,
0001
1000
1000
0100
,
0100
0001
0001
0010
,
0010
0000
0100
0000
0110
0000
0000
1001
,
0000
0110
0010
1000
,
0001
0000
0010
0000
0100
1000
0100
0000
,
0010
0001
0010
0000
0100
0000
1000
0000
,
0010
0100
2002
0000
,
3003
1000
0100
0001
,
0100
1000
0010
0001
,
0010
1000
0100
0001
,
0100
0010
0011
0000
,
0001
0101
0000
1100
,
0000
1010
0000
0110
,
0100
0001
0020
0000
,
0130
1000
0100
1000
0100
0000
0010
0000
,
0001
1000
0010
0100
,
0001
0001
1000
1000
,
0100
0100
0010
0010
,
0001
0100
1010
0010
,
1000
0100
0010
0001
,
1000
0010
0101
0100
,
0001
0010
0100
1000
,
0001
0100
0001
0100
0001
0000
0011
0000
,
0000
1010
0000
1100
,
0000
0101
0000
0001
,
1000
0001
2002
3003
,
1000
1010
0000
0011
,
0000
0101
0000
1100
,
0000
1000
0001
1000
,
0001
1000
0010
1010
,
0000
1100
0000
0101
,
0000
0011
0000
0010
,
0100
0010
0220
0330
,
0100
1100
0000
1010
,
0000
0011
0000
0101
,
0220
0000
0000
0330
,
2002
0000
0000
3003
,
0110
0010
1000
0100
0010
0100
1000
0000
,
0010
0100
0001
0010
0100
0010
0001
0000
,
1000
0010
0001
0010
1000
0001
0010
0000
,
0001
0100
1000
0100
0001
1000
0100
0000
,
0010
0001
0100
0010
0100
0001
0010
0100
,
1000
0010
0100
0010
1000
0100
0010
0001
,
1000
0010
0100
0001
0010
0100
1000
0010
,
0110
0000
0000
1100
0000
0000
0011
0000
1010
0000
0000
0101
0000
0000
1001
0000
,
1000
0000
0100
0000
0010
0000
0000
0001
0000
0000
0100
0000
0100
0000
0010
0000
,
1000
0000
0001
0000
0010
0000
0000
0100
0000
0000
1000
0000
1000
0000
0010
0000
,
0100
0000
0001
0000
1000
0000
0000
0010
0000
0000
0001
0000
0001
0000
0010
0000
,
0100
0000
0001
0000
0010
0000
0000
0100
0000
0000
1000
0000
1000
0000
0100
0000
,
0001
0000
0100
0000
0010
0000
0000
0001
0000
0000
0100
0000
0100
0000
1000
0000
,
0100
0000
0010
0000
1000
0000
0000
0100
0000
0000
0001
0000
0001
0000
0100
0000
,
0010
0000
1000
0000
0010
0000
0000
0001
0000
0000
0100
0000
0100
0000
0010
0000
,
1000
0000
0000
0100
0000
0000
0001
0000
0000
0010
0000
0100
0010
0000
0100
0000
,
0110
1000
0001
1000
0100
0010
0001
0000
,
0100
0001
1000
0001
0010
0100
1000
0000
,
0010
0100
0001
0100
0010
1000
0100
0000
,
0010
0100
1000
0100
0010
0001
1000
0000
,
0001
0010
0100
0010
0001
1000
0010
0100
,
0010
1000
0100
0010
0001
1000
0010
0100
,
0001
0010
1000
0010
0001
0010
1000
0010
,
0001
0100
1000
0100
0001
0010
0100
1000
,
2002
0000
0000
0000
0000
0000
0000
3003
,
0220
0000
0000
0000
,
0000
0330
0010
0100
,
0010
0110
0000
0000
,
0000
0110
0100
0002
,
0000
1003
0100
0010
,
0001
0000
0100
0010
0000
0000
0010
1000
,
0000
0000
1000
0001
0000
0000
0001
0100
,
0000
0120
0000
1000
,
1030
0000
1000
0100
,
0010
0000
0001
0100
0000
0000
0010
0000
,
1000
0000
0100
0010
0000
0000
0001
0000
,
0100
0000
0010
1000
0010
0000
0100
0000
,
0001
0010
0100
1000
,
0010
0000
0100
0001
0100
0000
0010
0000
,
1000
0100
0010
0001
,
1000
0000
0100
0010
0100
0000
1000
0000
,
0010
0100
0001
1000
,
0100
2200
0000
3300
,
0022
0000
0033
2002
,
3003
0220
0000
0330
,
0010
1000
0010
0000
0100
0001
0100
0000
,
0010
0000
1000
0000
0000
0100
0000
0000
,
0001
0010
0100
0220
,
0330
0010
1000
0010
,
1000
0001
0100
0001
,
0100
0010
1000
0001
,
0010
0100
1000
0010
,
0100
0002
0000
1003
,
0100
1000
0100
0010
,
0001
0010
0001
1000
,
0010
0100
0001
0010
,
0100
1000
0100
0001
,
0100
1000
0100
0001
,
0100
2000
0000
3010
,
0002
0000
0013
0100
,
1001
1000
0100
0010
,
0100
1000
0010
0100
,
0010
1000
0100
0010
,
0100
1000
0010
0200
,
0000
0301
0010
0100
,
0010
0001
0100
0010
,
0100
0001
0010
0100
,
0010
0001
0100
0020
,
0000
1030
0010
0001
,
0010
1000
0001
0010
,
1000
0010
0001
1000
,
0010
0001
0010
2000
,
0000
3001
0100
1000
,
0100
0001
0010
0100
,
1000
2020
0000
0000
,
3030
0202
0000
0000
,
0303
0000
1001
0001
0100
0000
1001
1000
,
0100
1001
0001
0010
,
0000
0000
1001
0000
1000
0000
0010
0100
,
0220
0330
0010
0001
,
0010
0001
0010
1000
,
0010
1000
0010
0001
,
0010
1000
0010
0001
,
0010
1000
0100
0001
,
0100
1000
0010
0001
,
0010
2000
0000
3100
,
0010
0001
2002
0000
,
3003
0000
0000
0000
;

//---------------dance-single - ----------------
#NOTES:
     dance-single:
     :
     Hard:
     17:
     0.964715,1.555755,0.612614,0.484393,0.309869,948.000000,862.000000,86.000000,68.000000,0.000000,0.000000,0.964715,1.555755,0.612614,0.484393,0.309869,948.000000,862.000000,86.000000,68.000000,0.000000,0.000000:
0000
0000
0000
0000
,
0000
0000
0000
0000
,
0000
0000
0000
0000
,
0000
0000
0000
0000
,
0000
0000
0000
0000
,
0000
0000
0000
0000
,
1000
0010
0100
0001
0010
0100
1000
0010
,
0100
0001
1000
0100
0010
0001
1000
0010
,
0100
0001
0010
0001
0100
0010
1000
0100
,
1000
0010
0100
0001
1000
0100
0010
0001
,
0100
0100
0010
1000
0100
0001
0100
1000
,
0010
0010
0100
0001
0010
1000
0010
0001
,
0100
0100
0010
1000
0100
0001
0010
0100
,
2002
0000
0000
0003
,
0000
0000
3001
0100
0001
0100
0010
1000
,
0010
1000
0001
0010
0001
0010
0100
1000
,
0100
1000
0010
0100
0001
1000
0100
0010
,
0001
0100
0010
1000
0001
0010
0100
1000
,
0010
0100
0010
0100
0020
0000
0000
0000
0000
0000
2030
0000
0000
0000
0000
0000
,
3100
0010
0001
1000
0010
0100
0001
0010
,
0100
1000
0100
1000
0100
0000
1100
0000
0000
0000
1000
0000
1010
0000
0000
0000
,
0010
0110
0000
0100
0101
0000
0000
0001
,
2002
3003
1000
0100
,
0010
0100
1000
0010
,
0001
0010
1000
0001
,
0010
0100
0010
0001
,
0100
1000
0100
0001
,
0010
0100
1000
0010
,
0100
0000
0001
0010
0001
0000
1000
0010
,
1000
0000
0001
0100
0001
0000
1000
0100
,
1000
0001
0101
0100
,
0010
1000
0001
0010
,
0100
1000
1010
0010
,
0100
0001
1000
0100
,
0010
0000
0001
0000
1000
0010
0000
0010
,
0100
0000
0100
0001
0000
0001
1000
0000
,
0010
0100
0010
0000
0200
0000
0302
0000
,
2003
0000
3020
0000
0130
0001
0100
0001
,
1000
0010
1000
0010
0200
0000
0000
0000
,
0000
0000
0301
0010
0100
0000
0010
0000
,
0100
1000
1010
0010
,
0100
1000
0100
0001
,
0010
0100
1100
0000
,
1010
1010
0000
0011
,
0000
0000
0202
0000
0303
0000
0100
0010
,
0100
0010
0100
0010
2000
0000
0000
0000
,
3001
0010
0100
1000
0010
0000
0100
0000
,
0001
1000
0100
0010
,
0001
0100
0010
0000
1000
0010
0100
0000
,
0001
0010
0100
0000
1000
0100
0010
0000
,
0001
0100
1010
0010
,
1000
0100
0010
0001
,
1000
0010
0101
0100
,
0001
0010
0100
1000
,
0010
0100
0010
0100
0001
0000
0011
0000
,
0000
1010
0000
1100
,
0000
0202
0303
0001
,
1000
0010
0220
0330
,
1010
1010
0000
0011
,
0000
0101
0000
2200
,
3300
1000
0100
0010
,
0001
0100
0101
0101
,
0000
1100
0000
0011
,
0000
2020
3030
0010
,
0100
0001
2002
3003
,
1010
1010
0000
0011
,
0000
1100
0000
0101
,
0011
0000
0000
0000
0110
0000
0000
0000
1100
0000
0000
0000
,
1010
0000
0000
0000
0110
0000
0000
0000
0101
0000
0000
0000
,
1001
0000
1000
0000
0100
0000
0001
0000
0100
0000
1000
0000
0010
0100
0001
0000
,
0100
0000
0001
0000
0010
0000
1000
0000
0010
0000
0001
0000
0100
0010
1000
0000
,
0010
0000
1000
0000
0100
0000
0001
0000
1000
0000
0010
0000
0001
0100
0010
0000
,
0100
0000
0001
0000
0010
0000
1000
0000
0001
0000
0100
0000
1000
0010
0100
0000
,
0102
0013
0010
0100
0100
1000
1000
0010
,
2010
3100
0100
0010
0010
0001
0001
0100
,
0010
1000
0100
1000
0010
0000
0110
0000
0100
0001
0010
0001
0100
0000
0110
0000
,
1001
0000
0001
0100
0000
0100
1000
0000
0110
0000
1000
0010
0000
0010
0001
0000
,
0110
0000
1000
0000
0100
0000
0010
0001
0000
0100
0000
0010
0100
0000
0001
0000
,
1000
0000
0100
0000
0010
0000
0001
0100
0000
0010
0000
1000
0001
0000
0010
0000
,
0100
0000
1000
0000
0010
0000
0100
0001
0000
0010
0000
0001
1000
0000
0100
0000
,
0001
0000
0100
0000
0010
0000
0001
0100
0000
1000
0000
0100
0010
0000
1000
0000
,
0001
0000
0010
0000
0110
0000
0100
1000
0000
0010
0000
0100
0010
0000
1000
0000
,
0100
0000
0010
0000
0011
0000
0001
0100
0000
1000
0000
0100
0010
0000
0001
0000
,
0010
0000
1000
0000
1100
0000
0100
0010
0000
0001
0000
0100
1000
0000
0100
0000
,
0010
0000
1000
0200
0000
0310
0002
0000
1003
0020
0000
0130
0001
0000
0011
0000
,
0010
0100
0010
0000
0100
0000
1000
0000
0010
0100
0010
0000
0100
0000
0001
0000
,
0010
0100
1000
0000
0010
0000
0100
0000
0001
0010
0100
0000
1000
0000
0010
0000
,
0100
0001
0100
0000
0001
0000
0010
0000
0100
1000
0100
0000
0010
0000
0001
0000
,
0100
0010
1000
0000
0100
0000
0010
0000
0001
0100
0010
0000
1000
0000
0001
0000
,
0010
0100
1000
0000
0001
0010
0100
0000
0010
0100
1000
0000
0001
0010
0100
0000
,
1000
0010
0100
0000
0010
0100
0001
0000
1000
0010
0100
0000
0010
0100
0001
0000
,
0010
0100
0010
0100
1000
0000
0001
0000
0010
0100
0010
0100
1000
0000
0001
0000
,
0100
0010
1000
0000
0100
0010
0001
0000
1000
0010
0100
0000
0001
0010
0100
0000
,
0220
0000
0000
0000
0000
0000
0000
0000
0000
0000
0000
0000
0000
0330
0000
0000
,
2002
0000
0000
0000
,
0000
3003
1001
1001
,
0110
1001
0000
0000
,
0000
1001
1000
0100
,
0001
1000
0010
0001
,
0100
0000
0010
0000
1000
0000
0001
0010
,
0100
0000
0010
0001
0100
0000
0001
0010
,
0100
0000
1000
0010
1000
0010
0100
0000
,
0010
1000
0100
0010
,
0001
0000
0100
0010
1000
0010
0200
0000
,
0302
0000
0013
0100
1000
0100
0020
0000
,
0031
0100
0020
0000
1030
0000
1100
0000
,
1100
0100
0010
0100
,
1000
0010
0100
0000
0001
0000
0011
0000
,
0011
0010
0100
0010
,
0001
0100
0010
0000
1000
0000
1001
0000
,
1001
0000
0001
0000
0100
0000
0010
1000
,
0010
1000
0100
0010
0100
0010
0002
0000
,
0013
0100
0010
0100
2000
0000
3010
0100
,
0001
1000
0020
0000
0000
0000
0000
0000
,
0130
0001
0010
0100
1000
0010
0100
0001
,
1000
0000
1100
0000
0000
0101
0000
0000
,
0011
0000
0000
0010
1000
0000
2002
0000
,
3003
0001
0100
1000
,
0001
1000
0010
0001
,
1000
0000
0010
0100
0001
0100
0010
0000
,
1000
0000
0100
0010
0001
0010
0100
0000
,
1000
1002
0000
0203
,
0320
2030
3002
0023
,
0230
2300
3020
0032
,
2003
3200
0302
0023
,
0230
0000
1300
0010
0100
0010
1000
0010
,
0100
0001
0100
0010
0100
0001
0010
0100
,
1000
0020
0200
0000
0030
0000
0302
0000
,
0023
0000
0230
1300
,
1001
0000
0001
0100
0010
0000
0001
0000
,
0010
0100
0001
0000
0010
0000
0001
0100
,
0010
0000
0001
0000
0010
0100
0001
0000
,
0010
0000
0100
0010
0001
0000
1000
0100
,
0010
0000
0100
1000
0010
0000
0100
0000
,
0010
1000
0100
0000
0010
0000
0100
1000
,
0010
0000
0100
0000
0010
1000
0100
0000
,
0010
0000
0001
0010
0100
0000
0010
0100
,
1000
0000
0001
0100
0001
0100
0001
0000
,
1000
0100
1000
0100
1000
0000
0001
0010
,
0001
0010
0001
0000
1000
0010
1000
0010
,
1000
0000
0010
0100
0001
0000
0100
0010
,
1000
0000
0001
0010
0100
1000
0010
0000
,
1000
0100
0010
0001
0100
0000
0010
1000
,
0001
0000
0000
0010
0000
0000
0100
0000
0000
0000
0000
0000
0000
0000
1100
0000
0000
0000
0000
0000
0000
0000
1010
0000
,
0000
0000
0000
0011
0000
0000
0000
0101
0000
0000
0000
1001
,
0000
0000
0000
0000
0000
0000
0110
0000
0000
1000
0100
0010
0001
0000
0000
0001
0100
0010
1000
0000
0000
1000
0010
0100
,
0001
0000
0000
0001
0010
0100
1000
0000
0000
0000
0000
0000
1000
0000
0010
0000
0001
0000
0010
0000
0000
0000
0000
0000
,
0100
0000
0001
0000
0100
0000
1000
0000
0000
0000
0000
0000
0100
0000
0001
0000
0010
0000
0100
0000
0000
0110
0000
0000
,
2002
0000
3003
0000
1000
0010
0100
0000
,
1000
0100
0010
0000
1000
0010
0100
0001
,
0100
0010
1000
0000
0001
0100
0010
0000
,
0001
0010
0100
0000
0001
0100
0010
1000
,
0010
0100
0001
0000
0010
0100
1000
0001
,
0100
0010
1000
0100
0010
0001
1000
0010
,
0100
0002
2000
0000
3003
0000
1010
0000
,
1010
0101
0220
0000
,
0330
0000
0000
0000
;

//---------------dance-double - ----------------
#NOTES:
     dance-double:
     :
     Easy:
     12:
     0.460987,0.666752,0.213703,0.356171,0.000000,453.000000,423.000000,30.000000,50.000000,0.000000,0.000000,0.460987,0.666752,0.213703,0.356171,0.000000,453.000000,423.000000,30.000000,50.000000,0.000000,0.000000:
00000000
00000000
00000000
00000000
,
00000000
00000000
00000000
00000000
,
00000000
00000000
00000000
00000000
,
00000000
00000000
00000000
00000000
,
00000000
00000000
00000000
00000000
,
00000000
00000000
00000000
00000000
,
00001000
00000000
00100000
00000000
,
00010000
00000000
01000000
00000000
,
00001000
00000000
00010000
00000000
,
00000100
00000000
00001000
00000000
,
00000010
00010000
00001000
01000000
,
00010000
00100000
00001000
00010000
,
00000010
00001000
00000100
00010000
,
00022000
00000000
00000000
00000000
,
00033000
00001000
00100000
01000000
,
10000000
00100000
01000000
00001000
,
00010000
00000010
00000100
00000001
,
00000010
00000100
00010000
00001000
,
00100000
00000000
01000000
00000000
00000000
20020000
00000000
00000000
,
00000000
00000000
00000000
00000000
,
30030000
00000000
10000000
10000000
00000000
01000000
01000000
00000000
,
00010000
00010000
00000000
00001000
00001000
00000000
00000000
00000000
,
00022000
00033000
00010000
00000000
,
00010000
00000000
00000100
00000000
,
00000100
00000000
00001000
00000000
,
00001000
00000000
00000010
00000000
,
00000010
00000000
00000100
00000000
,
00000001
00000000
00001000
00000000
,
00000100
00000000
00010000
00000000
,
00001000
00000000
00100000
00000000
,
00010000
00000000
01000000
00000000
,
01000000
00000000
00100000
00000000
,
00100000
00000000
10000000
00000000
,
10000000
00000000
00010000
00000000
,
00010000
00000000
00100000
00001000
,
00010000
00000000
00000010
00010000
,
00001000
00010000
00000000
00001000
,
00010000
00000000
01000000
00000000
,
10000000
00100000
00020000
00000000
,
00031000
00000000
00001000
00100000
,
00010000
00100000
00000000
00100000
,
02000000
00000000
23000000
00000000
,
30200000
00000000
00320000
00000000
,
00031000
00010000
00000000
00010100
,
00000000
01001000
00000000
00001000
,
00010000
00001000
00000020
00000000
,
00000031
00001000
00000001
00000000
,
00001000
00000000
00000100
00000000
,
00010000
00001000
00010000
00001000
,
00100000
01000000
00100000
00000000
,
01000000
00000000
10000000
00000000
,
00100000
01000000
00010000
00000000
,
00100000
00001000
00010000
00000000
,
00000100
00010000
00001000
00000000
,
00010000
00000100
00000010
00000010
,
00000000
00000001
00000000
00000100
,
00000000
00001000
00000000
00010000
,
00001000
00010000
00011000
00000000
,
00001000
00010000
00000000
00100000
,
00000000
10000000
00000000
01000000
,
00000000
00010000
00001000
00010000
,
00001000
00010000
00001000
00001000
,
00000000
00000100
00000000
00000001
,
00000000
00000010
00000000
00001000
,
00010000
00001000
00011000
00000000
,
00010000
00010000
00000000
01000000
,
00000000
10000000
00000000
00100000
,
00020000
00000000
00000000
00000000
,
00032000
00000000
00000000
00000000
,
00203000
00000000
00000000
00000000
,
02300000
00000000
00000000
00000000
,
03020000
00000000
00000000
00000000
,
00032000
00000000
00000000
00000000
,
00003010
00000010
00000001
00000001
,
00000100
00000100
00000010
00000010
,
00010000
00001000
00100000
01000000
,
20000000
30200000
00320000
00032000
,
00003010
00000001
00000100
00000000
00000010
00000000
00001000
00000000
,
00000100
00010000
00001000
00000000
00100000
00000000
00010000
00000000
,
01000000
00100000
10000000
00000000
00010000
00000000
01000000
00000000
,
00001000
00010000
00000100
00000000
00001000
00000000
00000010
00000000
,
00000100
00000001
00001000
00000000
00000100
00000000
00010000
00000000
,
00001000
01000000
00100000
00000000
10000000
00000000
00010000
00000000
,
01000000
00001000
00010000
00000000
00000100
00000000
00000010
00000000
,
00000001
00000100
00001000
00000000
00010000
00000000
00100000
00000000
,
10100000
10000000
01000000
00100000
,
00101000
00001000
00010000
00000100
,
00001100
00001000
00000001
00000100
,
00000110
00000010
00010000
00001000
,
01001000
01000000
00010000
00100000
,
01100000
01000000
10000000
00100000
,
00110000
00010000
00001000
00000010
,
00000011
00000001
00000100
00001000
,
00022000
00000000
00000000
00033000
,
00022000
00000000
00000000
00000000
,
00000000
00033000
00010000
00001000
,
00010000
00001000
00000000
00000000
,
00000000
00001000
00010000
00002000
,
00000000
00103000
00010000
00100000
,
00010000
01000000
00000000
01100000
,
00000000
10010000
00000000
01100000
,
00000000
10010000
00000000
10000000
,
00020000
00000000
01030000
00001000
,
00010000
00000200
00000000
00010300
,
00001000
00200000
00000000
00301000
,
00010000
00000010
00000000
00000100
,
00000010
00000000
00000100
00000001
,
00000000
00000100
00000000
00001000
,
00010000
00000000
00001000
01000000
,
00000000
00100000
00000000
10000000
,
01000000
00000000
00100000
01000000
,
10000000
00200000
00000000
00000000
,
00320000
00000000
00000000
00032000
,
00000000
00003020
00000000
00000000
,
00000031
00000100
00000001
00000100
,
00000010
00010000
00000000
00001000
,
00000000
00010000
00000000
00022000
,
00033000
00001000
01000000
00010000
,
00000000
01000000
00001000
00010000
,
00000000
00001000
00010000
00000100
,
00000000
00001000
00000100
00010000
,
00000000
00001000
00010000
02000000
,
00000000
23000000
00000000
30200000
,
00000000
00320000
00000000
00032000
,
00000000
00003020
00000000
00000032
,
00000000
00000103
00001000
00010000
,
00001000
00000100
00001000
00010000
,
01000000
00100000
00000000
01000000
,
00010000
00000000
01000000
00100000
,
00001000
00010000
00100000
00000000
,
00100000
10000000
00000000
10000000
,
01000000
00000000
01000000
00010000
,
00000000
00011000
00000000
00011000
,
00000000
00001000
00000010
00000000
,
00000010
00000001
00000000
00000001
,
00000100
00000000
00000100
00001000
,
00000000
00011000
00000000
00011000
,
00000000
00010000
00100000
00000000
,
00100000
10000000
00000000
10000000
,
01000000
00000000
01000000
00010000
,
00000000
00011000
00000000
00011000
,
00000000
00001000
00000010
00000000
,
00000010
00000001
00000000
00000001
,
00000100
00002000
00000000
00000000
,
00000000
00023000
00000000
00000000
,
00000000
00000000
00030100
00001000
00000010
00000000
00100000
00010000
,
01000000
00100000
00010000
00001000
,
00000000
00000010
00001000
00010000
,
00022000
00033000
00001000
00100000
,
01000000
00000000
00100000
00001000
,
01000000
00000000
00001000
00100000
,
01000000
00010000
00001000
00000010
,
00000100
00000000
00000010
00001000
,
00010000
00000000
00010000
00001000
,
00000100
00000002
00000000
00000013
,
00001000
00010000
00022000
00000000
,
00033000
00000000
00000000
00000000
;

//---------------dance-double - ----------------
#NOTES:
     dance-double:
     :
     Medium:
     14:
     0.681813,1.166816,0.527133,0.398912,0.042741,670.000000,596.000000,74.000000,56.000000,0.000000,0.000000,0.681813,1.166816,0.527133,0.398912,0.042741,670.000000,596.000000,74.000000,56.000000,0.000000,0.000000:
00000000
00000000
00000000
00000000
,
00000000
00000000
00000000
00000000
,
00000000
00000000
00000000
00000000
,
00000000
00000000
00000000
00000000
,
00000000
00000000
00000000
00000000
,
00000000
00000000
00000000
00000000
,
00001000
00010000
00001000
00000000
00100000
00000000
01000000
00000000
,
00010000
00001000
00010000
00000000
00000100
00000000
00000010
00000000
,
00001000
00010000
00001000
00000000
00000010
00000000
00000100
00000000
,
00010000
00001000
00010000
00000000
00001000
00000000
00010000
00000000
,
00011000
00000000
00001000
00000000
00010000
01000000
10000000
00000000
,
10010000
00000000
10000000
00000000
01000000
00010000
00001000
00000000
,
00011000
00000000
00010000
00001000
00000010
00000001
00000100
00001000
,
00022000
00000000
00000000
00030000
,
00000000
00103000
00010000
01000000
,
00001000
00010000
00000100
00001000
,
00000010
00010000
00001000
00100000
,
00010000
01000000
00001000
00010000
,
00000100
00000100
00000220
00000300
00000000
00000032
00000000
00000000
,
00000203
00002300
00023000
00230000
,
20300000
00000000
31000000
01000000
00000000
00010000
00010000
00000000
,
00001000
00001000
00000000
00000010
00000010
00000000
00000000
00000001
,
00002002
00003003
00001000
00000100
,
00010000
00000100
00001000
00000010
,
00010000
00010100
00000000
01001000
,
00000000
01000000
00010000
00200000
,
00000000
01300000
01000000
10000000
,
00100000
00010000
00100000
10000000
,
01000000
01100000
00000000
00101000
,
00000000
00010010
00000010
00000200
,
00000000
00000301
00000001
00000010
,
00000010
00001000
00001000
00010000
,
00010000
00100000
00100000
10000000
,
10000000
01000000
01000000
00100000
,
00100000
00000000
00001000
00000000
00011000
00000000
00000000
01001000
,
00000000
00010100
00000100
00000010
,
00000001
00001000
00000100
00000010
,
00000001
00000100
00001000
00010000
,
00100000
10000000
20020000
00000000
,
30030000
00010000
01000000
00001000
,
01000000
00010000
00100000
01000000
,
00010000
00001000
00000010
00000100
,
00001000
00000001
00000101
00000000
,
00001000
00001010
00000000
00011000
,
00000000
00110000
00000000
10100000
,
10000000
01000000
00200000
00000000
,
00310000
01000000
01001000
00001000
,
00010000
00100000
00010000
00001000
,
00000010
00000010
00000001
00000001
,
00000100
00000100
00001000
00001000
,
00010000
01000000
11000000
10000000
,
01000000
00100000
00001000
00010000
,
00000100
00000010
00000011
00000001
,
00000100
00000010
00010000
00001000
,
00100000
01000000
00100000
00000000
00010000
00000000
10010000
00000000
,
00000000
01100000
00000000
01001000
,
00000000
00011000
00000000
00010000
,
00001000
00000100
00000220
00000330
,
00001000
00001001
00000000
00000110
,
00000000
00010010
00000000
00011000
,
00000000
00010000
00100000
01000000
,
00100000
10000000
01000000
01010000
,
00000000
00011000
00000000
00001100
,
00000000
00000101
00000000
00000001
,
00000010
00000100
00020200
00030300
,
00010000
00011000
00000000
00010100
,
00000000
00101000
00000000
00100000
,
02200000
00000000
00000000
03300000
,
20020000
00000000
00000000
30030000
,
10000000
00100000
00010000
00000000
00100000
00000000
01000000
00000000
,
00010000
00100000
00001000
00000000
00010000
00000000
00000100
00000000
,
00000010
00000001
00000100
00000000
00001000
00000000
00000100
00000000
,
00000010
00001000
00000100
00000000
00010000
00000000
00001000
00000000
,
00100000
01000000
10000000
00000000
00100000
00010000
00001000
00000000
,
00010000
00001000
00000010
00000000
00000100
00000010
00000001
00000000
,
00001000
00000010
00010000
00001000
00100000
00010000
10000000
00100000
,
01100000
00000000
00000000
01001000
00000000
00000000
00011000
00000000
00010100
00000000
00000000
00000110
00000000
00000000
00001001
00000000
,
00000001
00000000
00001000
00000000
00000100
00000000
00000000
00010000
00000000
00000000
00001000
00000000
00010000
00000000
00100000
00000000
,
01000000
00000000
00100000
00000000
10000000
00000000
00000000
00010000
00000000
00000000
01000000
00000000
00100000
00000000
10000000
00000000
,
00010000
00000000
00100000
00000000
01000000
00000000
00000000
10000000
00000000
00000000
00100000
00000000
00010000
00000000
00001000
00000000
,
00000010
00000000
00000100
00000000
00000010
00000000
00000000
00000001
00000000
00000000
00000100
00000000
00001000
00000000
00010000
00000000
,
00001000
00000000
00000010
00000000
00000100
00000000
00000000
00010000
00000000
00000000
00001000
00000000
00100000
00000000
01000000
00000000
,
00010000
00000000
01000000
00000000
10000000
00000000
00000000
00100000
00000000
00000000
00010000
00000000
00001000
00000000
00000010
00000000
,
00000100
00000000
00001000
00000000
00000100
00000000
00000000
00000001
00000000
00000000
00000100
00000000
00000010
00000000
00000001
00000000
,
00000100
00000000
00000000
00001000
00000000
00000000
00010000
00000000
00000000
00100000
00000000
10000000
01000000
00000000
00100000
00000000
,
01100000
01000000
00010000
00000000
01000000
00010000
00001000
00000000
,
00010000
00001000
00000100
00000000
00001000
00000100
00000001
00000000
,
00000010
00001000
00010000
00000000
00001000
00010000
00100000
00000000
,
00010000
00100000
10000000
00000000
01000000
00010000
00001000
00000000
,
00100000
01000000
00100000
01000000
10000000
00100000
00010000
00000000
,
00000100
00000010
00000100
00000010
00000001
00000100
00001000
00000000
,
00100000
01000000
10000000
01000000
00100000
00010000
00001000
00000100
,
00000010
00000001
00000010
00000100
00001000
00010000
01000000
00010000
,
00022000
00000000
00000000
00000000
00000000
00000000
00000000
00033000
,
00022000
00000000
00000000
00000000
,
00000000
00033000
00001000
00010000
,
00001000
00011000
00000000
00000000
,
00000000
00011000
00001000
00000020
,
00000000
00000031
00000100
00000010
,
00001000
00001100
00000000
00011000
,
00000000
00110000
00000000
00011000
,
00000000
00001020
00000000
00000100
,
00000130
00000000
00000100
00000001
,
00000010
00000110
00000000
00000100
,
00010000
00011000
00000000
00001000
,
00100000
00000000
01000000
10000000
01000000
00000000
00100000
00000000
,
00010000
01000000
00001000
00010000
,
00000100
00000000
00000010
00000001
00000010
00000000
00001000
00000000
,
00010000
00100000
10000000
01000000
,
00100000
00000000
00001000
00010000
00001000
00000000
00000010
00000000
,
00000001
00000100
00001000
00000100
,
00000010
00020020
00000000
00030030
,
00202000
00000000
00303000
00020200
,
00030300
02002000
00000000
03003000
,
00001000
00010000
00000100
00000000
00010000
00001000
00100000
00000000
,
00001000
00000000
00010000
00000000
00000000
00000100
00000000
00000000
,
00000010
00000001
00000100
00000220
,
00000330
00000010
00001000
00000100
,
00010000
00001000
00100000
01000000
,
10000000
00100000
00010000
00100000
,
00010000
00001000
00000100
00001000
,
00000100
00000002
00000000
00000013
,
00000100
00001000
00000010
00000100
,
00001000
00010000
00100000
01000000
,
00010000
00100000
01000000
00010000
,
00001000
00000010
00000001
00000100
,
00001000
00010000
00100000
10000000
,
01000000
00020000
00000000
00031000
,
00000020
00000000
00001030
00010000
,
00011000
00001000
00100000
01000000
,
00100000
00001000
01000000
00100000
,
00001000
00100000
01000000
00001000
,
00100000
01000000
00010000
00002000
,
00000000
00013000
00000100
00000010
,
00000100
00010000
00000010
00000100
,
00010000
00000100
00000010
00010000
,
00000100
00000010
00001000
00020000
,
00000000
00031000
00000100
00000001
,
00000010
00001000
00010000
01000000
,
10000000
00100000
00010000
00001000
,
00000010
00000001
00000100
00002000
,
00000000
00013000
00100000
10000000
,
01000000
00010000
00001000
00000010
,
00000001
00000202
00000000
00000000
,
00000303
00002020
00000000
00000000
,
00003030
00000000
00001100
00000100
00010000
00001000
00011000
00010000
,
00001000
01000000
01010000
00000000
00010000
00000000
10000000
00000000
,
01000000
00000000
00011000
00000000
00000010
00000000
00000001
00001000
,
00002002
00003003
00000001
00000100
,
00000001
00000100
00001000
00010000
,
00001000
00010000
00100000
10000000
,
00100000
10000000
01000000
00010000
,
00001000
00000010
00000001
00000010
,
00000100
00001000
00010000
00100000
,
01000000
20000000
00000000
30100000
,
00010000
00001000
00022000
00000000
,
00033000
00000000
00000000
00000000
;

//---------------dance-double - ----------------
#NOTES:
     dance-double:
     :
     Hard:
     17:
     0.909763,1.555755,0.576997,0.477269,0.260005,894.000000,813.000000,81.000000,67.000000,0.000000,0.000000,0.909763,1.555755,0.576997,0.477269,0.260005,894.000000,813.000000,81.000000,67.000000,0.000000,0.000000:
00000000
00000000
00000000
00000000
,
00000000
00000000
00000000
00000000
,
00000000
00000000
00000000
00000000
,
00000000
00000000
00000000
00000000
,
00000000
00000000
00000000
00000000
,
00000000
00000000
00000000
00000000
,
00001000
00100000
01000000
00100000
00010000
01000000
00100000
10000000
,
00010000
00100000
01000000
00010000
00001000
00000010
00000100
00000010
,
00000001
00000100
00000010
00001000
00000100
00010000
00001000
00100000
,
01000000
10000000
00100000
00010000
00001000
00000100
00000001
00000010
,
00000100
00000100
00000001
00000100
00001000
00000010
00010000
00001000
,
00100000
00100000
10000000
00100000
00010000
01000000
00100000
10000000
,
01000000
01000000
00010000
00001000
00000010
00000001
00000100
00001000
,
00022000
00000000
00000000
00030000
,
00000000
00000000
00103000
01000000
10000000
00100000
01000000
00010000
,
00100000
00001000
00010000
00000100
00001000
00000010
00000100
00000001
,
00000010
00000100
00010000
00001000
00100000
01000000
10000000
00100000
,
00010000
00001000
00000100
00000001
00000010
00000100
00010000
00001000
,
00100000
01000000
00100000
01000000
00200000
00000000
00000000
00000000
00000000
00000000
00320000
00000000
00000000
00000000
00000000
00000000
,
10030000
00100000
01000000
00010000
00001000
00000010
00000100
00000001
,
00001000
00000100
00001000
00000100
00010000
00000000
00011000
00000000
00000000
00000000
00001000
00000000
01001000
00000000
00000000
00000000
,
00010000
00010100
00000000
00001000
00101000
00000000
00000000
00010000
,
00020020
00030030
00000010
00001000
,
00000100
00000010
00000001
00001000
,
00000010
00010000
00100000
10000000
,
01000000
00100000
00010000
01000000
,
00001000
00000100
00000001
00001000
,
00000010
00000100
00000001
00001000
,
00000100
00010100
00010000
00011000
,
00001000
01001000
01000000
01100000
,
00100000
10000000
11000000
01000000
,
00100000
00001000
00010000
00000100
,
00000010
00000001
00000101
00000100
,
00000010
00010000
00001000
00100000
,
01000000
00000000
10000000
00000000
00100000
00010000
00000000
00010000
,
00001000
00000000
00001000
00000010
00000000
00000010
00000001
00000000
,
00000100
00001000
00010000
00000000
00200000
00000000
00320000
00000000
,
00032000
00003020
00000031
00000100
,
00001000
00010000
00001000
00010000
00200000
00000000
00000000
00000000
,
00000000
00000000
10300000
01000000
00100000
00000000
01000000
00000000
,
10000000
00100000
01100000
01000000
,
00010000
00100000
01000000
00010000
,
00001000
00000010
00000011
00000000
,
00001100
00001100
00000000
00010100
,
00000000
00000000
02002000
00000000
03003000
00000000
01000000
00010000
,
01000000
00010000
01000000
00010000
20000000
00000000
00000000
00000000
,
30100000
01000000
00100000
01000000
00010000
00000000
00100000
00000000
,
01000000
10000000
00100000
00010000
,
00001000
00010000
00001000
00000000
00100000
00010000
00100000
00000000
,
00001000
00010000
00001000
00000000
01000000
00010000
01000000
00000000
,
00001000
00010000
00010100
00000100
,
00000010
00000001
00001000
00000010
,
00010000
00001000
01001000
01000000
,
00010000
00100000
01000000
10000000
,
00100000
00010000
00100000
00010000
00001000
00000000
01001000
00000000
,
00000000
00010100
00000000
00101000
,
00000000
00020020
00030030
00010000
,
00001000
00010000
00022000
00033000
,
00001000
00101000
00000000
00010010
,
00000000
01001000
00000000
00020200
,
00030300
00000100
00001000
00000100
,
00000010
00000001
00000101
00000101
,
00000000
00001100
00000000
00011000
,
00000000
00220000
00330000
00100000
,
10000000
01000000
02200000
03300000
,
00110000
00110000
00000000
01001000
,
00000000
00010100
00000000
00001100
,
00000110
00000000
00000000
00000000
00000001
00000000
00000000
00000000
00000100
00000000
00000000
00000000
,
00011000
00000000
00000000
00000000
00100000
00000000
00000000
00000000
10000000
00000000
00000000
00000000
,
10010000
00010000
00100000
01000000
10000000
01000000
00010000
00001000
,
00000010
00000001
00000010
00000100
00001000
00000010
00000001
00000010
,
00000100
00001000
00010000
00100000
01000000
10000000
01000000
00010000
,
00100000
01000000
00010000
00001000
00000010
00000001
00000100
00000010
,
00002010
00003100
00000100
00010000
00010000
00001000
00001000
01000000
,
01020000
00130000
00100000
00001000
00001000
00010000
00010000
00000100
,
00000010
00000001
00000010
00000001
00001000
00000100
00001000
00000100
00010000
00001000
00010000
00001000
00100000
00010000
00100000
00010000
,
10000000
00000000
01000000
00010000
00000000
00010000
00001000
00000000
00000010
00000000
00001000
00010000
00000000
00010000
00000100
00000000
,
00000110
00000000
00000001
00000000
00000100
00000000
00001000
00010000
00000000
00000010
00000000
00010000
00001000
00000000
00100000
00000000
,
01000000
00000000
10000000
00000000
00100000
00000000
01000000
00010000
00000000
00100000
00000000
00010000
01000000
00000000
10000000
00000000
,
01000000
00000000
00100000
00000000
00010000
00000000
00001000
00100000
00000000
01000000
00000000
00100000
00001000
00000000
00010000
00000000
,
00000100
00000000
00000010
00000000
00000001
00000000
00000100
00001000
00000000
00010000
00000000
00001000
00000100
00000000
00000010
00000000
,
00010000
00000000
00001000
00000000
00011000
00000000
00010000
00100000
00000000
10000000
00000000
00100000
00010000
00000000
00100000
00000000
,
01000000
00000000
00010000
00000000
00110000
00000000
00100000
00001000
00000000
00000010
00000000
00001000
00100000
00000000
00010000
00000000
,
01000000
00000000
00001000
00000000
00011000
00000000
00010000
00000100
00000000
00000001
00000000
00000100
00010000
00000000
00001000
00000000
,
00000100
00000000
00000001
00000020
00000000
00000130
00020000
00000000
00031000
00200000
00000000
01300000
10000000
00000000
11000000
00000000
,
01000000
00100000
00010000
01000000
00100000
00010000
00001000
00000100
,
00000010
00001000
00000100
00000010
00001000
00000001
00000100
00001000
,
00000010
00010000
00001000
01000000
00010000
00100000
10000000
00010000
,
01000000
00100000
00001000
00010000
00000100
00000010
00001000
00010000
,
00100000
10000000
00100000
00000000
10000000
00000000
01000000
00000000
00010000
00001000
00010000
00000000
00001000
00000000
00000010
00000000
,
00000001
00000100
00000001
00000000
00000100
00000000
00001000
00000000
00010000
00001000
00010000
00000000
00100000
00000000
10000000
00000000
,
01000000
00100000
01000000
00000000
00010000
00000000
00001000
00000000
00000010
00000100
00000010
00000000
00000001
00000000
00000100
00000000
,
00000010
00010000
00001000
00000000
00100000
00001000
00010000
00000000
00000100
00010000
00001000
00000000
01000000
00001000
00010000
00000000
,
00022000
00000000
00000000
00000000
00000000
00000000
00000000
00033000
,
00022000
00000000
00000000
00000000
,
00000000
00033000
01001000
00010100
,
00011000
00011000
00000000
00000000
,
00000000
00011000
00001000
00000100
,
00000001
00000100
00000010
00010000
,
00001000
00000000
00100000
00000000
01000000
00000000
10000000
00100000
,
10000000
00000000
00010000
00100000
00010000
00000000
01000000
00100000
,
01000000
00000000
00001000
00010000
00001000
00000000
00000100
00000000
,
00000001
00000010
00000100
00001000
,
00000010
00000000
00010000
00001000
00010000
00000000
02000000
00000000
,
03020000
00000000
00031000
00010000
00001000
00000000
00000200
00000000
,
00001300
00000100
00000020
00000000
00001030
00000000
00001100
00000000
,
00000010
00000001
00000100
00001000
,
00010000
00110000
10000000
11000000
,
00100000
00010000
01000000
00001000
,
00010000
00010100
00000010
00000011
,
00000100
00000000
00001000
00000000
00010000
00000000
00100000
10000000
,
00100000
10000000
01000000
00100000
01000000
00100000
00002000
00000000
,
00013000
00000100
00010000
00000100
00000020
00000000
00000031
00000100
,
00000001
00000100
00002000
00000000
00000000
00000000
00000000
00000000
,
00013000
00000100
00010000
00001000
01000000
00001000
00010000
00000100
,
00001000
00000000
00001001
00000000
00000000
00010010
00000000
00000000
,
00101000
00000000
00000000
00100000
00010000
00000000
20020000
00000000
,
30030000
10000000
01000000
00010000
,
00001000
00000010
00000001
00000100
,
00001000
00000000
00010000
01000000
00010000
00000000
00001000
00000000
,
00010000
00000000
00001000
00000100
00001000
00000000
00010000
00000000
,
00001000
00021000
00000000
00030200
,
00000320
00000032
00002003
00003200
,
00000320
00002030
00023000
00230000
,
02300000
03020000
00230000
02300000
,
23000000
00000000
30100000
01000000
00010000
00100000
00001000
00010000
,
00000100
00001000
00000010
00000100
00000001
00000010
00000100
00001000
,
00000010
00020000
00002000
00000000
00030000
00000000
01003000
00000000
,
01001000
00000000
00000100
00010100
,
00011000
00001000
00100000
01000000
,
00010000
01000000
00100000
00001000
,
01000000
00100000
00001000
01000000
,
00001000
00100000
00010000
00002000
,
00000000
00013000
00000100
00000010
,
00001000
00000010
00000100
00010000
,
00000010
00000100
00010000
00000010
,
00010000
00000100
00001000
00020000
,
00000000
00000000
00031000
00000010
00001000
00000000
00000010
00000000
,
00000001
00000100
00000001
00000000
00000100
00000000
00001000
00010000
,
00001000
00000000
00010000
00000000
00100000
10000000
00100000
00000000
,
10000000
00000000
01000000
00010000
01000000
00000000
00010000
00001000
,
00010000
00000000
00001000
00100000
00001000
00100000
00001000
00000000
,
00010000
00000010
00010000
00000010
00010000
00000000
00001000
00010000
,
00001000
00000000
00000000
00010000
00000000
00000000
00001000
00000000
00000000
00000000
00000000
00000000
00000000
00000000
01001000
00000000
00000000
00000000
00000000
00000000
00000000
00000000
00011000
00000000
,
00000000
00000000
00000000
00010100
00000000
00000000
00000000
00011000
00000000
00000000
00000000
00101000
,
00000000
00000000
00000000
00000000
00000000
00000000
00010010
00000000
00000000
00010000
00001000
00000100
00000010
00000000
00000000
00001000
00000100
00000010
00000001
00000000
00000000
00000001
00000010
00000100
,
00001000
00000000
00000000
00000010
00000100
00001000
00010000
00000000
00000000
00000000
00000000
00000000
00001000
00000000
00010000
00000000
00100000
00000000
01000000
00000000
00000000
00000000
00000000
00000000
,
00010000
00000000
00100000
00000000
01000000
00000000
10000000
00000000
00000000
00000000
00000000
00000000
00100000
00000000
00010000
00000000
00001000
00000000
00010000
00000000
00000000
00001000
00000000
00000000
,
00022000
00000000
00033000
00000000
00010000
01000000
10000000
00000000
,
10000000
01000000
00010000
00000000
00001000
00010000
00001000
00010000
,
00001000
00000000
00010000
00000000
00001000
00000010
00000001
00000000
,
00000001
00000010
00001000
00000000
00010000
00001000
00010000
00001000
,
00010000
00000000
00001000
00000000
00010000
01000000
10000000
01000000
,
00010000
00000000
00001000
00000010
00000001
00000010
00001000
00000000
,
00010000
00002000
00020000
00000000
00033000
00000000
00101000
00000000
,
00010010
00011000
00022000
00000000
,
00033000
00000000
00000000
00000000
;
