#VERSION:0.83;
#TITLE:Out Law Reborn;
#SUBTITLE:;
#ARTIST:Mr. Funky;
#TITLETRANSLIT:;
#SUBTITLETRANSLIT:;
#ARTISTTRANSLIT:;
#GENRE:VARIETY;
#ORIGIN:;
#CREDIT:MUINELIM;
#BANNER:Out Law Reborn.png;
#BACKGROUND:Out Law Reborn-bg.png;
#PREVIEWVID:;
#JACKET:Out Law Reborn-jacket.png;
#CDIMAGE:;
#DISCIMAGE:;
#LYRICSPATH:;
#CDTITLE:;
#MUSIC:Out Law Reborn.ogg;
#OFFSET:-0.116000;
#SAMPLESTART:7.500615;
#SAMPLELENGTH:11.076922;
#SELECTABLE:YES;
#DISPLAYBPM:130.000000;
#BPMS:0.000=130.000,
202.000=65.000,
204.000=130.000;
#STOPS:14.000=0.231,
14.500=0.231,
180.000=0.923,
186.000=0.462,
193.500=0.923;
#DELAYS:;
#WARPS:;
#TIMESIGNATURES:0.000=4=4;
#TICKCOUNTS:0.000=4;
#COMBOS:0.000=1;
#SPEEDS:0.000=1.000=0.000=0;
#SCROLLS:0.000=1.000;
#FAKES:;
#LABELS:0.000=Song Start;
#BGCHANGES:0.000=Out Law Reborn.mp4=1.000=1=0=0=StretchNoLoop==CrossFade==,
99999=-nosongbg-=1.000=0=0=0 // don't automatically add -songbackground-
;
#KEYSOUNDS:;
#ATTACKS:
;

//---------------dance-single - ----------------
#NOTEDATA:;
#CHARTNAME:;
#STEPSTYPE:dance-single;
#DESCRIPTION:;
#CHARTSTYLE:;
#DIFFICULTY:Hard;
#METER:14;
#RADARVALUES:0.593333,0.571609,0.244313,0.286436,0.581297,493.000000,464.000000,29.000000,34.000000,0.000000,0.000000,0.000000,0.000000,0.000000,0.593333,0.571609,0.244313,0.286436,0.581297,493.000000,464.000000,29.000000,34.000000,0.000000,0.000000,0.000000,0.000000,0.000000;
#CREDIT:MILEN;
#NOTES:
0000
0000
0000
0000
,
0000
0000
0000
0000
,
0000
0000
0000
0000
,
0000
0000
0000
0000
0000
0000
0000
0000
0010
0000
0010
0000
0110
0000
0100
0001
,
0000
1000
0000
0000
0110
0000
0010
1000
0000
0001
0000
0000
0100
0010
0100
0000
,
0001
0000
0010
0000
0100
0000
1000
0010
0000
0101
0000
0000
0001
0010
0001
0000
,
1000
0000
0100
0000
0010
0000
0001
0100
0000
1010
0000
0000
1000
0100
1000
0000
,
0010
0000
0100
0000
0001
0000
0010
0100
0000
0010
0000
0001
1000
0000
0010
0000
,
0100
0000
1000
0000
0100
0001
0100
0000
0010
0000
1000
0100
1000
0000
0010
0000
,
0100
0000
0001
0000
0010
1000
0010
0000
0001
0000
0100
0010
0100
0000
1000
0000
,
0100
0000
0010
0100
0001
0000
0010
0000
0100
0000
1000
0000
0010
0000
0100
0001
,
0000
1000
0000
0000
1100
0000
1100
0000
0100
0010
0000
0001
0100
0000
1000
0000
,
0100
0000
0001
0010
0000
0000
0100
0000
1000
0010
0000
0000
0001
0000
0010
0000
,
1000
0000
0100
0000
0010
0100
0010
0000
0001
0100
0000
0000
0010
0000
1000
0000
,
1100
0000
0100
0000
1000
0000
0100
0000
0010
0001
0000
0000
0100
0000
0001
0000
,
0101
0000
0100
0000
0001
0000
0100
0000
0010
1000
0000
0000
0001
0000
1000
0000
,
0100
0000
0010
0000
0001
0100
0001
0000
1000
0100
1000
0000
0001
0010
0001
0000
,
1000
0010
1000
0000
0100
0000
0010
0000
0001
0100
0001
0100
0001
0000
0000
0000
,
1000
0010
1000
0000
0100
0000
0010
0000
0001
0010
0001
0000
0100
0000
0020
0000
,
2030
0000
3002
0000
0103
0010
0000
1000
0010
0000
0100
0000
0110
0000
0010
0000
,
1000
0000
0100
0001
0000
0100
0010
0000
0001
0000
0100
0000
1000
0000
0100
0000
,
0010
0000
1000
0100
0000
1000
0001
0000
0010
0000
1000
0000
0010
0000
0100
0000
,
1000
0000
0010
0100
0000
0010
1000
0000
0100
0000
0001
0000
0100
0000
0010
0001
,
0000
0100
0000
0010
1000
0000
0001
0100
0002
0000
2003
0000
3010
0000
0010
0000
,
0100
0000
0001
0010
0000
0100
1000
0000
0010
0000
0001
0000
1000
0000
0100
0000
,
0001
0000
0010
0100
0000
1000
0001
0000
0100
0000
1000
0000
0001
0000
0010
0000
,
1000
0000
0100
0010
0000
0001
1000
0000
0010
0000
0100
0000
0001
0000
0010
0100
,
0000
0010
0000
0100
1000
0001
1000
0000
0001
0100
0000
1000
0200
0000
0000
0320
,
0000
0000
2030
0000
0000
3002
0000
0000
0013
0000
0100
0000
2000
0000
0000
3020
,
0000
0000
0230
0000
0000
0302
0000
0000
1003
0000
0010
0000
0200
0000
0000
2300
,
0000
0000
3200
0000
0000
0302
0000
0000
0013
0000
0100
0000
0002
0000
0000
0203
,
0000
0000
2300
0000
0000
3002
0000
0000
0103
0000
0010
0000
0110
0000
0000
0100
,
0001
0000
0010
0000
0000
0100
1000
0000
0010
0000
0100
0000
0101
0000
0000
1000
,
0100
0000
0010
0000
0000
0001
0010
0000
0100
0000
1000
0000
1010
0000
0000
0001
,
0010
0000
1000
0000
0000
1000
0100
0000
0001
0000
1000
0000
1010
0000
0000
0011
,
0000
0000
1100
0000
0000
0101
0000
0000
1001
0000
0010
0000
0210
0000
0000
0000
,
0001
0000
1000
0000
,
0001
0000
1000
0320
,
0001
0000
0000
0000
0000
0000
0000
0000
1000
0000
0000
0000
0100
0000
0000
0100
,
0000
0000
0100
0000
0000
0100
0000
0000
0130
0000
0000
0000
1001
0000
0001
1000
,
0010
0000
0100
0000
0001
1000
0010
0000
0100
0000
0010
0000
0110
0000
0100
0001
,
0000
1000
0010
0000
1000
0100
0010
0000
0002
0000
2003
0000
3010
0000
0010
0100
,
0001
0000
0010
0000
0100
0000
1000
0010
0100
0000
0010
0000
1000
0100
1000
0100
,
0010
0000
0010
0001
0000
0001
1000
0000
0020
0000
0230
0000
0301
0000
1000
0000
,
1001
0000
0001
0010
0000
1000
0010
0000
0100
0000
0010
0000
0011
0000
0000
0000
,
2200
0000
3300
0000
1000
0000
0010
0000
0100
0000
1000
0100
0000
0001
0100
0000
,
0110
0000
1010
0001
0202
0300
1000
1003
,
0010
0000
0100
0000
0001
0000
0010
0100
0000
1000
0001
0000
0100
0000
0010
0000
,
1010
0000
0000
0000
0101
0000
0102
0000
0013
0000
0001
0000
0100
0000
1000
0100
,
0000
0001
0010
0000
1000
0000
0010
0000
0100
0000
1000
0010
0100
0000
0001
0010
,
0000
0000
0001
1000
0001
1000
0001
1000
0200
0000
0000
0000
0000
0000
0000
0000
,
0310
0000
0001
0100
0000
0010
0000
1000
0000
0100
1000
0000
0001
0000
0000
0000
,
0010
0000
0100
1000
0000
0100
0000
0010
0000
0001
0100
0000
1000
0000
0000
0000
,
0100
0000
0010
1000
0000
0010
0000
0001
0000
0010
0100
0000
0001
0000
0000
0000
,
0010
0000
0100
1000
0000
0010
0000
0100
0000
0001
0010
0001
0010
0000
0001
0100
,
0010
0000
1000
0100
0000
1000
0000
0010
0000
0001
0010
0000
0100
0000
0001
0000
,
0010
0000
0100
0001
0000
0100
0000
1000
0000
0010
0100
0000
1000
0000
0100
0000
,
0001
0000
0010
0100
0000
1000
0000
0010
0000
0001
0010
0000
0100
0000
0001
0000
,
1000
0010
1000
0010
0100
0001
0100
0001
1000
0000
0010
0100
0020
0000
0000
0000
,
0030
0000
0000
0000
;

//---------------dance-double - ----------------
#NOTEDATA:;
#CHARTNAME:;
#STEPSTYPE:dance-double;
#DESCRIPTION:;
#CHARTSTYLE:;
#DIFFICULTY:Hard;
#METER:14;
#RADARVALUES:0.590926,0.571609,0.278012,0.193766,0.556024,491.000000,458.000000,33.000000,23.000000,0.000000,0.000000,0.000000,0.000000,0.000000,0.590926,0.571609,0.278012,0.193766,0.556024,491.000000,458.000000,33.000000,23.000000,0.000000,0.000000,0.000000,0.000000,0.000000;
#CREDIT:MILEN;
#NOTES:
00000000
00000000
00000000
00000000
,
00000000
00000000
00000000
00000000
,
00000000
00000000
00000000
00000000
,
00000000
00000000
00000000
00000000
00000000
00000000
00000000
00000000
00001000
00000000
00001000
00000000
00011000
00000000
00010000
00000100
,
00000000
00010000
00000000
00000000
00011000
00000000
00001000
01000000
00000000
00001000
00000000
00000000
00010000
00001000
00010000
00000000
,
00000100
00000000
00001000
00000000
00000100
00000000
00000010
00000001
00000000
00000101
00000000
00000000
00001000
00000100
00001000
00000000
,
00000010
00000000
00010000
00000000
00001000
00000000
00100000
00010000
00000000
01010000
00000000
00000000
10000000
00100000
10000000
00000000
,
01000000
00000000
00100000
00000000
00010000
00000000
01000000
00001000
00000000
00010000
00000000
00000100
00001000
00000000
00000010
00000000
,
00000100
00000000
00000001
00000000
00000010
00000100
00000010
00000000
00001000
00000000
00010000
00001000
00010000
00000000
01000000
00000000
,
10000000
00000000
00100000
00000000
01000000
00010000
01000000
00000000
00001000
00000000
00010000
00001000
00010000
00000000
00100000
00000000
,
10000000
00000000
01000000
00000000
00010000
00000000
00001000
00000000
00000010
00000000
00000000
00000000
00000011
00000000
00000001
00000100
,
00000000
00000010
00000000
00000000
00001010
00000000
00000010
00000000
00010000
00001000
00000000
00010000
00001000
00000000
00100000
00000000
,
01000000
00000000
10000000
00100000
00000000
00000000
01000000
00000000
00010000
00100000
00000000
00000000
10000000
00000000
00100000
00000000
,
01000000
00000000
10000000
00000000
00100000
00000000
00010000
00000000
00001000
00000100
00000000
00000000
00000001
00000000
00000010
00000000
,
00000011
00000000
00000001
00000000
00000100
00000000
00001000
00000000
00010000
00100000
00000000
00000000
10000000
00000000
01000000
00000000
,
11000000
00000000
10000000
00000000
00100000
00000000
00010000
00000000
00001000
00100000
00000000
00000000
01000000
00000000
00010000
00000000
,
00001000
00000000
00000010
00000000
00000001
00000100
00000001
00000000
00001000
00000010
00001000
00000000
00000010
00010000
00000010
00000000
,
00010000
00001000
00010000
00000000
00100000
00000000
01000000
00000000
00100000
10000000
01000000
00000000
01100000
00000000
00000000
00000000
,
00100000
00010000
00100000
00000000
00001000
00000000
00010000
00000000
00000010
00001000
00000010
00000000
00010000
00000000
00002000
00000000
,
00103000
00000000
00020000
00000000
00030010
00001000
00000000
00000100
00001000
00000000
00000001
00000000
00001001
00000000
00001000
00000000
,
00000010
00000000
00010000
00001000
00000000
00001000
00100000
00000000
01000000
00000000
10000000
00000000
00100000
00000000
01000000
00000000
,
00001000
00000000
00010000
00000100
00000000
00000100
00000010
00000000
00000001
00000000
00001000
00000000
00000010
00000000
00010000
00000000
,
00001000
00000000
00100000
01000000
00000000
01000000
10000000
00000000
00100000
00000000
00010000
00000000
00001000
00000000
00000100
00000001
,
00000000
00000001
00000000
00001000
00000010
00000000
00010000
00001000
00020000
00000000
00032000
00000000
01003000
00000000
01000000
00000000
,
00100000
00000000
10000000
01000000
00000000
00100000
00010000
00000000
01000000
00000000
00001000
00000000
00010000
00000000
00000100
00000000
,
00001000
00000000
00000001
00000100
00000000
00000010
00001000
00000000
00000100
00000000
00000010
00000000
00001000
00000000
00010000
00000000
,
01000000
00000000
10000000
00100000
00000000
01000000
00010000
00000000
00100000
00000000
01000000
00000000
00010000
00000000
00001000
00000100
,
00000000
00000001
00000000
00000010
00000100
00000010
00000100
00000000
00000010
00000000
00000001
00000000
00000100
00000000
00000000
00001000
,
00000000
00000000
00010000
00000000
00000000
00100000
00000000
00000000
10000000
00000000
01000000
00000000
00100000
00000000
00000000
00010000
,
00000000
00000000
01000000
00000000
00000000
00001000
00000000
00000000
00010000
00000000
00000100
00000000
00000010
00000000
00000000
00000001
,
00000000
00000000
00000100
00000000
00000000
00001000
00000000
00000000
00010000
00000000
00100000
00000000
10000000
00000000
00000000
01000000
,
00000000
00000000
00100000
00000000
00000000
00010000
00000000
00000000
00001000
00000000
00000010
00000000
00000110
00000000
00000000
00000100
,
00000001
00000000
00000010
00000000
00000000
00000100
00001000
00000000
00000010
00000000
00010000
00000000
00011000
00000000
00000000
00001000
,
00100000
00000000
00010000
00000000
00000000
00100000
00010000
00000000
00100000
00000000
01000000
00000000
11000000
00000000
00000000
10000000
,
00100000
00000000
01000000
00000000
00000000
00001000
00010000
00000000
00000100
00000000
00000010
00000000
00000011
00000000
00000000
00000101
,
00000000
00000000
00001100
00000000
00000000
00011000
00000000
00000000
00110000
00000000
10000000
00000000
12000000
00000000
00000000
00000000
,
03020000
00000000
00032000
00000000
,
00003020
00000000
00000032
00000203
,
00002300
00000000
00000000
00000000
00000000
00000000
00000000
00000000
00023000
00000000
00000000
00000000
00000100
00000000
00000000
00000100
,
00000000
00000000
00000100
00000000
00000000
00000100
00000000
00000000
00030100
00000000
00000000
00000000
00011000
00000000
00001000
00100000
,
00010000
00000000
01000000
00000000
00001000
00100000
00010000
00000000
01000000
00000000
00100000
00000000
10100000
00000000
10000000
01000000
,
00000000
00010000
01000000
00000000
10000000
00100000
00010000
00000000
00002000
00000000
00023000
00000000
00030100
00000000
00000100
00000010
,
00000001
00000000
00001000
00000000
00000010
00000000
00010000
00001000
00010000
00000000
00100000
00000000
10000000
01000000
10000000
01000000
,
00100000
00000000
00001000
00010000
00000000
00001000
00000010
00000000
00000002
00000000
00002003
00000000
00003001
00000000
00000100
00000000
,
00000110
00000000
00000010
00010000
00000000
00001000
00100000
00000000
01000000
00000000
10000000
00000000
10100000
00000000
00000000
00000000
,
02020000
00000000
03030000
00000000
00010000
00000000
10000000
00000000
01000000
00000000
00010000
00001000
00000000
00010000
00000100
00000000
,
00001100
00000000
00000011
00000001
00002002
00000003
00000100
00003100
,
00000010
00000000
00000100
00000000
00000001
00000000
00000010
00001000
00000000
00010000
00001000
00000000
00010000
00000000
00000010
00000000
,
00010010
00000000
00000000
00000000
00101000
00000000
00102000
00000000
00013000
00000000
00010000
00000000
01000000
00000000
10000000
00100000
,
00000000
00010000
00100000
00000000
01000000
00000000
00010000
00000000
00100000
00000000
00001000
00010000
00001000
00000000
00000010
00000001
,
00000000
00000000
00000100
00001000
00000100
00001000
00000100
00001000
00020000
00000000
00000000
00000000
00000000
00000000
00000000
00000000
,
00031000
00000000
00001000
00100000
00000000
00010000
00000000
01000000
00000000
00100000
10000000
00000000
11000000
00000000
00000000
00000000
,
01000000
00000000
00010000
00001000
00000000
00100000
00000000
00010000
00000000
01000000
00001000
00000000
00011000
00000000
00000000
00000000
,
00010000
00000000
00000100
00001000
00000000
00000100
00000000
00000010
00000000
00000001
00000100
00000000
00000110
00000000
00000000
00000000
,
00000010
00000000
00010000
00001000
00000000
00100000
00000000
01000000
00000000
10000000
00100000
10000000
00010000
00000000
01000000
00000000
,
00001000
00000000
00010000
00000100
00000000
00001000
00000000
00000100
00000000
00000010
00000001
00000000
00000100
00000000
00001000
00000000
,
00010000
00000000
00001000
00100000
00000000
01000000
00000000
10000000
00000000
00100000
00010000
00000000
00001000
00000000
00100000
00000000
,
01000000
00000000
00010000
00001000
00000000
00000010
00000000
00001000
00000000
00010000
00000100
00000000
00000010
00000000
00000001
00000000
,
00000100
00001000
00000100
00001000
00010000
00001000
00010000
00001000
01000000
00000000
00100000
10000000
02000000
00000000
00000000
00000000
,
03000000
00000000
00000000
00000000
;

//---------------dance-single - ----------------
#NOTEDATA:;
#CHARTNAME:;
#STEPSTYPE:dance-single;
#DESCRIPTION:;
#CHARTSTYLE:;
#DIFFICULTY:Medium;
#METER:11;
#RADARVALUES:0.430858,0.472199,0.269587,0.126369,0.092671,358.000000,326.000000,32.000000,15.000000,0.000000,0.000000,0.000000,0.000000,0.000000,0.430858,0.472199,0.269587,0.126369,0.092671,358.000000,326.000000,32.000000,15.000000,0.000000,0.000000,0.000000,0.000000,0.000000;
#CREDIT:MILEN;
#NOTES:
0000
0000
0000
0000
,
0000
0000
0000
0000
,
0000
0000
0000
0000
,
0000
0000
0000
0000
0100
0100
0100
0001
,
0100
0000
0010
1000
0010
0000
0100
0001
,
0100
0001
1000
0000
1001
0000
0001
0010
,
0001
0000
1000
0100
1000
0000
0001
0010
,
0001
0010
0100
0000
0110
0000
1000
1000
,
0010
0000
0100
0001
0000
0010
0100
0000
,
1000
0001
1000
1000
0000
0100
0010
0000
,
0011
0000
0001
0010
0100
0000
1000
0010
,
0100
0000
0001
0000
0100
0000
0010
0000
1000
0000
0000
0001
1000
0000
0100
0000
,
0010
0001
0000
0001
1000
0000
0010
1000
,
0010
0100
0001
0010
0100
0000
1000
0010
,
1000
0000
0001
0100
0001
0000
1000
0100
,
1000
0001
0010
0100
1000
0000
0010
0100
,
0001
0000
1000
0000
0100
0000
0000
0100
0010
0000
0000
0010
0001
0000
0000
0001
,
1000
0000
0000
1000
0010
0000
0100
0000
0001
0000
0001
0000
1001
0000
0000
0000
,
1000
0100
0010
0001
0010
0000
0220
0000
,
0330
0000
0100
0010
0001
1000
0001
1000
,
0010
0000
0100
0001
0010
0000
0001
0010
,
0100
0000
0010
0100
1000
0000
0100
1000
,
0010
0000
0100
0001
1000
0000
0010
1000
,
0001
0100
0001
0100
0010
0010
1000
0100
,
0110
0000
0001
0010
0110
0000
1000
0010
,
0110
0000
0001
0100
0110
0000
1000
0100
,
0010
1000
0010
0001
1000
0100
0001
0100
,
0010
0000
0001
0000
1000
0010
1000
0000
0020
0000
0000
0000
0130
0000
0000
0001
,
0000
0000
0010
0000
0000
0100
0000
0000
1000
0000
0000
0000
0010
0000
0000
0000
,
0101
0000
0000
0000
1000
0000
0000
0000
0110
0000
0000
0000
0010
0000
0000
1000
,
0000
0000
0100
0000
0000
0010
0000
0000
0001
0000
0000
0000
0100
0000
0000
0000
,
1010
0000
0000
0000
0001
0000
0000
0000
0110
0000
0000
0000
1000
0000
0000
0010
,
0000
0000
0001
0000
0000
0100
0000
0000
1000
0000
0000
0000
0010
0000
0000
0000
,
0110
0000
0000
0000
0001
0000
0000
0000
1100
0000
0000
0000
0001
0000
0000
0100
,
0000
0000
1000
0000
0000
0010
0000
0000
0001
0000
0000
0000
0100
0000
0000
0000
,
0110
0000
1000
0000
0011
0100
0020
0000
,
1000
0000
0001
0000
,
1000
0000
0031
0200
,
1000
0000
0001
0000
,
1000
0000
0000
0000
0301
0000
0001
0010
,
0100
0000
1000
0010
0100
0000
0001
0100
,
0010
0000
0000
0000
1000
0000
0100
0000
0020
0000
0000
0000
0000
0000
0031
0100
,
0001
0000
1000
0000
0010
0000
0100
0000
0101
0000
0000
0000
1000
0100
0000
1000
,
0010
0000
1000
0100
0000
0000
0010
0000
0001
0000
0100
0000
1010
0000
0000
0000
,
0011
0000
0001
0100
0010
1000
0100
0000
,
0220
0330
0011
0000
1010
0000
1000
0010
,
0100
0001
0010
0000
0220
0330
1000
1000
,
1100
0000
0101
0000
0001
0010
0100
1000
,
0010
0000
0110
0220
0330
0100
0001
0010
,
0100
0000
1000
0000
0010
0000
0000
0000
0001
0000
0010
0100
0000
0010
1000
0000
,
0100
0010
0001
1000
2002
0000
3003
0000
,
0001
0000
1000
0000
0001
0100
1010
0000
,
1000
0000
0001
0000
1000
0010
0101
0000
,
0001
0000
1000
0000
0010
0100
1001
0000
,
1000
0000
0000
0000
0001
0000
0000
0000
0100
0010
0100
0000
0001
0000
0010
0000
,
0100
1000
0010
0000
0001
0010
0100
0000
,
1000
0100
0010
0000
0100
0001
0010
0000
,
1000
0010
0001
0100
0010
1000
0100
0001
,
0010
0000
0100
0000
0010
0000
0100
0000
0010
0000
1000
0001
2000
0000
0000
0000
,
3000
0000
0000
0000
;

//---------------dance-single - ----------------
#NOTEDATA:;
#CHARTNAME:;
#STEPSTYPE:dance-single;
#DESCRIPTION:;
#CHARTSTYLE:;
#DIFFICULTY:Easy;
#METER:6;
#RADARVALUES:0.233482,0.323083,0.143218,0.101095,0.000000,194.000000,177.000000,17.000000,12.000000,0.000000,0.000000,0.000000,0.000000,0.000000,0.233482,0.323083,0.143218,0.101095,0.000000,194.000000,177.000000,17.000000,12.000000,0.000000,0.000000,0.000000,0.000000,0.000000;
#CREDIT:MILEN;
#DISPLAYBPM:130.000000;
#NOTES:
0000
0000
0000
0000
,
0000
0000
0000
0000
,
0000
0000
0000
0000
,
0000
0000
0000
1000
,
0000
0100
0000
1000
,
0001
0100
0000
0001
,
0000
0010
0000
0001
,
1000
0010
0000
1000
,
0000
0001
0000
0100
,
0000
0010
0000
1000
,
0001
0100
0010
1000
,
0001
0100
0100
0010
,
1000
0100
0000
1000
,
0010
0100
0000
0001
,
0100
0010
0000
0100
,
0001
0010
0000
0001
,
1000
0001
1001
1000
,
0001
1000
1001
0010
,
0100
0010
0110
0100
,
0020
0130
0110
1000
,
0000
0010
0000
0001
,
0100
1000
0000
0001
,
0000
0010
0000
1000
,
0100
0001
0000
1000
,
0000
0100
0000
0001
,
0010
1000
0000
0001
,
0000
0100
0000
1000
,
0010
0002
1003
1001
,
0000
0000
0000
0000
0000
0010
0010
0000
,
0100
0001
1000
1001
,
0000
0000
0000
0000
0000
0100
0100
0000
,
0010
1000
0001
1001
,
0000
0000
0000
0000
0000
1000
1000
0000
,
0010
0001
0100
0110
,
0000
0000
0000
0000
0000
0001
0001
0000
,
0100
1000
0010
0220
,
0000
0000
0000
0330
,
0000
0000
0000
0002
,
0003
2000
3000
0020
,
0030
0200
0310
0100
,
0001
0010
1000
0001
,
0100
1000
0010
0001
,
1000
0000
0100
0000
0001
0000
0010
0100
,
0010
0000
0100
0010
0100
0000
1000
0000
,
0010
0100
0001
1001
,
1001
0000
1000
0001
,
0100
0110
0110
0000
,
0001
1000
0010
0100
,
0110
0000
1001
1001
0000
0000
0001
0000
,
0010
0000
0100
0000
1000
0001
1000
0000
,
0001
1000
0001
0000
2002
0000
3003
0000
,
1000
0010
1000
0000
,
0010
0001
0010
0000
,
0001
0100
0001
0000
,
0100
1000
0200
0310
,
0010
1000
0010
1000
,
0100
1000
0100
1000
,
0100
0001
0100
0001
,
0010
0000
0001
0000
0010
0100
0020
0000
,
0030
0000
0000
0000
;

//---------------dance-single - ----------------
#NOTEDATA:;
#CHARTNAME:;
#STEPSTYPE:dance-single;
#DESCRIPTION:;
#CHARTSTYLE:;
#DIFFICULTY:Beginner;
#METER:3;
#RADARVALUES:0.114334,0.148484,0.008425,0.025274,0.000000,95.000000,94.000000,1.000000,3.000000,0.000000,0.000000,0.000000,0.000000,0.000000,0.114334,0.148484,0.008425,0.025274,0.000000,95.000000,94.000000,1.000000,3.000000,0.000000,0.000000,0.000000,0.000000,0.000000;
#CREDIT:MILEN;
#DISPLAYBPM:130.000000;
#NOTES:
0000
0000
0000
0000
,
0000
0000
0000
0000
,
0000
0000
0000
0000
,
0000
0000
0000
0000
,
0100
0000
0100
0000
,
0100
0000
0000
0000
,
0010
0000
0010
0000
,
0010
0000
0000
0000
,
1000
0000
1000
0000
,
1000
0000
1000
0000
,
0001
0000
0001
0000
,
0001
0000
0001
0001
,
0000
0100
0000
0001
,
0000
0100
0000
0010
,
0000
1000
0000
0010
,
0000
1000
0000
0001
,
0000
0010
0000
0001
,
0000
0010
0000
0100
,
0000
1000
0000
0200
,
0000
0300
0000
0100
,
0000
0000
0000
1000
,
0000
0000
0000
0010
,
0000
0000
0000
0001
,
0000
0000
0000
0100
,
0000
0100
0000
1000
,
0000
1000
0000
0010
,
0000
0010
0000
0001
,
0000
0001
0001
0001
,
0000
0000
0000
1000
,
0000
0000
0000
0001
,
0000
0000
0000
1000
,
0000
0000
0000
0010
,
0000
0100
0000
0010
,
0000
0100
0000
0010
,
0000
0010
0000
0100
,
0000
0100
0000
1001
,
0000
0000
0000
0000
,
0000
0000
0000
0001
,
0000
0100
0000
1000
,
0000
0010
0000
0001
,
0000
1000
0000
0001
,
0000
1000
0000
0010
,
0000
0100
0000
0020
,
0000
0030
0000
0010
,
0000
1000
0000
0001
,
0001
0000
0010
0000
,
0001
0000
1000
0000
,
0000
0100
0000
1000
,
0000
0001
0000
0100
,
0000
0001
0000
1000
,
0000
0010
0020
0030
,
0100
0000
0000
0000
,
0001
0000
0000
0000
,
0010
0000
0000
0000
,
1000
0000
0000
0000
,
0100
0000
0100
0000
,
0001
0000
0001
0000
,
0010
0000
0010
0000
,
1000
0000
0100
0100
;

//---------------dance-double - ----------------
#NOTEDATA:;
#CHARTNAME:;
#STEPSTYPE:dance-double;
#DESCRIPTION:;
#CHARTSTYLE:;
#DIFFICULTY:Easy;
#METER:6;
#RADARVALUES:0.226261,0.298231,0.109520,0.092671,0.000000,188.000000,175.000000,13.000000,11.000000,0.000000,0.000000,0.000000,0.000000,0.000000,0.226261,0.298231,0.109520,0.092671,0.000000,188.000000,175.000000,13.000000,11.000000,0.000000,0.000000,0.000000,0.000000,0.000000;
#CREDIT:MILEN;
#DISPLAYBPM:130.000000;
#NOTES:
00000000
00000000
00000000
00000000
,
00000000
00000000
00000000
00000000
,
00000000
00000000
00000000
00000000
,
00000000
00000000
00000000
00001000
,
00000000
01000000
00000000
00001000
,
00010000
00001000
00000000
00010000
,
00000000
00000010
00000000
00010000
,
00001000
00010000
00000000
00001000
,
00000000
00010000
00000000
01000000
,
00000000
10000000
00000000
00100000
,
00010000
00001000
00010000
00100000
,
00010000
00001000
00001000
00000010
,
00000001
00000100
00000000
00000010
,
00000100
00000001
00000000
00000100
,
00000010
00001000
00000000
00000100
,
00001000
00000010
00000000
00010000
,
00001000
00010000
00011000
00001000
,
00010000
00001000
00011000
00100000
,
01000000
00100000
01100000
01000000
,
00200000
01300000
01100000
10000000
,
00000000
00100000
00000000
00010000
,
00001000
00000100
00000000
00000001
,
00000000
00000010
00000000
00001000
,
00010000
01000000
00000000
10000000
,
00000000
00100000
00000000
00010000
,
00001000
00000010
00000000
00000001
,
00000000
00000100
00000000
00001000
,
00010000
00100000
10000000
10010000
,
00000000
00000000
00000000
00000000
00000000
01000000
01000000
00000000
,
00010000
00001000
00000010
00001001
,
00000000
00000000
00000000
00000000
00000000
00000100
00000100
00000000
,
00001000
00010000
00100000
10010000
,
00000000
00000000
00000000
00000000
00000000
10000000
10000000
00000000
,
01000000
00010000
00001000
00000110
,
00000000
00000000
00000000
00000000
00000000
00000001
00000001
00000000
,
00000100
00001000
00010000
02200000
,
00000000
00000000
00000000
03300000
,
00000000
00000000
00000000
20000000
,
30000000
00200000
00300000
00020000
,
00030000
00002000
00013000
00010000
,
00000100
00001000
00000010
00010000
,
00001000
00100000
00010000
01000000
,
00001000
00010000
00000100
00000010
,
00000001
00000100
00001000
00010000
,
00100000
10000000
01000000
00010000
,
00011000
00000000
00001000
00010000
,
00000100
00000010
00000110
00000000
,
00001000
00010000
01000000
00100000
,
01100000
00000000
00010000
00001000
00000000
00000000
00000100
00000000
,
00000001
00000000
00000010
00000000
00001000
00010000
00001000
00000000
,
00010000
00001000
00010000
00000000
00022000
00000000
00033000
00000000
,
00001000
00010000
01000000
00000000
,
00010000
01000000
10000000
00000000
,
10000000
00100000
00010000
00000000
,
00100000
00010000
00002000
00013000
,
00010000
00001000
00010000
00001000
,
00000100
00001000
00000100
00001000
,
00000100
00000001
00000100
00000001
,
00000010
00000000
00001000
00000000
00010000
00001000
00020000
00000000
,
00030000
00000000
00000000
00000000
;

//---------------dance-double - ----------------
#NOTEDATA:;
#CHARTNAME:;
#STEPSTYPE:dance-double;
#DESCRIPTION:;
#CHARTSTYLE:;
#DIFFICULTY:Medium;
#METER:11;
#RADARVALUES:0.416416,0.447346,0.244313,0.185341,0.067397,346.000000,317.000000,29.000000,22.000000,0.000000,0.000000,0.000000,0.000000,0.000000,0.416416,0.447346,0.244313,0.185341,0.067397,346.000000,317.000000,29.000000,22.000000,0.000000,0.000000,0.000000,0.000000,0.000000;
#CREDIT:MILEN;
#DISPLAYBPM:130.000000;
#NOTES:
// measure 0
00000000
00000000
00000000
00000000
,  // measure 1
00000000
00000000
00000000
00000000
,  // measure 2
00000000
00000000
00000000
00000000
,  // measure 3
00000000
00000000
00000000
00000000
00001000
00001000
00010000
00000010
,  // measure 4
00010000
00000000
00001000
00100000
00001000
00000000
00010000
00000100
,  // measure 5
00010000
00000100
00010000
00000000
00011000
00000000
00001000
00100000
,  // measure 6
00001000
00000000
00010000
00000100
00010000
00000000
00001000
01000000
,  // measure 7
00001000
01000000
00001000
00000000
00011000
00000000
00000100
00000100
,  // measure 8
00001000
00000000
00000010
00000100
00000000
00000100
00000001
00000000
,  // measure 9
00000001
00001000
00000001
00000001
00000000
00001000
00000010
00000000
,  // measure 10
00000110
00000000
00000100
00000001
00000010
00000000
00000001
00000010
,  // measure 11
00000100
00000000
00001000
00000000
00000100
00000000
00010000
00000000
00001000
00000000
00000000
00010000
00000000
00000000
00001000
00000000
,  // measure 12
00010000
00100000
00000000
00100000
10000000
00000000
01000000
00100000
,  // measure 13
01000000
00010000
00001000
00010000
00000100
00000000
00000010
00000100
,  // measure 14
00000010
00000000
00000001
00000100
00001000
00000000
00010000
00001000
,  // measure 15
00010000
00100000
01000000
00100000
10000000
00000000
01000000
00010000
,  // measure 16
00001000
00000000
00010000
00000000
00000100
00000000
00000000
00000100
00001000
00000000
00000000
00001000
00000010
00000000
00000000
00000010
,  // measure 17
00010000
00000000
00000000
00010000
00001000
00000000
00000100
00000000
00000001
00000000
00001000
00000000
00001001
00000000
00000000
00000000
,  // measure 18
00000001
00000100
00000010
00010000
00001000
00000000
00022000
00000000
,  // measure 19
00033000
00000000
00010000
00001000
00100000
01000000
00100000
01000000
,  // measure 20
10000000
00000000
00100000
00010000
00001000
00000000
00100000
01000000
,  // measure 21
00010000
00000000
00001000
00010000
00100000
00000000
01000000
00100000
,  // measure 22
00010000
00000000
00100000
00010000
00001000
00000000
00010000
00001000
,  // measure 23
00000100
00000001
00000100
00000001
00000010
00000100
00010000
00001000
,  // measure 24
01000000
00000000
00001000
00010000
00000010
00000000
00010000
00001000
,  // measure 25
00100000
00000000
00001000
00010000
00000100
00000000
00000010
00000001
,  // measure 26
00000100
00001000
00010000
00001000
00010000
01000000
10000000
00100000
,  // measure 27
00010000
00000000
00001000
00000000
00010000
00000000
00001000
00000000
00000200
00000000
00000000
00000000
00000301
00000000
00000000
00000001
,  // measure 28
00000000
00000000
00000010
00000000
00000000
00000100
00000000
00000000
00001000
00000000
00000000
00000000
00000010
00000000
00000000
00000000
,  // measure 29
00011000
00000000
00000000
00000000
00100000
00000000
00000000
00000000
10010000
00000000
00000000
00000000
10000000
00000000
00000000
10000000
,  // measure 30
00000000
00000000
01000000
00000000
00000000
00100000
00000000
00000000
00010000
00000000
00000000
00000000
01000000
00000000
00000000
00000000
,  // measure 31
00011000
00000000
00000000
00000000
00000100
00000000
00000000
00000000
00001001
00000000
00000000
00000000
00001000
00000000
00000000
00000010
,  // measure 32
00000000
00000000
00010000
00000000
00000000
00100000
00000000
00000000
10000000
00000000
00000000
00000000
01000000
00000000
00000000
00000000
,  // measure 33
01100000
00000000
00000000
00000000
10000000
00000000
00000000
00000000
10010000
00000000
00000000
00000000
00010000
00000000
00000000
01000000
,  // measure 34
00000000
00000000
00001000
00000000
00000000
00000100
00000000
00000000
00000001
00000000
00000000
00000000
00000010
00000000
00000000
00000000
,  // measure 35
00000110
00000001
00001001
00000020
,  // measure 36
00020030
00000000
00032000
00000000
,  // measure 37
00203000
00000000
00320000
02030000
,  // measure 38
03002000
00000000
00023000
00000000
,  // measure 39
00030200
00000000
00000000
00000000
00001300
00000000
00001000
00000001
,  // measure 40
00000100
00000000
00001000
00010000
00100000
00000000
10000000
00010000
,  // measure 41
01000000
00000000
00001000
00010000
00000200
00000000
00000000
00000310
,  // measure 42
00000010
00000000
00000001
00000000
00000100
00000000
00001000
00000000
00011000
00000000
00000000
00000000
00100000
00000000
00000000
01000000
,  // measure 43
00000000
10000000
00100000
00010000
00001000
00100000
01100000
00000000
,  // measure 44
10010000
00000000
00010000
01000000
00001000
00010000
00001000
00000000
,  // measure 45
00022000
00033000
00011000
00000000
00000110
00000000
00000010
00000100
,  // measure 46
00000010
00001000
00000001
00000000
00002002
00003003
00001000
00001000
,  // measure 47
00001100
00000000
01010000
00000000
00010000
00100000
01000000
10000000
,  // measure 48
00100000
00000000
01100000
02200000
03300000
00010000
01000000
00001000
,  // measure 49
00010000
00000000
00000100
00000000
00000010
00000000
00000000
00000000
00000001
00000000
00000000
00000100
00000000
00000000
00001000
00000000
,  // measure 50
00010000
01000000
00010000
00001000
00022000
00000000
00033000
00000000
,  // measure 51
00010000
00000000
00100000
00000000
10000000
01000000
00110000
00000000
,  // measure 52
00001000
00000000
00000100
00000000
00000001
00000010
00001100
00000000
,  // measure 53
00010000
00000000
01000000
00000000
10000000
00100000
01010000
00000000
,  // measure 54
00001000
00000000
00000010
00000000
00000001
00000100
00001010
00001000
,  // measure 55
00000100
00010000
01000000
00000000
00100000
00001000
00000010
00000000
,  // measure 56
00000100
00010000
00001000
00000000
00100000
00001000
00010000
00000000
,  // measure 57
00100000
10000000
01000000
00100000
00010000
01000000
00100000
00010000
,  // measure 58
00001000
00000000
00000100
00000000
00001000
00000000
00000100
00000000
00000001
00000000
00000010
00000100
00000020
00000000
00000000
00000000
,  // measure 59
00000030
00000000
00000000
00000000
;
