#VERSION:0.83;
#TITLE:Osaka Driftin' (Route A);
#SUBTITLE:;
#ARTIST:BLACK MAЯIA;
#TITLETRANSLIT:;
#SUBTITLETRANSLIT:;
#ARTISTTRANSLIT:BLACK MARIA;
#GENRE:VARIETY;
#ORIGIN:;
#CREDIT:MUINELIM;
#BANNER:Osaka Driftin' (Route A).png;
#BACKGROUND:Osaka Driftin' (Route A)-bg.png;
#PREVIEWVID:;
#JACKET:Osaka Driftin' (Route A)-jacket.png;
#CDIMAGE:;
#DISCIMAGE:;
#LYRICSPATH:;
#CDTITLE:;
#MUSIC:Osaka Driftin' (Route A).mp3;
#OFFSET:-0.049000;
#SAMPLESTART:34.637238;
#SAMPLELENGTH:11.294121;
#SELECTABLE:YES;
#DISPLAYBPM:85.000000:340.000000;
#BPMS:0.000=85.000,
17.000=340.000,
145.000=170.000,
161.000=340.000,
257.000=85.000,
264.500=340.000,
466.000=680.000,
467.000=340.000;
#STOPS:264.500=0.265,
458.500=0.088,
461.000=0.088,
463.500=0.088,
466.000=0.176;
#DELAYS:;
#WARPS:;
#TIMESIGNATURES:0.000=4=4;
#TICKCOUNTS:0.000=4;
#COMBOS:0.000=1;
#SPEEDS:0.000=1.000=0.000=0;
#SCROLLS:0.000=1.000;
#FAKES:;
#LABELS:0.000=Song Start;
#BGCHANGES:;
#KEYSOUNDS:;
#ATTACKS:
;

//---------------dance-single - ----------------
#NOTEDATA:;
#CHARTNAME:;
#STEPSTYPE:dance-single;
#DESCRIPTION:;
#CHARTSTYLE:;
#DIFFICULTY:Challenge;
#METER:18;
#RADARVALUES:0.995090,1.751404,0.585894,0.362696,0.125549,749.000000,686.000000,63.000000,39.000000,0.000000,0.000000,0.000000,0.000000,0.000000,0.995090,1.751404,0.585894,0.362696,0.125549,749.000000,686.000000,63.000000,39.000000,0.000000,0.000000,0.000000,0.000000,0.000000;
#CREDIT:MILEN;
#DISPLAYBPM:85.000000:340.000000;
#NOTES:
0000
0000
0000
0000
,
0000
0000
0000
0000
,
0000
0000
0000
0000
1000
0010
0100
0001
0100
1000
0000
0010
0000
0001
0010
0100
,
1100
0000
0011
0000
0001
0100
0010
1000
0010
0001
0000
0100
0000
1000
0010
0100
,
0101
0000
0000
1001
0000
0000
1000
0010
0100
0000
0000
0000
0000
0000
0000
0000
0001
0000
0000
0000
0000
0000
0000
0000
0100
0000
0000
0000
0000
0000
0000
0000
,
0010
1000
0010
0100
,
0001
0000
1000
0100
0000
0100
0001
0000
,
1000
0000
0001
0100
0000
0100
1000
0000
,
0010
0100
0001
0000
1000
0000
0010
0000
,
0100
0001
0100
0010
,
1000
0000
0001
0010
0000
0010
1000
0000
,
0001
0000
1000
0010
0000
0010
0001
0000
,
0100
0010
1000
0000
0100
0000
0001
0000
,
1000
0010
0001
0100
,
0010
0000
1000
0100
0000
0001
0010
0000
,
1000
0000
0001
0100
0000
1000
0010
0000
,
0001
0100
0010
0000
1000
0000
0001
0000
,
0100
1000
0001
0010
,
1000
0000
0100
0010
0000
0010
0100
0000
,
0010
0011
1001
1100
,
0100
1000
0010
0100
0010
0100
0001
0000
,
1000
0000
0010
0100
0010
0100
0001
0000
,
1000
0000
0010
0100
0001
0000
0010
0001
,
0100
0000
0010
1000
0010
1000
0001
0100
,
0010
0000
0100
0010
0100
0010
1000
0000
,
0001
0000
0100
0010
0100
0010
1000
0000
,
0001
0000
0100
0010
1000
0000
0100
1000
,
0010
0000
0100
0001
0100
0001
1000
0100
,
0010
0000
0011
0000
0001
0100
0001
0100
,
0010
1000
0001
0010
0100
1000
0010
0000
,
1000
0000
1100
0000
1000
0010
1000
0010
,
0100
0001
1000
0100
0010
0001
0100
0000
,
0001
0000
0011
0000
0010
0100
0010
0100
,
1000
0000
1100
0000
0100
0010
0100
0010
,
0001
0000
0011
0000
0010
0100
1000
0010
,
0100
0001
0010
0100
1000
0010
0100
0001
,
0100
0000
0001
0000
1000
0000
1000
0000
0010
0100
0001
0000
1000
0000
0100
0010
,
0001
0000
1000
0000
0001
0010
1000
0000
1000
0100
0001
0000
1001
0000
0210
0000
,
0302
0000
2003
0000
3001
0000
0001
0000
1000
0100
0010
0000
0001
0000
1000
0010
,
0100
0001
0100
0010
1000
0000
0100
0000
0020
0000
1000
0000
0032
0000
0103
0000
,
0100
0010
0100
0010
1000
0000
0100
0000
1000
0000
0000
0000
1000
0000
0010
0000
,
1000
0000
1000
0100
1000
0000
1000
0001
,
1000
0000
1000
0010
1000
0100
0010
0100
,
1000
0010
0100
0001
2000
0000
3010
1000
,
0100
0010
0001
0100
0001
0000
0001
0010
,
0001
0000
0001
0100
0001
0000
0001
1000
,
0001
0000
0001
0010
0001
0100
0010
0100
,
0001
0010
0200
0000
0010
0000
1300
0000
,
1000
0010
0100
1000
0100
0010
1000
0000
,
0100
0000
0010
0100
1000
0010
0100
0000
,
1000
0000
0100
0010
1000
0100
0001
0100
,
1000
0100
0010
0001
2000
0000
3010
0100
,
0001
0100
0010
0001
0010
0100
0001
0000
,
0010
0000
0100
0010
0001
0100
0010
0000
,
0001
0000
0010
0100
0001
0010
1000
0010
,
0001
0010
0100
0020
0000
0000
1030
0000
,
1000
0010
0002
0000
0013
0100
1000
0000
,
0100
0010
0001
0000
0010
0100
1000
0000
,
0100
0000
0110
0000
0001
0100
0010
0000
,
1000
0010
0100
0000
0001
0100
0010
0000
,
1000
0000
1001
0000
0001
0100
1000
0100
,
0010
0000
0101
0000
1000
0010
0001
0010
,
0100
2010
3001
0102
,
1003
1100
0011
1001
,
0100
0000
0010
0000
0120
0000
0000
0000
0000
0002
0000
0000
0000
0000
0003
0000
,
0230
0000
0000
2000
0000
0000
3000
0000
0302
0000
0000
0000
0020
0000
0000
0000
,
0030
1003
1001
0000
1000
0000
0010
0000
,
0110
0100
0001
0011
,
0100
1100
0010
0001
,
1001
1000
0010
0101
,
0100
1010
1000
0001
,
0110
1000
0001
1010
,
1000
0100
0020
0000
0130
0000
0001
0000
,
0110
1000
0001
0011
,
0110
1010
0001
1000
,
0110
0001
1000
1100
,
0110
0101
1000
0001
,
0110
1000
0001
2001
,
3100
1002
0013
0100
,
1100
0010
0001
0021
,
0130
1200
0001
0310
,
2002
3003
0220
0330
,
0010
1000
0001
0000
0100
0001
1000
0000
,
0010
1000
0001
0000
0010
0001
1000
0100
,
0010
0001
0100
0000
0010
1000
0100
0000
,
0010
0001
0100
0000
0010
1000
0001
0010
,
0100
1000
0010
0000
0100
0001
0010
0000
,
0100
1000
0010
0000
0100
0001
0010
0100
,
0001
0000
0101
0000
0001
0100
1000
0000
,
1200
0000
0310
0000
1010
0000
1000
0010
,
0001
0210
0310
0001
,
0100
0000
1000
0100
0010
0100
0001
1000
,
0001
0120
0130
1000
,
0010
0000
0001
0010
0100
0010
1000
0001
,
1000
0000
0110
0000
0001
0100
1000
0100
,
0001
0000
0110
0000
1000
0010
0001
0010
,
1000
1100
0101
0011
,
1010
2000
3002
0023
,
0230
0000
1300
0000
1000
0010
0100
0010
,
1000
0100
0010
0100
1000
0010
0100
0001
,
2000
0000
3100
0000
0001
0010
0100
0010
,
0001
0100
0010
0100
0001
0010
0100
1000
,
0002
0000
0103
0000
1000
0010
0100
1000
,
0100
0010
1000
0100
0001
0100
1000
0001
,
0200
0000
0310
0000
0001
0010
0100
0001
,
0100
0010
0001
0100
1000
0100
0001
0010
,
0100
1000
0010
0100
0001
0100
0010
0100
,
0001
0100
0010
1000
0001
0010
0100
1000
,
0010
0100
0001
1000
0100
0010
0100
1000
,
0100
0010
0100
1000
0010
0001
0010
0100
,
1000
0000
1100
0000
1000
0100
0001
0010
,
0100
0000
0101
0000
0001
0100
1000
0010
,
0100
0000
0110
0000
0001
0010
0100
0001
,
0100
0010
1000
0010
0100
1000
0010
0001
,
1000
0100
0010
1000
0100
0001
0000
1000
,
0010
0001
0100
0000
1000
0100
0001
0010
,
0000
0100
1000
0010
0001
0000
0220
0000
,
0000
0000
0000
0000
,
0000
0000
0000
0000
,
0000
0000
0000
0000
,
0000
0000
0000
0000
,
0000
0000
0330
0000
;

//---------------dance-double - ----------------
#NOTEDATA:;
#CHARTNAME:;
#STEPSTYPE:dance-double;
#DESCRIPTION:;
#CHARTSTYLE:;
#DIFFICULTY:Challenge;
#METER:18;
#RADARVALUES:0.972504,1.751404,0.595194,0.344096,0.125549,732.000000,668.000000,64.000000,37.000000,0.000000,0.000000,0.000000,0.000000,0.000000,0.972504,1.751404,0.595194,0.344096,0.125549,732.000000,668.000000,64.000000,37.000000,0.000000,0.000000,0.000000,0.000000,0.000000;
#CREDIT:MILEN;
#DISPLAYBPM:85.000000:340.000000;
#NOTES:
00000000
00000000
00000000
00000000
,
00000000
00000000
00000000
00000000
,
00000000
00000000
00000000
00000000
10000000
01000000
00010000
00001000
00100000
01000000
00000000
00010000
00000000
00001000
00000100
00000001
,
00001001
00000000
00000110
00000000
00000001
00000010
00001000
00010000
00000100
00000010
00000000
00001000
00000000
00010000
01000000
10000000
,
10010000
00000000
00000000
01100000
00000000
00000000
00100000
00010000
00001000
00000000
00000000
00000000
00000000
00000000
00000000
00000000
00100000
00000000
00000000
00000000
00000000
00000000
00000000
00000000
01000000
00000000
00000000
00000000
00000000
00000000
00000000
00000000
,
00100000
00001000
00010000
00100000
,
10000000
00000000
01000000
00010000
00000000
00010000
00001000
00000000
,
00100000
00000000
01000000
00010000
00000000
00010000
00001000
00000000
,
00100000
01000000
00010000
00000000
00000100
00000000
00000010
00000000
,
00000100
00010000
00001000
00000100
,
00000001
00000000
00000010
00001000
00000000
00001000
00010000
00000000
,
00000100
00000000
00000010
00001000
00000000
00001000
00010000
00000000
,
00000100
00000010
00001000
00000000
01000000
00000000
00010000
00000000
,
01000000
00001000
00010000
00100000
,
10000000
00000000
01000000
00010000
00000000
00001000
00000010
00000000
,
00000001
00000000
00000100
00001000
00000000
00010000
00100000
00000000
,
10000000
01000000
00010000
00000000
00000100
00000000
00001000
00000000
,
00000100
00010000
00001000
00000010
,
00000001
00000000
00000100
00001000
00000000
00010000
00100000
00000000
,
00010000
00011000
01001000
00010100
,
00010000
00001000
00100000
00010000
00100000
01000000
10000000
00000000
,
01000000
00000000
10000000
01000000
00100000
00010000
00100000
00000000
,
00001000
00000000
00100000
00010000
00100000
00000000
00001000
00010000
,
00001000
00000000
01000000
00010000
01000000
00010000
10000000
01000000
,
00010000
00000000
00000100
00001000
00000100
00000010
00000001
00000000
,
00000100
00000000
00000001
00000010
00000100
00001000
00000100
00000000
,
00010000
00000000
00000100
00001000
00000100
00000000
00010000
00001000
,
00010000
00000000
00000010
00001000
00000010
00001000
00000001
00000010
,
00001000
00000000
00011000
00000000
00010000
00000100
00010000
00001000
,
01000000
00001000
00010000
00000000
00100000
00000000
10000000
00000000
,
01000000
00000000
00011000
00000000
00001000
00100000
00001000
00010000
,
00000010
00010000
00001000
00000000
00000100
00000000
00000001
00000000
,
00000010
00000000
00011000
00000000
00001000
00010000
00100000
00010000
,
00001000
00000000
00011000
00000000
00010000
00001000
00000010
00001000
,
00010000
00000000
00011000
00000000
00001000
00010000
00100000
01000000
,
00010000
00100000
01000000
10000000
00200000
00000000
00310000
00001000
,
00010000
00000000
00001000
00000000
00000010
00000000
00000010
00000000
00000001
00000100
00001000
00000000
00000010
00000000
00000001
00000100
,
00001000
00000000
00000010
00000000
00000001
00000100
00001000
00000000
00010000
00100000
10000000
00000000
11000000
00000000
00120000
00000000
,
02030000
00000000
03200000
00000000
10300000
00000000
10000000
00000000
01000000
00010000
00100000
00000000
10000000
00000000
01000000
00010000
,
00100000
00010000
00100000
00001000
00010000
00000000
00000100
00000000
00000020
00000000
00000032
00000000
00000203
00000000
00001300
00000000
,
00001000
00010000
00001000
00010000
01000000
00000000
10000000
00000000
01000000
00000000
00000000
00000000
00100000
00000000
00000000
00000000
,
00010000
00000000
00001000
00010000
00001000
00000000
00000100
00000000
,
00000010
00000000
00000001
00000100
00000001
00001000
00000100
00001000
,
00000001
00000100
00000001
00001000
00000200
00000000
00000320
00000000
,
00001030
00000000
00000010
00000001
00000010
00000000
00000100
00000000
,
00001000
00000000
00010000
00001000
00010000
00000000
00100000
00000000
,
01000000
00000000
10000000
00100000
10000000
00010000
00100000
00010000
,
10000000
00100000
10000000
00010000
00200000
00000000
00001000
00000000
,
00310000
00100000
01000000
10000000
00100000
01000000
10000000
00000000
,
01000000
00000000
00100000
10000000
01000000
00100000
10000000
00000000
,
00100000
00000000
01000000
10000000
00100000
01000000
10000000
01000000
,
00010000
00100000
01000000
00010000
00002000
00000000
00003020
00000000
,
00000130
00000000
00000010
00000001
00000100
00000010
00000001
00000000
,
00000010
00000000
00000100
00000001
00000010
00000100
00000001
00000000
,
00000100
00000000
00000010
00000001
00000100
00000010
00000001
00000010
,
00001000
00000100
00000010
00002000
00000000
00000000
00013000
00000000
,
00010000
00100000
10000000
00000000
10000000
01000000
00010000
00000000
,
00010000
01000000
10000000
00000000
10000000
00100000
00010000
00000000
,
00000010
00000000
00000110
00000000
00000001
00000100
00001000
00000000
,
00001000
00000100
00000001
00000000
00000001
00000010
00001000
00000000
,
00100000
00000000
01100000
00000000
10000000
00100000
00010000
00001000
,
00000100
00000000
00000110
00000000
00000001
00000010
00001000
00010000
,
00100000
10100000
00010000
11000000
,
00010000
01010000
00101000
00010010
,
00001100
00000000
00000100
00000000
00000020
00000000
00000000
00000000
00000000
00000032
00000000
00000000
00000000
00000000
00000000
00000000
,
00000203
00000000
00000000
00002300
00000000
00000000
00000000
00000000
00023000
00000000
00000000
00000000
00230000
00000000
00000000
00000000
,
00000000
10300000
10010000
00000000
00010000
00000000
01000000
00000000
,
01001000
00001000
00010000
00010100
,
00000010
00001010
00001000
00000001
,
00000011
00000010
00000100
00010100
,
01000000
01010000
00010000
10000000
,
11000000
01000000
00100000
00101000
,
00001000
00010000
00000020
00000000
00000130
00000000
00000001
00000000
,
00000011
00000010
00001000
00011000
,
01000000
10010000
01000000
00100000
,
00011000
01000000
00100000
00011000
,
00000100
00001001
00000010
00000100
,
00011000
00000010
00000100
00012000
,
01003000
00021000
00030100
00001000
,
00001001
00000001
00000100
00002100
,
00013000
01020000
00001000
00030010
,
02002000
03003000
00020200
00030300
,
00010000
00001000
00010000
00000000
01000000
00000000
10000000
00000000
,
00010000
10000000
00010000
00000000
10000000
00000000
01000000
00010000
,
00001000
00010000
00001000
00000000
00000100
00000000
00000001
00000000
,
00001000
00000001
00001000
00000000
00000001
00000000
00000100
00001000
,
00010000
00001000
00010000
00000000
01000000
00000000
10000000
00000000
,
00100000
00010000
00100000
00000000
10000000
00000000
01000000
00010000
,
00001000
00000000
00011000
00000000
00100000
00010000
00001000
00000000
,
00021000
00000000
00030010
00000000
00011000
00000000
00000100
00001000
,
00010000
00012000
01003000
00010000
,
01000000
00000000
00001000
00010000
00100000
01000000
00100000
00010000
,
00001000
00021000
00030100
00001000
,
00000100
00000000
00010000
00001000
00000010
00000100
00000010
00001000
,
00010000
00000000
00011000
00000000
00001000
00000100
00000001
00000100
,
00001000
00000000
00011000
00000000
00010000
00100000
10000000
00100000
,
00010000
00010010
01001000
00010100
,
00101000
00002000
00023000
00032000
,
00003020
00000000
00000031
00000000
00000001
00000100
00001000
00000100
,
00000001
00000010
00000100
00000010
00000001
00000100
00001000
00010000
,
00100000
00000000
01100000
00000000
10000000
00100000
00010000
00100000
,
10000000
01000000
00100000
01000000
10000000
00100000
00010000
00001000
,
00000100
00000000
00000110
00000000
00000001
00000010
00001000
00000010
,
00000100
00001000
00000100
00010000
00001000
00010000
01000000
10000000
,
00100000
00000000
01100000
00000000
10000000
01000000
00010000
01000000
,
00100000
00010000
00100000
00001000
00010000
00001000
00000010
00000001
,
00000100
00001000
00010000
01000000
00010000
00001000
00010000
01000000
,
00010000
00001000
00010000
01000000
10000000
00100000
01000000
00010000
,
10000000
01000000
00010000
00001000
00000100
00001000
00010000
00001000
,
00000100
00001000
00010000
00001000
00000100
00000001
00000010
00000100
,
00001000
00000000
00001001
00000000
00000001
00000100
00001000
00010000
,
00100000
00000000
10010000
00000000
10000000
01000000
00010000
00001000
,
00000010
00000000
00001001
00000000
00000001
00000100
00001000
00010000
,
00100000
10000000
01000000
00100000
00010000
01000000
00100000
00010000
,
00001000
00000100
00000001
00000010
00001000
00010000
00000000
00000010
,
00001000
00010000
00100000
00000000
00000100
00001000
00010000
01000000
,
00000000
00001000
00010000
01000000
10000000
00000000
02200000
00000000
,
00000000
00000000
00000000
00000000
,
00000000
00000000
00000000
00000000
,
00000000
00000000
00000000
00000000
,
00000000
00000000
00000000
00000000
,
00000000
00000000
03300000
00000000
;

//---------------dance-single - ----------------
#NOTEDATA:;
#CHARTNAME:;
#STEPSTYPE:dance-single;
#DESCRIPTION:;
#CHARTSTYLE:;
#DIFFICULTY:Hard;
#METER:16;
#RADARVALUES:0.874191,1.525417,0.409196,0.213898,0.092999,658.000000,614.000000,44.000000,23.000000,0.000000,0.000000,0.000000,0.000000,0.000000,0.874191,1.525417,0.409196,0.213898,0.092999,658.000000,614.000000,44.000000,23.000000,0.000000,0.000000,0.000000,0.000000,0.000000;
#CREDIT:MILEN;
#DISPLAYBPM:85.000000:340.000000;
#NOTES:
// measure 0
0000
0000
0000
0000
,  // measure 1
0000
0000
0000
0000
,  // measure 2
0000
0000
0000
0000
1000
0010
0100
0000
0001
0010
0000
1000
0000
0100
0001
1000
,  // measure 3
0010
0000
0110
0000
0001
0100
0010
0000
1000
0100
0000
0001
0000
0010
1000
0001
,  // measure 4
0100
0000
0000
0110
0000
0000
0010
1000
0001
0000
0000
0000
0000
0000
0000
0000
0100
0000
0000
0000
0000
0000
0000
0000
0010
0000
0000
0000
0000
0000
0000
0000
,  // measure 5
1000
0001
0010
0100
,  // measure 6
1000
0000
0010
0100
0010
0000
0100
0000
,  // measure 7
0001
0000
0010
0100
0010
0000
0100
0000
,  // measure 8
1000
0001
1000
0000
0010
0000
0100
0000
,  // measure 9
0001
1000
0100
0010
,  // measure 10
0001
0000
0100
0010
0100
0000
0010
0000
,  // measure 11
1000
0000
0100
0010
0100
0000
0010
0000
,  // measure 12
0001
1000
0001
0000
0100
0000
1000
0000
,  // measure 13
0010
0001
0100
1000
,  // measure 14
0010
0000
0001
0100
0001
0000
0010
0000
,  // measure 15
0100
0000
1000
0010
1000
0000
0001
0000
,  // measure 16
0100
0010
0100
0000
1000
0000
0010
0000
,  // measure 17
0001
0100
1000
0010
,  // measure 18
0001
0000
0100
0010
0100
0000
0010
0000
,  // measure 19
1000
1100
0110
0011
,  // measure 20
0001
0100
0010
1000
0010
0000
1000
0010
,  // measure 21
1000
0001
0100
0100
,  // measure 22
1000
0000
0100
0001
0100
0000
0001
0100
,  // measure 23
0001
0000
1000
0000
0010
0000
0100
0001
,  // measure 24
0100
0001
1000
0100
1000
0000
0100
1000
,  // measure 25
0100
0010
0001
0001
,  // measure 26
0100
0000
0001
0010
0001
0000
0010
0001
,  // measure 27
0010
0000
0100
0000
1000
0000
1000
0010
,  // measure 28
0100
0000
0110
0000
0010
1000
0100
0000
,  // measure 29
1000
0010
0100
0000
0010
0000
1000
0000
,  // measure 30
0100
0000
0110
0000
0010
0001
0100
0000
,  // measure 31
0010
0100
0001
0000
0010
0000
0001
0000
,  // measure 32
0100
0000
0110
0000
0010
1000
0001
0000
,  // measure 33
0100
0000
0110
0000
0100
0001
1000
0000
,  // measure 34
0010
0110
1010
0101
,  // measure 35
0001
2000
0000
0000
3010
0000
1000
0100
,  // measure 36
0010
0001
0100
0100
1000
1000
0010
0010
,  // measure 37
0001
0000
1000
0001
1000
0000
0010
0000
0010
0000
0100
0000
0101
0000
0000
0000
,  // measure 38
1010
0000
1000
0000
0100
0000
0001
0000
1000
0000
0010
0000
0001
0000
0100
0010
,  // measure 39
1000
0010
0100
0000
0001
0000
1000
0000
0010
0000
0100
0000
1200
0000
0000
0000
,  // measure 40
0301
0010
0001
0010
0100
0000
0000
0000
1000
0000
0000
0000
0100
0000
0000
0000
,  // measure 41
0010
0100
1000
0100
,  // measure 42
0001
0000
0100
0010
0001
0000
1000
0100
,  // measure 43
0010
0000
0001
0100
0001
0100
0010
1000
,  // measure 44
0010
0001
0010
0100
,  // measure 45
0010
0001
0010
1000
,  // measure 46
0010
0000
1000
0100
0010
0000
0100
0010
,  // measure 47
0001
0101
0110
1010
,  // measure 48
1000
0001
0100
0010
1000
0000
0010
0100
,  // measure 49
0001
0000
1000
0100
0010
0000
0001
0010
,  // measure 50
0100
0000
1000
0100
0010
0100
0001
0000
,  // measure 51
0100
0000
0001
0100
0010
0100
1000
0000
,  // measure 52
1001
0000
0001
0100
0010
0000
1000
0010
,  // measure 53
0100
0000
0001
1000
0010
0000
1000
0001
,  // measure 54
0100
0000
1000
0100
0010
0100
0001
0000
,  // measure 55
0010
0000
1000
0010
0100
0010
0001
0000
,  // measure 56
1001
0000
0110
0000
0010
1000
0100
0000
,  // measure 57
0001
0000
0100
0000
1000
0000
0100
0010
,  // measure 58
0100
0000
0110
0000
0010
0001
0100
0000
,  // measure 59
1000
0000
0100
0000
0001
0000
0010
0100
,  // measure 60
0010
0000
0110
0000
0100
1000
0001
0000
,  // measure 61
0010
0000
0110
0000
0100
1000
0001
0000
,  // measure 62
0010
0110
1000
0110
,  // measure 63
0001
0101
1100
0101
,  // measure 64
0001
0000
1000
0000
0020
0000
0000
0000
0000
0001
0000
0000
0000
0000
0000
0000
,  // measure 65
0230
0000
0000
1000
0000
0000
0000
0000
0302
0000
0000
0000
0010
0000
0000
0000
,  // measure 66
0000
1003
1000
0010
0000
0000
0100
0000
,  // measure 67
0001
0010
0000
0000
0001
0000
0100
0000
,  // measure 68
1000
0000
0100
0010
0000
0000
1000
0000
,  // measure 69
0100
0001
0000
0000
0100
0000
0010
0001
,  // measure 70
0000
0000
0100
1000
0000
0000
0100
0000
,  // measure 71
0010
0100
0000
0000
0001
0000
0010
0000
,  // measure 72
1000
0010
0200
0000
0000
0000
1300
0000
,  // measure 73
0010
0001
0000
0000
0010
0000
0100
0000
,  // measure 74
0001
2002
3003
1000
,  // measure 75
0010
0100
0000
0000
1000
0000
0100
0000
,  // measure 76
0001
0000
0010
1000
0000
0000
0010
0000
,  // measure 77
0100
0001
0000
0000
0100
0000
0010
0001
,  // measure 78
0000
0000
0100
1000
0000
0000
0100
0000
,  // measure 79
0010
0100
0000
0000
0001
0000
1000
0010
,  // measure 80
0000
0110
0001
1000
,  // measure 81
0220
0330
2002
3003
,  // measure 82
1000
0010
0100
0001
0100
0000
0010
0000
,  // measure 83
0100
1000
0100
0000
0010
0000
0100
0001
,  // measure 84
0100
0000
0010
1000
0010
0000
0100
0000
,  // measure 85
0010
0001
0010
0000
0100
0000
0010
1000
,  // measure 86
0010
0000
0100
0001
0100
0000
0001
0000
,  // measure 87
1000
0100
0010
0000
0100
0000
0001
0100
,  // measure 88
0010
0011
0100
1000
,  // measure 89
2200
3300
0010
0110
,  // measure 90
0100
0010
0100
1000
0100
0000
1000
0000
,  // measure 91
0010
0100
0001
0000
1000
0000
0010
0100
,  // measure 92
0001
0000
0100
0010
0001
0000
0010
0000
,  // measure 93
0100
0001
0010
0000
0100
0000
1000
0010
,  // measure 94
0100
0000
1000
0100
0001
0010
0100
0000
,  // measure 95
0010
0000
0100
0010
0001
0100
1000
0000
,  // measure 96
0100
0110
1010
0101
,  // measure 97
0002
0013
2000
3100
,  // measure 98
0002
0000
1003
0000
1000
0010
0100
0000
,  // measure 99
1000
0100
0010
0000
1000
0010
0100
0000
,  // measure 100
1000
0100
0010
0000
1000
0010
0100
0001
,  // measure 101
0100
0010
1000
0000
0001
0010
0100
1000
,  // measure 102
0002
0000
0103
0000
0001
0010
0100
0000
,  // measure 103
0001
0100
0010
0000
0001
0010
0100
0000
,  // measure 104
0001
0100
0010
0000
0001
0010
0100
1000
,  // measure 105
0100
0010
0001
0000
1000
0010
0100
0001
,  // measure 106
2000
0000
3100
0000
1000
0010
0100
1000
,  // measure 107
0100
0010
0100
1000
0100
0000
0002
0000
,  // measure 108
1003
0000
1001
0000
0001
0010
0100
0001
,  // measure 109
0100
0010
0100
0001
0100
0000
2000
0000
,  // measure 110
3001
0000
1001
0000
0001
0100
1000
0100
,  // measure 111
0001
0000
0110
0000
1000
0010
0001
0010
,  // measure 112
1000
0000
0110
0000
0001
0010
0001
0010
,  // measure 113
0100
1000
0100
1000
0010
0100
0001
1000
,  // measure 114
0100
0010
0001
0100
1000
0100
0000
0010
,  // measure 115
1000
0010
0001
0000
1000
0100
0001
0100
,  // measure 116
0000
0010
0001
0010
1000
0000
0220
0000
,  // measure 117
0000
0000
0000
0000
,  // measure 118
0000
0000
0000
0000
,  // measure 119
0000
0000
0000
0000
,  // measure 120
0000
0000
0000
0000
,  // measure 121
0000
0000
0330
0000
;

//---------------dance-double - ----------------
#NOTEDATA:;
#CHARTNAME:;
#STEPSTYPE:dance-double;
#DESCRIPTION:;
#CHARTSTYLE:;
#DIFFICULTY:Hard;
#METER:16;
#RADARVALUES:0.854263,1.525417,0.297597,0.185998,0.092999,643.000000,611.000000,32.000000,20.000000,0.000000,0.000000,0.000000,0.000000,0.000000,0.854263,1.525417,0.297597,0.185998,0.092999,643.000000,611.000000,32.000000,20.000000,0.000000,0.000000,0.000000,0.000000,0.000000;
#CREDIT:MILEN;
#DISPLAYBPM:85.000000:340.000000;
#NOTES:
00000000
00000000
00000000
00000000
,
00000000
00000000
00000000
00000000
,
00000000
00000000
00000000
00000000
10000000
00100000
01000000
00000000
00010000
00100000
00000000
01000000
00000000
00010000
00001000
00000010
,
00000001
00000000
00000110
00000000
00000001
00000100
00000010
00000000
00001000
00000100
00000000
00000010
00000000
00001000
00010000
00100000
,
10000000
00000000
00000000
01100000
00000000
00000000
00100000
00010000
00001000
00000000
00000000
00000000
00000000
00000000
00000000
00000000
00010000
00000000
00000000
00000000
00000000
00000000
00000000
00000000
00001000
00000000
00000000
00000000
00000000
00000000
00000000
00000000
,
00010000
00000100
00001000
00000100
,
00001000
00000000
00000010
00000100
00000010
00000000
00001000
00000000
,
00000001
00000000
00000100
00000010
00000100
00000000
00000001
00000000
,
00000100
00001000
00010000
00000000
00001000
00000000
00010000
00000000
,
00001000
00100000
00010000
00100000
,
00010000
00000000
01000000
00100000
01000000
00000000
00010000
00000000
,
10000000
00000000
00100000
01000000
00100000
00000000
10000000
00000000
,
00100000
00010000
00001000
00000000
00100000
00000000
00001000
00000000
,
00100000
00000010
00010000
00000010
,
00010000
00000000
00001000
00010000
00100000
00000000
00010000
00000000
,
00001000
00000000
00010000
00001000
00000010
00000000
00001000
00000000
,
00010000
00001000
00010000
00000000
00000100
00000000
00010000
00000000
,
00000100
01000000
00001000
01000000
,
00001000
00000000
00010000
00001000
00000100
00000000
00000001
00000000
,
00001000
00001001
00000010
00001001
,
00000001
00000100
00001000
00010000
00001000
00000000
00010000
00001000
,
00010000
01000000
10000000
00100000
,
00010000
00000000
00001000
00010000
00001000
00000000
00010000
00001000
,
00010000
00001000
00000100
00000001
,
00000010
00000000
00000100
00000010
00000100
00000000
00000010
00000100
,
00000010
00000001
00000100
00001000
,
00010000
00000000
00100000
01000000
00100000
00000000
01000000
00100000
,
01000000
00100000
10000000
01000000
,
00010000
00000000
00011000
00000000
00001000
00100000
00010000
00000000
,
00100000
00001000
00010000
00000000
00001000
00000000
00000010
00000000
,
00001000
00000000
00011000
00000000
00010000
00000100
00001000
00000000
,
00000100
00010000
00001000
00000000
00010000
00000000
01000000
00000000
,
00010000
00000000
00011000
00000000
00001000
00100000
00001000
00000000
,
00010000
00000000
00011000
00000000
00010000
00000100
00010000
00000000
,
00001000
00011000
01000000
00011000
,
00000100
00002000
00000000
00000000
00003001
00000000
00000001
00000100
,
00000010
00010000
00001000
00001000
00100000
00100000
01000000
01000000
,
10000000
00000000
00100000
01000000
00010000
00000000
00100000
00000000
00100000
00000000
01000000
00000000
00010000
00000000
00000000
00000000
,
00011000
00000000
00001000
00000000
00000010
00000000
00000010
00000000
00000001
00000000
00000001
00000000
00000100
00000000
00000010
00010000
,
00001000
00010000
00000010
00000000
00001000
00000000
00000100
00000000
00010000
00000000
00001000
00000000
00021000
00000000
00000000
00000000
,
01030000
10000000
01000000
10000000
00100000
00000000
00000000
00000000
01000000
00000000
00000000
00000000
00010000
00000000
00000000
00000000
,
00100000
10000000
00100000
00010000
,
01000000
00000000
00100000
10000000
00100000
00000000
01000000
00010000
,
01000000
00000000
00100000
10000000
00100000
10000000
00010000
01000000
,
00001000
00010000
00000100
00000010
,
00000100
00010000
00001000
00000100
,
00000001
00000000
00000010
00000100
00000010
00000000
00000100
00000010
,
00000100
00001001
00000010
00001001
,
00001000
00000100
00010000
00001000
00010000
00000000
01000000
00000000
,
10000000
00000000
00010000
01000000
00010000
00000000
10000000
00000000
,
01000000
00000000
00010000
00001000
00010000
00000000
00000100
00000000
,
00000010
00000000
00000001
00001000
00000100
00000000
00001000
00000001
,
00000100
00000000
00001000
00010000
00001000
00000000
00000100
00000000
,
00000001
00000000
00001000
00000100
00001000
00000000
00000001
00000000
,
00000100
00000000
00001000
00010000
00001000
00000000
01000000
00000000
,
00100000
00000000
10000000
00010000
01000000
00000000
00010000
10000000
,
01000000
00000000
11000000
00000000
10000000
01000000
00010000
00000000
,
01000000
00000000
00010000
00000000
00001000
00000000
00010000
00001000
,
00000100
00000000
00000101
00000000
00000001
00000010
00001000
00000000
,
00000010
00000000
00001000
00000000
00010000
00000000
00001000
00010000
,
00100000
00000000
10100000
00000000
10000000
01000000
00010000
00000000
,
00001000
00000000
00011000
00000000
00010000
00001000
00000010
00000000
,
00000001
00000101
00001000
00001100
,
00010000
00011000
01000000
01010000
,
10000000
00000000
01000000
00000000
00200000
00000000
00000000
00000000
00000000
00010000
00000000
00000000
00000000
00000000
00000000
00000000
,
00302000
00000000
00000000
00010000
00000000
00000000
00000000
00000000
00003020
00000000
00000000
00000000
00000100
00000000
00000000
00000000
,
00000000
00000031
00001000
00000001
00001000
00000000
00000100
00000000
,
00010000
00001000
00010000
00000000
00000100
00000000
00001100
00000000
,
00001000
00000000
00000010
00000100
00000010
00000000
00010000
00000000
,
00001000
00010000
00001000
00000000
01000000
00000000
00100000
01000000
,
00100000
00000000
10000000
01000000
10000000
00000000
01000000
00000000
,
00100000
01000000
00100000
00000000
00001000
00000000
00010000
00000000
,
00000100
00001000
00000100
00000000
00000010
00000000
00000001
00000000
,
00000100
00000010
00000100
00000000
00001000
00000000
00011000
00000000
,
00010000
00000000
00100000
01000000
00100000
00000000
10000000
00000000
,
01000000
00010000
01000000
00000000
00010000
00000000
00001000
00000000
,
00000010
00000000
00000001
00000100
00000001
00000000
00000100
00000000
,
00001000
00010000
00001000
00000000
00010000
00000000
00100000
10000000
,
00100000
00000000
10000000
01000000
00100000
00000000
01000000
00000000
,
00010000
00001000
00000100
00000000
00000001
00000000
00001000
00000010
,
00000100
00000101
00000001
00000010
,
00002000
00000000
00020000
00033000
,
00010000
00100000
10000000
01000000
10000000
00000000
00100000
00000000
,
00010000
00001000
00010000
00000000
00100000
00000000
10000000
00000000
,
01000000
00000000
00010000
00001000
00010000
00000000
00000010
00000000
,
00001000
00000100
00001000
00000000
00000010
00000000
00010000
00000000
,
00001000
00000000
00000100
00000001
00000100
00000000
00000010
00000000
,
00010000
00001000
00010000
00000000
00000010
00000000
00000100
00000001
,
00000100
00001100
00001000
00010000
,
00220000
00030000
10000000
10300000
,
10000000
01000000
00100000
01000000
00010000
00000000
00001000
00000000
,
00100000
01000000
00010000
00000000
00001000
00000000
00100000
01000000
,
00010000
00000000
00001000
00000010
00000100
00000000
00010000
00000000
,
00001000
00000010
00000100
00000000
00010000
00000000
00001000
00010000
,
00100000
00000000
10000000
01000000
00010000
00000000
00001000
00000000
,
00100000
00000000
01000000
00010000
00001000
00000000
00000100
00000000
,
00000001
00000011
00000100
00001100
,
00002000
00003020
00020030
00032000
,
00203000
00000000
00310000
00000000
00010000
10000000
01000000
00000000
,
00010000
00000000
01000000
00000000
10000000
00010000
01000000
00000000
,
10000000
00000000
01000000
00000000
00010000
10000000
01000000
00000000
,
10000000
00000000
00010000
01000000
00010000
01000000
00001000
00010000
,
00000200
00000000
00001300
00000000
00001000
00000001
00000100
00000000
,
00001000
00000000
00000100
00000000
00000001
00001000
00000100
00000000
,
00000001
00000000
00000100
00000000
00001000
00000001
00000100
00000000
,
00000001
00000000
00001000
00000100
00001000
00000100
00010000
00001000
,
02000000
00000000
03010000
00000000
00010000
00100000
00010000
00100000
,
01000000
10000000
01000000
00000000
00100000
00000000
00010000
00000000
,
00001000
00000000
00000200
00000000
00001300
00000010
00001000
00000010
,
00000100
00000001
00000100
00000000
00000010
00000000
00001000
00000000
,
00010000
00000000
00200000
00000000
00310000
01000000
00100000
01000000
,
00001000
00000000
00011000
00000000
00010000
00000100
00000010
00000100
,
00001000
00000000
00001001
00000000
00000001
00000100
00000001
00000100
,
00000010
00001000
00000100
00010000
00001000
00100000
00010000
01000000
,
00100000
10000000
00010000
00100000
01000000
10000000
00000000
01000000
,
00100000
00010000
00001000
00000000
00010000
00001000
00000100
00000010
,
00000000
00000001
00000010
00000100
00001000
00000000
00022000
00000000
,
00000000
00000000
00000000
00000000
,
00000000
00000000
00000000
00000000
,
00000000
00000000
00000000
00000000
,
00000000
00000000
00000000
00000000
,
00000000
00000000
00033000
00000000
;

//---------------dance-single - ----------------
#NOTEDATA:;
#CHARTNAME:;
#STEPSTYPE:dance-single;
#DESCRIPTION:;
#CHARTSTYLE:;
#DIFFICULTY:Medium;
#METER:15;
#RADARVALUES:0.817063,1.355926,0.604494,0.223198,0.060449,615.000000,550.000000,65.000000,24.000000,0.000000,0.000000,0.000000,0.000000,0.000000,0.817063,1.355926,0.604494,0.223198,0.060449,615.000000,550.000000,65.000000,24.000000,0.000000,0.000000,0.000000,0.000000,0.000000;
#CREDIT:MILEN;
#DISPLAYBPM:85.000000:340.000000;
#NOTES:
0000
0000
0000
0000
,
0000
0000
0000
0000
,
0000
0000
0000
0000
1000
0100
0010
0000
0001
0100
0000
0100
0000
1000
0010
0000
,
0100
0000
0110
0000
0001
0010
0100
0000
1000
0010
0000
0010
0001
0000
0100
0000
,
0010
0000
0000
0010
0000
0000
0010
0000
1001
0000
0000
0000
0000
0000
0000
0000
1000
0000
0000
0000
0000
0000
0000
0000
0100
0000
0000
0000
0000
0000
0000
0000
,
0010
0100
1000
0100
,
0010
0000
0001
0000
0000
0100
0000
0000
,
0001
0000
1000
0000
0000
0010
0000
0000
,
1000
1001
0001
0010
,
0100
0010
0001
0010
,
0100
0000
1000
0000
0000
0010
0000
0000
,
1000
0000
0001
0000
0000
0100
0000
0000
,
0001
1001
1000
0100
,
0001
0100
1000
0100
,
0010
0000
0001
0000
0000
0100
0000
0000
,
0010
0000
1000
0000
0000
0010
0000
0000
,
0100
0110
0001
0010
,
1000
0010
0001
0010
,
0100
0000
1000
0000
0000
0001
0000
0000
,
0100
0220
0330
0110
,
0010
1000
0001
0000
0100
0000
0010
0000
,
0001
0010
0100
0010
,
1000
0100
0010
0100
,
1000
0000
0100
0000
0010
0000
0001
0100
,
0001
0100
0001
0000
1000
0000
0010
0000
,
0001
0010
1000
0010
,
0100
0001
0100
1000
,
0100
0000
0001
0000
1000
0000
0010
0100
,
0010
1010
1000
0100
,
0001
0000
0100
0000
0010
0000
0001
0100
,
0001
0101
0100
0010
,
0001
0000
0010
0000
1000
0000
0100
0010
,
0100
1100
1000
0001
,
0010
0011
0001
1000
,
0100
0110
0010
0100
,
0010
0002
0000
0000
1003
0000
1000
0010
,
1000
0010
1000
1000
0001
0001
0010
0010
,
0100
0100
1000
0010
0001
0100
1000
0010
,
0110
0000
0001
0001
1000
1000
0100
0100
,
0010
0010
0001
0100
1000
0010
0001
0100
,
0010
1000
0010
1000
0001
0000
0000
0000
0100
0000
0000
0000
1010
0000
0000
0000
,
1000
0100
1100
0010
,
0011
0001
0100
0010
,
1000
1002
0103
2001
,
3010
1000
0100
0011
,
0001
0100
0101
0010
,
1010
1000
0100
0010
,
0001
1001
0110
1001
,
0100
0010
0100
0000
0001
0000
1000
0000
,
0010
0100
0010
0000
1000
0000
0001
0000
,
0010
0100
0010
0000
0001
0000
1000
0000
,
0100
0010
0100
0000
0010
0100
0010
0000
,
0001
0000
0100
0010
1000
0000
0001
0000
,
1000
0000
0010
0100
0001
0000
1000
0000
,
0001
0000
1000
0100
0010
0000
0001
0000
,
1000
0000
0001
0010
0100
0000
1000
0010
,
0100
0000
0110
0000
0100
0010
1000
0000
,
0100
0000
0001
0000
0100
0000
0010
0001
,
0100
0000
0110
0000
0100
0001
0010
0000
,
1000
0000
0010
0000
0100
0000
1000
0001
,
1000
0000
1001
0000
0001
1000
0001
0000
,
0100
0000
1010
0000
1000
0001
1000
0000
,
0010
0101
0001
1100
,
1000
0011
0001
1010
,
1000
0000
0100
0000
0020
0000
0000
0000
0000
0001
0000
0000
0000
0000
0000
0000
,
0230
0000
0000
1000
0000
0000
0000
0000
0320
0000
0000
0000
1000
0000
0000
0000
,
0000
0031
1001
0000
1000
0000
0010
0000
,
0110
0100
0001
2001
,
3020
0130
0100
0001
,
0011
0100
1000
1100
,
0010
0110
0100
0001
,
1001
1000
0010
0110
,
0100
0001
2000
0000
3010
0000
0100
0000
,
0101
0001
1000
1200
,
0320
0031
0100
0010
,
1010
1000
0001
0020
,
0230
1300
0001
0100
,
0110
0010
1000
1100
,
0010
0101
0001
1000
,
1010
0100
0001
0011
,
0100
0110
0001
1000
,
2020
3030
0202
0303
,
0001
1000
0010
0000
0100
0000
0001
0000
,
0010
0000
0100
0000
0001
0000
0100
1000
,
0100
0000
1000
0001
0100
0000
0010
0000
,
1000
0000
0100
0000
0010
0001
0010
0000
,
0001
1000
0010
0000
0100
0000
0001
0000
,
0010
0000
0100
0000
1000
0010
1000
0000
,
0001
0100
0001
0000
1000
0000
0010
0000
,
0100
0010
0100
0000
0001
0000
1001
0000
,
0110
1001
1000
0100
,
0010
0100
0001
0000
0100
0000
0010
0000
,
0001
1001
0001
0010
,
0100
0010
1000
0000
0010
0000
0100
0000
,
1000
0000
1010
0000
0010
0100
0001
0000
,
0100
0000
0101
0000
0100
0010
1000
0000
,
0010
0110
1001
0110
,
2000
0000
3002
0000
0203
0000
0310
1000
,
0001
0000
0010
0100
1000
0000
0100
0000
,
0010
0000
0100
0010
0001
0000
0010
0000
,
0100
0000
1000
0010
0100
0000
0001
0100
,
0010
0000
1000
0001
0010
0001
1000
0000
,
0001
0000
0100
0010
0001
0000
0010
0000
,
0100
0000
0010
0100
1000
0000
0100
0000
,
0010
0000
1000
0001
0100
0000
0001
1000
,
0010
0000
0100
0001
0010
0001
0100
0000
,
0010
0000
1010
0000
1000
0100
1000
0100
,
0010
0000
0100
0000
0010
0001
0010
0001
,
0100
0000
0110
0000
0010
1000
0010
1000
,
0001
0000
0100
0000
0010
0100
0010
0100
,
0001
0000
0011
0000
0010
0100
1000
0000
,
0100
0000
1100
0000
1000
0100
0010
0000
,
0100
0000
0010
0001
0100
0000
0010
1000
,
0100
0000
1000
0010
0100
0001
0100
0010
,
1000
0001
0010
0001
0010
0000
0000
1000
,
0100
1000
0100
0000
0001
0100
0001
0100
,
0000
1000
0010
1000
0010
0000
0220
0000
,
0000
0000
0000
0000
,
0000
0000
0000
0000
,
0000
0000
0000
0000
,
0000
0000
0000
0000
,
0000
0000
0330
0000
;

//---------------dance-double - ----------------
#NOTEDATA:;
#CHARTNAME:;
#STEPSTYPE:dance-double;
#DESCRIPTION:;
#CHARTSTYLE:;
#DIFFICULTY:Medium;
#METER:15;
#RADARVALUES:0.774549,1.355926,0.334797,0.371996,0.060449,583.000000,547.000000,36.000000,40.000000,0.000000,0.000000,0.000000,0.000000,0.000000,0.774549,1.355926,0.334797,0.371996,0.060449,583.000000,547.000000,36.000000,40.000000,0.000000,0.000000,0.000000,0.000000,0.000000;
#CREDIT:MILEN;
#DISPLAYBPM:85.000000:340.000000;
#NOTES:
00000000
00000000
00000000
00000000
,
00000000
00000000
00000000
00000000
,
00000000
00000000
00000000
00000000
10000000
01000000
00100000
00000000
01000000
00010000
00000000
00001000
00000000
00000010
00000001
00000000
,
00000100
00000000
00000110
00000000
00000001
00000010
00000100
00000000
00000010
00001000
00000000
00010000
00100000
00000000
10000000
00000000
,
01000000
00000000
00000000
01000000
00000000
00000000
01000000
00000000
01100000
00000000
00000000
00000000
00000000
00000000
00000000
00000000
00010000
00000000
00000000
00000000
00000000
00000000
00000000
00000000
01000000
00000000
00000000
00000000
00000000
00000000
00000000
00000000
,
00001000
00010000
00001000
01000000
,
00010000
00000000
00100000
00000000
00000000
00001000
00010000
00000000
,
00001000
00000000
00100000
00000000
00000000
00001000
00010000
00000000
,
00000010
00000110
00001000
00000100
,
00010000
00001000
00010000
00000100
,
00001000
00000000
00000010
00000000
00000000
00010000
00001000
00000000
,
00010000
00000000
00000010
00000000
00000000
00010000
00001000
00000000
,
00100000
01100000
10000000
00100000
,
00010000
00001000
00010000
00001000
,
00000100
00000000
00000001
00000000
00000000
00000010
00000100
00000000
,
00010000
00000000
00001000
00000000
00000000
00010000
00000100
00000000
,
00000010
00000110
00000001
00000100
,
00001000
00010000
00001000
00010000
,
00100000
00000000
10000000
00000000
00000000
01000000
00100000
00000000
,
01000000
02200000
03300000
01100000
,
00010000
10000000
00010000
00000000
01000000
00000000
00001000
00000000
,
01000000
00010000
01000000
00001000
,
00010000
00001000
01000000
00010000
,
00100000
00001000
00010000
00000100
,
00001000
00000001
00001000
00000000
00000010
00000000
00010000
00000000
,
00000010
00001000
00000010
00010000
,
00001000
00010000
00000010
00001000
,
00000100
00010000
00001000
00100000
,
00010000
10010000
10000000
01000000
,
00010000
00000000
00001000
00000000
00000010
00000000
00000001
00000100
,
00000001
00001001
00000001
00000100
,
00001000
00000000
00010000
00000000
00100000
00000000
10000000
01000000
,
10000000
10010000
00010000
01000000
,
00001000
00011000
00010000
00000100
,
00001000
00001001
00000001
00000100
,
00000010
00020000
00000000
00000000
00031000
00000000
00001000
00100000
,
00001000
00100000
01000000
01000000
10000000
10000000
00100000
00100000
,
00010000
00010000
00001000
00000100
00000001
00000010
00001000
00010000
,
00011000
00000000
00000100
00000100
00000001
00000001
00000010
00000010
,
00001000
00001000
00010000
01000000
10000000
00100000
00010000
00001000
,
00000100
00000010
00000100
00000010
00000100
00000000
00000000
00000000
00000001
00000000
00000000
00000000
00000020
00000000
00000000
00000000
,
00001030
00000010
00000002
00000103
,
00000200
00001300
00001000
00010000
,
00100000
20000000
31000000
02000000
,
03010000
01000000
10000000
00200000
,
00310000
00100000
02000000
03010000
,
00020000
00130000
00100000
01000000
,
00010000
00011000
00000100
00001001
,
00000001
00000100
00000001
00000000
00000010
00000000
00001000
00000000
,
00010000
00001000
00010000
00000000
00001000
00000000
00000010
00000000
,
00000001
00000100
00000001
00000000
00000010
00000000
00001000
00000000
,
00010000
00001000
00010000
00000000
00001000
00000000
00010000
00000000
,
00100000
00000000
10000000
01000000
10000000
00000000
00100000
00000000
,
00010000
00000000
00001000
00010000
00001000
00000000
00010000
00000000
,
00100000
00000000
10000000
01000000
10000000
00000000
00100000
00000000
,
00010000
00000000
00001000
00000000
00010000
00001000
00010000
00000000
,
00001000
00000000
00011000
00000000
00010000
00000100
00001000
00000000
,
00000100
00000000
00010000
00000000
00001000
00000000
00010000
00000010
,
00001000
00000000
00000100
00000000
00010000
00001000
00100000
00000000
,
00010000
00000000
00100000
00000000
00001000
00000000
01000000
00001000
,
00010000
00000000
00100000
00000000
01000000
00100000
01000000
00000000
,
00010000
00000000
10010000
00000000
01000000
00010000
01000000
00000000
,
00010000
00110000
00001000
00101000
,
00010000
00011000
00000010
00010010
,
00000010
00000000
00000100
00000000
00002000
00000000
00000000
00000000
00000000
01000000
00000000
00000000
00000000
00000000
00000000
00000000
,
00023000
00000000
00000000
00000100
00000000
00000000
00000000
00000000
00032000
00000000
00000000
00000000
00010000
00000000
00000000
00000000
,
00000000
00013000
00011000
00000000
00001000
00000000
00000010
00000000
,
00000002
00000013
00001000
00021000
,
02030000
13000000
00100000
00010000
,
00002000
00103000
00001000
00020000
,
00030010
00020000
00031000
00000100
,
00000002
00000013
00001000
00020000
,
00031000
00100000
00020000
00000000
01030000
00000000
00100000
00000000
,
20000000
31000000
00010000
00002000
,
00003200
00000301
00000100
00001000
,
00020000
00030100
00000010
00002000
,
00023000
01030000
10000000
00100000
,
00020000
00031000
00010000
00200000
,
01300000
02000000
03010000
00010000
,
00200000
00301000
00100000
02000000
,
13000000
10100000
00100000
00010000
,
00020020
00030030
00202000
00303000
,
00001000
00010000
00001000
00000000
00000100
00000000
00000001
00000000
,
00000010
00001000
00000010
00000000
00000001
00000000
00000100
00001000
,
00000100
00001000
00010000
00100000
,
10000000
00100000
10000000
00000000
01000000
00000000
00010000
01000000
,
00010000
01000000
00010000
00001000
,
00000100
00000001
00000100
00000000
00000001
00000000
00000010
00000000
,
00001000
00010000
00001000
00000000
00100000
00000000
01000000
00000000
,
10000000
00010000
10000000
00000000
00100000
00000000
00010000
00000000
,
00001000
00011000
00010000
00001000
,
00000100
00000010
00000100
00000000
00000001
00000000
00000010
00000000
,
00001000
00011000
00001000
00010000
,
00100000
01000000
00100000
00000000
10000000
00000000
01000000
00000000
,
00010000
00000000
00011000
00000000
00001000
00100000
00010000
00000000
,
00100000
00000000
00101000
00000000
00001000
00010000
00000010
00000000
,
00010000
00010010
00000010
00001000
,
00000001
00000000
00000010
00000000
00001000
00000000
00010000
00001000
,
00010000
00000000
00000100
00001000
00000010
00000000
00000100
00000000
,
00000010
00000000
00000100
00000001
00000010
00000000
00001000
00000000
,
00010000
00000000
00001000
00100000
00001000
00000000
00010000
00000010
,
00010000
00000000
00001000
00100000
00010000
00000000
01000000
00000000
,
00010000
00000000
00100000
00010000
01000000
00000000
00100000
00000000
,
01000000
00000000
00100000
10000000
01000000
00000000
00010000
00000000
,
00001000
00000000
00010000
00000100
00010000
00000000
00001000
01000000
,
00001000
00000000
00010000
00000100
00001000
00000000
00000010
00000000
,
00001000
00000000
00001001
00000000
00000001
00000100
00001000
00000000
,
00010000
00000000
00001000
00000000
00010000
00100000
10000000
00000000
,
00010000
00000000
10010000
00000000
10000000
01000000
00010000
00000000
,
00001000
00000000
00010000
00000000
00001000
00000010
00000001
00000000
,
00001000
00000000
00001001
00000000
00000001
00000100
00000010
00000000
,
00010000
00000000
00011000
00000000
00001000
00100000
00010000
00000000
,
10000000
00000000
00100000
01000000
00010000
00000000
00100000
00010000
,
01000000
00000000
00001000
00010000
00001000
00010000
00001000
00010000
,
00000100
00001000
00000001
00001000
00000001
00000000
00000000
00010000
,
00000010
00010000
00000010
00000000
00100000
00001000
00100000
00001000
,
00000000
10000000
00010000
10000000
00010000
00000000
02200000
00000000
,
00000000
00000000
00000000
00000000
,
00000000
00000000
00000000
00000000
,
00000000
00000000
00000000
00000000
,
00000000
00000000
00000000
00000000
,
00000000
00000000
03300000
00000000
;

//---------------dance-single - ----------------
#NOTEDATA:;
#CHARTNAME:;
#STEPSTYPE:dance-single;
#DESCRIPTION:;
#CHARTSTYLE:;
#DIFFICULTY:Easy;
#METER:12;
#RADARVALUES:0.631065,0.960447,0.530095,0.269697,0.018600,475.000000,418.000000,57.000000,29.000000,0.000000,0.000000,0.000000,0.000000,0.000000,0.631065,0.960447,0.530095,0.269697,0.018600,475.000000,418.000000,57.000000,29.000000,0.000000,0.000000,0.000000,0.000000,0.000000;
#CREDIT:MILEN;
#DISPLAYBPM:85.000000:340.000000;
#NOTES:
0000
0000
0000
0000
,
0000
0000
0000
0000
,
0000
0000
1000
0001
1000
0000
0001
1000
,
0001
1001
0100
0010
0100
0000
0010
0100
,
0010
1000
0000
0001
0100
0000
0000
0000
0010
0000
0000
0000
0100
0000
0000
0000
,
0000
0010
0100
0010
,
0000
0100
0010
0100
,
0001
0000
1000
0000
0000
1000
0000
0000
,
1000
0010
0100
0010
,
0000
0100
0010
0100
,
0000
0010
0100
0010
,
1000
0000
0001
0000
0000
0001
0000
0000
,
0001
1000
0010
1000
,
0000
0001
0100
0001
,
0000
1000
0010
0100
,
0001
0000
1000
0000
0000
0001
0000
0000
,
1000
0001
0100
0010
,
0000
1000
0010
0100
,
0000
0001
0010
0100
,
1000
0020
0000
0130
,
0100
0001
0010
0001
,
0010
0100
1000
0100
,
1000
0001
0010
0100
,
0001
0100
1000
1010
,
0000
1000
0100
1000
,
0100
0010
0001
0010
,
0001
1000
0100
0010
,
1000
0010
0001
0101
,
0000
1001
1000
0010
,
0100
0010
1000
0001
,
0000
1001
0001
0100
,
0010
0100
0001
1000
,
0000
1001
0001
0100
,
0000
1001
1000
0010
,
0000
1001
0010
0100
,
0000
0010
0000
0000
0100
0000
0001
0000
,
1000
1020
0100
0001
,
0130
0001
0201
0000
0010
0000
1000
0000
,
0310
1000
1002
0000
0010
0000
1000
0000
,
0103
0001
2001
0000
0010
0000
0001
0000
,
3100
0010
0110
0000
0001
0000
0010
0000
,
0100
0001
0100
0010
,
0001
0100
0010
0001
,
0100
1000
0010
0200
,
0300
0110
1000
0100
,
0010
1000
0010
0100
,
1000
0010
0100
1000
,
0010
0001
0100
0020
,
0030
1010
1000
0100
,
0001
0100
1000
0100
,
0010
1000
0010
0001
,
0010
0100
0010
0011
,
0000
0101
0001
0010
,
1000
0010
0001
0010
,
0100
0001
0100
1000
,
0100
0010
0100
1100
,
0000
1001
0010
0100
,
0001
0100
1000
0010
,
0000
1001
0100
0010
,
1000
0010
0001
0100
,
0000
1001
0010
1000
,
0000
1001
0100
0001
,
0000
1001
0001
1001
,
1000
1001
0110
1001
,
0010
0000
0000
0000
0200
0000
0000
0000
0000
0301
0000
0000
0000
0000
0000
0000
,
0020
0000
0000
1030
0000
0000
0000
0000
0200
0000
0000
0000
0010
0000
0000
0000
,
0000
0310
0110
0000
0000
0000
1000
0000
,
0010
0000
0001
0100
,
1000
1001
0000
0001
,
0010
0000
1000
0100
,
0000
0110
0000
0001
,
0100
0000
1000
0010
,
0001
1001
0000
1000
,
0100
0000
0001
0010
,
0100
0110
0000
1000
,
0100
0000
0001
0010
,
0100
1100
0000
1000
,
0010
0000
0001
0101
,
0000
0110
0000
0001
,
0010
0000
1000
0100
,
0010
0110
0001
0100
,
2020
3030
0202
0303
,
1001
1000
0100
0001
,
0100
1000
0100
0010
,
0010
0010
0001
0010
,
1000
0010
0001
0010
,
0100
1000
1000
0010
,
0001
0001
0100
1000
,
0010
0110
0100
0001
,
0022
0033
2200
0300
,
3001
0101
0010
1000
,
0100
0001
0010
0100
,
1000
1010
0100
0001
,
0010
1000
0100
0010
,
0001
1001
0100
0010
,
0100
1001
0010
0100
,
0010
2000
3002
0023
,
0230
2300
3020
0230
,
0301
1000
1000
0100
,
0100
0001
0001
0020
,
0030
0001
0001
0100
,
0100
1000
1000
0010
,
0110
0001
0001
0010
,
0010
1000
1000
0200
,
0300
1000
1000
0010
,
0010
0001
0001
0100
,
0110
1001
0100
0001
,
1000
0010
0001
0100
,
1000
1001
0010
1000
,
0001
0100
1000
0010
,
0001
1001
1000
0010
,
0001
1001
0001
0100
,
1000
1010
0010
0110
,
0100
0101
0001
1001
,
1000
0000
0001
0000
0100
0000
0000
0100
,
0000
1000
0000
0000
1000
0000
0010
0000
,
0000
0010
0000
0001
0000
0000
2002
0000
,
0000
0000
0000
0000
,
0000
0000
0000
0000
,
0000
0000
0000
0000
,
0000
0000
0000
0000
,
0000
0000
3003
0000
;

//---------------dance-double - ----------------
#NOTEDATA:;
#CHARTNAME:;
#STEPSTYPE:dance-double;
#DESCRIPTION:;
#CHARTSTYLE:;
#DIFFICULTY:Easy;
#METER:12;
#RADARVALUES:0.616451,0.790957,0.455695,0.204598,0.018600,464.000000,415.000000,49.000000,22.000000,0.000000,0.000000,0.000000,0.000000,0.000000,0.616451,0.790957,0.455695,0.204598,0.018600,464.000000,415.000000,49.000000,22.000000,0.000000,0.000000,0.000000,0.000000,0.000000;
#CREDIT:MILEN;
#DISPLAYBPM:85.000000:340.000000;
#NOTES:
00000000
00000000
00000000
00000000
,
00000000
00000000
00000000
00000000
,
00000000
00001000
00001000
00010000
,
00010000
00000000
00001000
00010000
00001000
00000000
00010000
00001000
,
00010000
00001000
00000000
00001000
00010000
00000000
00000000
00000000
00000100
00000000
00000000
00000000
00001000
00000000
00000000
00000000
,
00000000
00000100
00010000
00001000
,
00000000
00010000
00000100
00001000
,
00000100
00000000
00010000
00000000
00000000
00001000
00000000
00000000
,
00010000
00001000
01000000
00010000
,
00000000
01000000
00001000
00010000
,
00000000
00001000
01000000
00010000
,
01000000
00000000
00001000
00000000
00000000
00010000
00000000
00000000
,
00001000
00010000
00000010
00001000
,
00000000
00000010
00010000
00001000
,
00000000
00010000
00000010
00001000
,
00000010
00000000
00010000
00000000
00000000
00001000
00000000
00000000
,
00010000
00001000
00100000
00010000
,
00000000
00100000
00001000
00010000
,
00000000
00001000
00100000
00010000
,
00100000
00002000
00000000
00013000
,
00010000
00000100
00001000
00000100
,
00001000
00000001
00000010
00000001
,
00000010
00001000
00010000
00100000
,
10000000
01000000
00100000
00001000
,
00000000
00100000
00010000
00100000
,
00010000
10000000
01000000
10000000
,
01000000
00010000
00001000
00000100
,
00000001
00000010
00000100
00010000
,
00000000
00011000
00010000
00001000
,
01000000
00010000
01000000
00001000
,
00000000
00011000
00001000
00010000
,
00000010
00001000
00000010
00010000
,
00000000
00011000
00010000
00000100
,
00000000
00011000
00001000
00100000
,
00000000
00011000
00001000
00010000
,
00000000
01000000
00000000
00000000
10000000
00000000
00100000
00000000
,
00010000
00012000
01000000
01000000
,
01003000
00001000
00021000
00000000
00000100
00000000
00000100
00000000
,
00030100
00010000
00012000
00000000
00100000
00000000
00100000
00000000
,
00103000
00001000
00021000
00000000
00000010
00000000
00000010
00000000
,
00030010
00010000
00011000
00000000
00001000
00000000
00100000
00000000
,
01000000
00010000
00001000
00010000
,
01000000
00100000
00001000
00010000
,
00100000
10000000
00100000
00020000
,
00030000
00011000
00010000
00000100
,
00000010
00001000
00010000
00001000
,
00000010
00000100
00010000
00001000
,
00000100
00000001
00000100
00002000
,
00003000
00011000
00010000
00100000
,
10000000
01000000
00010000
01000000
,
00100000
10000000
00100000
00010000
,
01000000
00100000
00010000
00002000
,
00003000
00011000
00001000
00000100
,
00000001
00000010
00001000
00000010
,
00000100
00000001
00000100
00001000
,
00000010
00000100
00001000
00020000
,
00030000
00011000
00001000
00100000
,
01000000
10000000
00100000
00010000
,
00000000
00011000
00010000
00000100
,
00000010
00000001
00000100
00001000
,
00000000
00011000
00010000
01000000
,
00000000
00011000
00001000
00000010
,
00000000
00011000
00000000
00011000
,
00000000
01001000
00010010
00101000
,
00010100
00000000
00000000
00000000
00020000
00000000
00000000
00000000
00000000
01030000
00000000
00000000
00000000
00000000
00000000
00000000
,
00002000
00000000
00000000
00003010
00000000
00000000
00000000
00000000
00020000
00000000
00000000
00000000
00001000
00000000
00000000
00000000
,
00000000
00031000
00011000
00000000
00000000
00000000
00010000
00000000
,
00100000
00000000
10000000
00100000
,
00010000
00011000
00000000
00001000
,
00000010
00000000
00000001
00000100
,
00000000
00000110
00000000
00000010
,
00010000
00000000
00001000
00010000
,
00100000
01100000
00000000
10000000
,
01000000
00000000
00100000
00001000
,
00010000
00011000
00000000
00001000
,
00000010
00000000
00000001
00000100
,
00001000
00011000
00000000
00010000
,
00100000
00000000
10000000
11000000
,
00000000
01100000
00000000
00100000
,
00001000
00000000
00010000
00001000
,
00000010
00000011
00000001
00000100
,
00002000
00000000
00020000
00033000
,
00011000
00010000
00100000
10000000
,
01000000
00010000
01000000
10000000
,
00100000
00010000
00001000
00000100
,
00000001
00000010
00001000
00000010
,
00000001
00000100
00000100
00001000
,
01000000
01000000
00010000
00100000
,
01000000
11000000
10000000
00100000
,
00020000
00000000
00002000
00030000
,
00013000
00011000
00001000
00000100
,
00000001
00000010
00001000
00010000
,
00001000
00011000
00010000
01000000
,
10000000
00100000
00010000
00001000
,
00010000
00011000
00001000
01000000
,
00001000
00011000
00010000
00000010
,
00010000
00002000
01003000
00020000
,
00030100
00002000
00103000
00020000
,
00030010
00010000
00001000
00000010
,
00000001
00001000
00000100
00000010
,
00000001
00000100
00001000
00010000
,
00001000
00000100
00001000
00010000
,
00011000
00001000
00010000
01000000
,
10000000
00010000
00100000
01000000
,
10000000
00100000
00010000
00001000
,
00010000
00100000
00010000
00001000
,
00011000
00011000
00001000
00000010
,
00000001
00001000
00000100
00000010
,
00001000
00011000
00010000
00100000
,
10000000
00010000
01000000
00100000
,
00010000
00011000
00001000
00100000
,
01000000
00011000
00010000
00000100
,
00000010
00011000
00100000
00011000
,
00000010
00011000
01000000
00011000
,
00000100
00000000
00000010
00000000
00000001
00000000
00000000
00000100
,
00000000
00001000
00000000
00000000
00010000
00000000
01000000
00000000
,
00000000
10000000
00000000
00100000
00000000
00000000
00022000
00000000
,
00000000
00000000
00000000
00000000
,
00000000
00000000
00000000
00000000
,
00000000
00000000
00000000
00000000
,
00000000
00000000
00000000
00000000
,
00000000
00000000
00033000
00000000
;

//---------------dance-single - ----------------
#NOTEDATA:;
#CHARTNAME:;
#STEPSTYPE:dance-single;
#DESCRIPTION:;
#CHARTSTYLE:;
#DIFFICULTY:Beginner;
#METER:9;
#RADARVALUES:0.368010,0.734460,0.399896,0.083699,0.000000,277.000000,234.000000,43.000000,9.000000,0.000000,0.000000,0.000000,0.000000,0.000000,0.368010,0.734460,0.399896,0.083699,0.000000,277.000000,234.000000,43.000000,9.000000,0.000000,0.000000,0.000000,0.000000,0.000000;
#CREDIT:MILEN;
#DISPLAYBPM:85.000000:340.000000;
#NOTES:
0000
0000
0000
0000
,
0000
0000
0000
0000
,
0000
0000
1000
1000
1000
0000
0001
0001
,
0001
0000
1000
0000
0001
0000
0100
0100
,
0010
0010
1000
0000
0000
0000
1000
0000
,
0000
1000
0000
0000
,
0000
0001
0000
0001
,
0000
0001
0000
0000
,
0000
1000
0000
1000
,
0000
0001
0000
0001
,
0000
1000
0000
0001
,
0000
1001
0000
0000
,
0000
0010
0000
0010
,
0000
0010
0000
0000
,
0000
0100
0000
0100
,
0000
0100
0000
0000
,
0000
0010
0000
0010
,
0000
0100
0000
0100
,
0000
0010
0000
0100
,
0000
0110
0000
0110
,
0000
1000
0000
1000
,
0000
0100
0000
0100
,
0000
0010
0000
0010
,
0000
0001
0000
0001
,
0000
1000
0000
1000
,
0000
0010
0000
0010
,
0000
0100
0000
0100
,
0000
0001
0000
0001
,
0000
1001
0000
1000
,
0000
0100
0000
0000
,
0000
1001
0000
0001
,
0000
0100
0000
0000
,
0000
1001
0000
0000
,
0000
1001
0000
0000
,
0000
1001
0000
1001
,
0000
1000
0000
0001
,
0000
2000
0000
0000
,
3000
0020
0000
0000
,
0030
0002
0000
0000
,
0003
0200
0000
0300
,
1000
0001
1000
0000
0000
0000
0100
0000
,
0000
1000
0000
0001
,
0000
1000
0000
0100
,
0000
1000
0001
1000
,
0000
0001
0000
0100
,
0000
0001
0000
1000
,
0000
0001
0000
0100
,
0000
0001
1000
0001
,
0000
1000
0000
0010
,
0000
1000
0000
0001
,
0000
1000
0000
0010
,
0000
1000
0001
1000
,
0000
0001
0000
0010
,
0000
0001
0000
1000
,
0000
0001
0000
0010
,
0000
0001
1000
0001
,
0000
1001
0000
1000
,
0000
0100
0000
0010
,
0000
1001
0000
0001
,
0000
0010
0000
0100
,
0000
1001
0000
0100
,
0000
1001
0000
0010
,
0000
1001
0000
0110
,
0000
1001
1000
1000
,
0001
0002
0003
0000
,
0200
0000
0300
0000
2000
0000
0000
3000
,
0000
0010
0110
0000
0000
0000
0000
0000
,
0110
0000
0000
1000
,
0000
0110
0000
0000
,
0110
0000
0000
0001
,
0000
0110
0000
0000
,
0110
0000
0000
1000
,
0000
1001
0000
0000
,
1001
0000
0000
0001
,
0000
0110
0000
0000
,
1000
0000
0000
1000
,
0000
0110
0000
0000
,
0001
0000
0000
0001
,
0000
1001
0000
0000
,
0100
0000
0000
1001
,
0000
0010
0000
0000
,
1001
0000
0110
0000
,
0010
0100
0000
0010
,
0000
1000
0000
0010
,
0100
0010
0000
0100
,
0000
0001
0000
0100
,
0000
0010
0000
1000
,
0000
0010
0000
0100
,
0010
0100
0000
0001
,
1000
0000
0010
0100
,
0000
0110
0000
0010
,
0000
1000
0000
0010
,
0000
0110
0000
0100
,
0000
0001
0000
0100
,
0000
0110
0000
1000
,
0000
0110
0000
0001
,
0000
1000
0000
0001
,
0000
1000
0001
1000
,
0001
1000
0000
1000
,
0000
0100
0000
0100
,
0000
0001
0000
0001
,
0000
0010
0000
0010
,
0000
1000
0000
1000
,
0000
0010
0000
0010
,
0000
0001
0000
0001
,
0000
0100
0000
0100
,
0000
1001
0000
0010
,
0000
0100
0000
0010
,
0000
1001
0000
0100
,
0000
0010
0000
0100
,
0000
0110
0000
1000
,
0000
0110
0000
0001
,
0000
1001
0000
0110
,
0000
1001
0000
1001
,
0000
0000
0010
0000
0010
0000
0000
0100
,
0000
0100
0000
0000
0001
0000
0001
0000
,
0000
1000
0000
1000
0000
0000
2002
0000
,
0000
0000
0000
0000
,
0000
0000
0000
0000
,
0000
0000
0000
0000
,
0000
0000
0000
0000
,
0000
0000
3003
0000
;
