#VERSION:0.83;
#TITLE:女の子になりたい;
#SUBTITLE:;
#ARTIST:まふまふ;
#TITLETRANSLIT:Onna no Ko ni Naritai;
#SUBTITLETRANSLIT:;
#ARTISTTRANSLIT:MafuMafu;
#GENRE:J-MUSIC;
#ORIGIN:;
#CREDIT:MUINELIM;
#BANNER:Onna no Ko ni Naritai.png;
#BACKGROUND:Onna no Ko ni Naritai-bg.png;
#PREVIEWVID:;
#JACKET:Onna no Ko ni Naritai-jacket.png;
#CDIMAGE:;
#DISCIMAGE:;
#LYRICSPATH:;
#CDTITLE:;
#MUSIC:Onna no Ko ni Naritai.ogg;
#OFFSET:-0.053000;
#SAMPLESTART:43.773533;
#SAMPLELENGTH:11.981716;
#SELECTABLE:YES;
#DISPLAYBPM:140.000000;
#BPMS:0.000=139.980;
#STOPS:300.000=2.143;
#DELAYS:;
#WARPS:;
#TIMESIGNATURES:0.000=4=4;
#TICKCOUNTS:0.000=4;
#COMBOS:0.000=1;
#SPEEDS:0.000=1.000=0.000=0;
#SCROLLS:0.000=1.000;
#FAKES:;
#LABELS:0.000=Song Start;
#BGCHANGES:0.000=Onna no Ko ni Naritai.avi=1.000=1=0=0=StretchNoLoop==CrossFade==,
99999=-nosongbg-=1.000=0=0=0 // don't automatically add -songbackground-
;
#KEYSOUNDS:;
#ATTACKS:
;

//---------------dance-single - ----------------
#NOTEDATA:;
#CHARTNAME:;
#STEPSTYPE:dance-single;
#DESCRIPTION:;
#CHARTSTYLE:;
#DIFFICULTY:Beginner;
#METER:3;
#RADARVALUES:0.115625,0.164004,0.007100,0.042599,0.000000,114.000000,113.000000,1.000000,6.000000,0.000000,0.000000,0.000000,0.000000,0.000000,0.115625,0.164004,0.007100,0.042599,0.000000,114.000000,113.000000,1.000000,6.000000,0.000000,0.000000,0.000000,0.000000,0.000000;
#CREDIT:MILEN;
#DISPLAYBPM:140.000000;
#NOTES:
0000
0000
0000
0000
,
0000
0000
0000
0000
,
0000
0000
0000
0000
,
0000
0000
0010
0000
,
0010
0000
0010
0000
,
0010
0000
0010
0000
,
0010
0000
0010
0010
,
0010
0000
0010
0000
,
0000
0000
1000
0000
,
0000
0000
0001
0000
,
0000
0000
0100
0000
,
0000
0000
0010
0000
,
1000
0000
0001
0000
,
0100
0000
0010
0000
,
0010
0000
0010
0000
,
0000
0000
1000
0000
,
0000
0000
0100
0000
,
0000
0000
0010
0000
,
0000
0000
0001
0000
,
0000
0000
0100
0000
,
0100
0000
0100
0000
,
0100
0000
0200
0000
,
0000
0000
0000
0000
,
0300
0000
0100
0000
,
0001
0000
1000
0000
,
0020
0030
0010
0000
,
0000
0000
0100
0000
,
0000
0000
0001
0000
,
0000
0000
1000
0000
,
0000
0000
0100
0000
,
0000
0000
0010
0000
,
0000
0000
0001
0000
,
0000
0000
0100
0000
,
0100
0000
0010
0000
,
0010
0000
1000
0000
,
1000
0000
0001
0000
,
0001
0000
0010
0000
,
0010
0000
0100
0000
,
0100
0000
1000
0000
,
1000
0000
0010
0000
,
0010
0000
0010
0000
,
0000
0000
0001
0000
,
0000
0000
0100
0000
,
0000
0000
1000
0000
,
0000
0000
0010
0000
,
0010
0000
0010
0000
,
0010
0000
0100
0000
,
0100
0000
0100
0000
,
0000
0000
0001
0000
,
0000
0000
1000
0000
,
0000
0000
0002
0000
,
0003
0000
2000
0000
,
3000
0000
0001
0000
,
1000
0000
0001
0000
,
1000
0000
0001
0001
,
0001
0000
0000
1001
,
0000
0000
0000
0000
,
0100
0000
0100
0000
,
0010
0010
0010
0000
,
0000
0000
0010
0000
,
0000
0000
1000
0000
,
0000
0000
0001
0000
,
0000
0000
0100
0000
,
0200
0300
0100
0000
,
0001
0000
1000
0000
,
0010
0000
0100
0000
,
0001
0000
1000
0000
,
0010
0000
0100
0000
,
0100
0000
0001
0000
,
0001
0000
0010
0000
,
0010
0000
0100
0000
,
0100
0000
1000
0000
,
1000
1000
1000
0000
,
0000
0000
0010
0000
,
0000
0000
0001
0000
,
0100
0200
0000
0000
,
0000
0000
0000
0000
,
0300
0000
0000
0000
;

//---------------dance-single - ----------------
#NOTEDATA:;
#CHARTNAME:;
#STEPSTYPE:dance-single;
#DESCRIPTION:;
#CHARTSTYLE:;
#DIFFICULTY:Easy;
#METER:5;
#RADARVALUES:0.245449,0.300674,0.170394,0.063898,0.000000,242.000000,218.000000,24.000000,9.000000,0.000000,0.000000,0.000000,0.000000,0.000000,0.245449,0.300674,0.170394,0.063898,0.000000,242.000000,218.000000,24.000000,9.000000,0.000000,0.000000,0.000000,0.000000,0.000000;
#CREDIT:MILEN;
#DISPLAYBPM:140.000000;
#NOTES:
0000
0000
0000
0000
,
0000
0000
0000
0000
,
0000
0000
0000
0000
,
0000
0000
0100
0000
,
0100
0000
0100
0000
,
0100
0000
0100
0000
,
0100
0000
0100
0100
,
0200
0300
0001
0010
,
0001
0000
1000
0010
,
1000
0000
0001
0100
,
0001
0000
1000
0100
,
1000
0000
0001
1000
,
0001
1000
1001
0000
,
1001
0000
1001
0001
,
1000
0010
0100
0010
,
0020
0030
1000
0000
,
0100
0000
0010
0000
,
0001
0000
1000
0000
,
0100
0000
0010
0000
,
0001
0000
0100
0010
,
0110
0000
0010
0100
,
0110
0000
0010
0100
,
0010
0100
0010
0010
,
1000
0001
0100
0000
,
0100
0000
0100
1000
,
0010
1001
0001
0100
,
0001
0010
0001
0100
,
0001
0000
1000
0010
,
1000
0100
1000
0010
,
1000
0000
0001
0100
,
0010
0100
0001
0100
,
0010
0000
1000
0010
,
0100
0010
1000
0010
,
0200
0300
0010
0010
,
1000
1000
0001
0001
,
0100
0100
0010
1000
,
0001
0100
0010
1000
,
0001
0100
0020
0030
,
1000
0100
0010
0001
,
1000
0001
0010
0100
,
1000
0000
1001
0000
,
0000
0000
1001
0000
,
0000
0000
1001
0000
,
0000
0000
1001
0000
,
0000
0000
1000
0000
,
0010
0000
0001
0000
,
0100
0000
1000
0000
,
0010
0000
0200
0000
,
0000
0300
0010
0010
,
0110
0000
0100
0100
,
0110
0000
0010
0100
,
0010
0100
0010
0010
,
1000
0001
0100
0010
,
1000
0001
0100
0010
,
1000
0001
0100
0010
,
1000
0001
1001
1001
,
0000
0000
0110
0000
,
0010
1000
0001
0001
,
0100
1000
0010
0001
,
1000
0001
1001
0000
,
1000
0000
0010
0000
,
0001
0000
0100
0000
,
1000
0000
0010
0100
,
0220
0330
0010
1000
,
0100
1000
0010
0100
,
0001
0010
0001
0100
,
0010
1000
0010
0100
,
0001
0100
0010
1000
,
0100
0010
0001
0100
,
0010
1000
0001
0010
,
0100
1000
0010
0100
,
0001
1000
0100
0001
,
0010
1000
1001
0000
,
1001
0000
1001
0000
,
1001
0000
1001
0000
,
1001
0220
0000
0000
,
0000
0000
0000
0000
,
0330
0000
0000
0000
;

//---------------dance-single - ----------------
#NOTEDATA:;
#CHARTNAME:;
#STEPSTYPE:dance-single;
#DESCRIPTION:;
#CHARTSTYLE:;
#DIFFICULTY:Medium;
#METER:8;
#RADARVALUES:0.373244,0.437345,0.319489,0.205893,0.000000,368.000000,323.000000,45.000000,29.000000,0.000000,0.000000,0.000000,0.000000,0.000000,0.373244,0.437345,0.319489,0.205893,0.000000,368.000000,323.000000,45.000000,29.000000,0.000000,0.000000,0.000000,0.000000,0.000000;
#CREDIT:MILEN;
#DISPLAYBPM:140.000000;
#NOTES:
0000
0000
0000
0000
,
0000
0000
0000
0000
,
0000
0000
0000
0000
,
0000
0000
0000
0000
0100
0000
0000
0100
,
0001
0000
0000
0001
1000
0000
0000
1000
,
0010
0000
0000
0010
0100
0000
0000
0100
,
0001
0000
0000
0001
1000
0000
0001
0000
,
2002
3003
1000
0100
,
1000
0100
0010
0001
,
0010
0001
1000
0010
,
1000
0010
0100
0001
,
0100
0001
1000
1010
,
0001
0101
1001
0110
,
2002
3003
0001
0100
,
0010
1000
0001
0010
,
0100
0100
0100
0000
2000
0000
0010
0000
,
0000
3010
0002
0010
,
0000
0013
2000
0100
,
0000
3100
0002
0100
,
0000
0000
0103
0000
1000
0000
0001
0100
,
0000
0001
1000
0000
0001
0000
1000
0010
,
0000
1000
0001
0000
0200
0000
0010
0000
,
0010
0000
0010
0000
0010
0000
0300
0010
,
1000
0000
0010
0100
0010
0000
0100
0001
,
0100
0000
0001
1000
0001
0000
1000
0010
,
0200
0301
0011
1100
,
0100
1000
1010
0101
,
0001
0010
0011
0110
,
0100
1000
1010
0110
,
0100
0000
0001
0000
1001
0000
1000
0100
,
0010
0000
0100
0010
0001
0000
0100
0010
,
0100
0001
1000
0010
,
0001
0100
2000
3002
,
0203
0000
0310
0010
1010
0000
0101
0000
,
0001
0010
0011
1100
,
1000
0010
0110
0101
,
0001
0010
0110
1100
,
1000
0001
2002
3003
,
1000
0010
0100
0000
0001
0100
0010
0000
,
1000
0100
0010
0000
0001
0010
0100
1000
,
0002
0103
0110
1000
,
0001
1000
0110
0001
,
1000
0001
0110
1000
,
0001
1000
0110
0001
,
1000
0001
0120
1030
,
0210
0301
2001
3020
,
0230
0000
0000
0301
0001
0000
0010
0001
,
0100
0000
0010
1000
0100
0000
1000
0000
,
0100
0000
0010
0000
0001
0000
1000
0100
,
0000
1000
0001
0000
1000
0000
0001
0010
,
0000
0001
1000
0000
0200
0000
0010
0000
,
0010
0000
0010
0000
0010
0000
0300
0010
,
0001
0000
0010
0100
0010
0000
0100
1000
,
0100
0000
1000
0001
1000
0000
0001
0010
,
0100
0000
1000
0010
0100
0000
0001
0010
,
0200
0310
1001
1001
,
0000
0000
0000
0110
0000
0000
0000
0000
,
0010
1000
0010
1000
0002
0000
0203
0000
,
0010
1000
0320
0100
,
0001
0230
0310
0010
,
1000
1000
0001
0001
,
0100
0000
0100
0000
0010
1000
0010
0000
,
0100
0001
0100
0000
0010
1000
0001
0100
,
0010
0000
0100
0100
0001
0010
0001
0000
,
0100
0010
0100
0000
0001
0010
0100
0000
,
0010
0100
1000
0000
0100
0010
0100
0000
,
1000
0010
1000
0000
0100
0010
0001
0000
,
1000
0100
0010
0000
0001
0100
0010
0000
,
1000
0010
0100
0000
0001
1000
0100
0000
,
1000
0001
0010
0000
0001
0010
0100
1000
,
0100
0000
1100
0000
0011
0000
0001
0100
,
0010
0000
1000
0010
0100
0001
0100
0000
,
0101
1010
1001
0000
,
1010
0000
1100
0000
,
0101
0000
0011
0000
,
0110
2002
0000
0000
,
0000
0000
0000
0000
,
3003
0000
0000
0000
;

//---------------dance-single - ----------------
#NOTEDATA:;
#CHARTNAME:;
#STEPSTYPE:dance-single;
#DESCRIPTION:;
#CHARTSTYLE:;
#DIFFICULTY:Hard;
#METER:11;
#RADARVALUES:0.482783,0.519347,0.241392,0.198793,0.188143,476.000000,442.000000,34.000000,28.000000,0.000000,0.000000,0.000000,0.000000,0.000000,0.482783,0.519347,0.241392,0.198793,0.188143,476.000000,442.000000,34.000000,28.000000,0.000000,0.000000,0.000000,0.000000,0.000000;
#CREDIT:MILEN;
#DISPLAYBPM:140.000000;
#NOTES:
0000
0000
0000
0000
,
0000
0000
0000
0000
,
0000
0000
0000
0000
,
0000
0000
0000
0000
0000
0000
0000
0000
1000
0000
0000
1000
0000
0000
1000
0000
,
0010
0000
0000
0010
0000
0000
0010
0000
0100
0000
0000
0100
0000
0000
0100
0000
,
0001
0000
0000
0001
0000
0000
0001
0000
0010
0000
0000
0100
0000
0000
1000
0000
,
0010
0000
0000
0100
0000
0000
0001
0000
1000
0000
0000
0100
0000
0000
0010
0000
,
0220
0000
0330
0000
0100
0010
0001
0000
,
0010
0100
1000
0000
0100
0010
0001
0100
,
0010
0000
0110
0000
0100
0001
0010
0000
,
0100
1000
0010
0000
0100
0001
0010
0100
,
1000
0000
0000
0000
1001
0000
0000
0000
0001
0000
0000
0001
0000
0000
0001
0000
,
0100
0010
1000
0001
0101
0000
1100
0000
,
1010
0000
0000
0000
0011
0000
0000
0000
0001
0000
0000
1000
0000
0000
0001
0000
,
0001
0010
0100
1000
0010
0000
0100
0000
,
0010
0000
0010
0000
0000
2000
0000
0000
3001
0000
0000
0000
0001
0000
0000
0000
,
0001
0001
0100
0100
,
0100
0100
1000
1000
,
1000
1000
0010
0010
,
0010
0000
0001
0000
1000
0000
0001
0000
0010
0000
0000
0001
0000
0000
0200
0000
,
0000
0000
0310
0000
0010
0000
1000
0000
0100
0000
0000
0010
0000
0000
0002
0000
,
0000
1003
1000
0010
0110
0000
0100
0001
,
0100
0010
1000
0010
0110
0000
1000
0100
,
0010
0000
0001
0000
0100
0000
0010
0000
1000
0000
0000
1000
0000
0000
1000
0000
,
0001
0000
0000
0001
0000
0000
0001
0000
0100
0000
0000
0010
0000
0000
1000
0000
,
0002
2003
3010
0110
,
0100
0001
0100
0010
1000
0000
1100
0000
,
0100
0010
0001
1000
0010
0000
0110
0000
,
0100
0001
1000
0100
0010
0000
0011
0000
,
0001
0100
0001
1000
0100
0010
0001
0010
,
0100
0010
0001
0100
0010
0010
1000
0001
,
0100
0000
0000
0100
0000
0000
1000
0000
0010
0000
0100
0000
0001
0000
1000
0000
,
0100
0000
0010
0000
0001
0000
0100
0000
0010
0000
0000
0010
0000
0000
1000
0000
,
1001
0000
0220
0330
0010
1000
0001
0010
,
0100
0000
1100
0000
1000
0010
0100
0001
,
1000
0000
1001
0000
0001
0100
0010
1000
,
0100
0000
0110
0000
0010
0001
1000
0010
,
0100
0000
0101
0000
0001
1000
0010
0100
,
0001
1000
0100
0010
0002
0000
0013
0100
,
2000
0000
3010
0100
0001
1000
0100
0010
,
0110
0000
0000
1001
0000
0000
0001
0000
0001
0100
0000
0100
,
0010
0000
0010
1000
0000
1000
0001
0000
0001
0010
0000
0010
,
0100
0000
0100
1000
0000
1000
0020
0000
0000
0130
0000
0100
,
0001
0000
0001
1000
0000
1000
0100
0000
0100
0010
0000
0010
,
0001
0000
0000
0000
0000
0000
0000
0000
0001
0000
0000
0000
1000
0000
0000
0000
0000
0000
1000
0000
0000
0000
0000
0000
1010
0000
0000
0000
0000
0000
0000
0000
0000
0010
0000
0000
0000
0000
0000
0000
0000
0000
0100
0000
0000
0000
0000
0000
,
0001
0000
0000
1000
0000
0000
0100
0000
0010
0000
0000
0001
0000
0000
0100
0000
,
0020
0000
0000
0000
0000
0000
1030
0000
1000
0000
0000
0001
0000
0000
0010
0000
,
0100
0000
0000
1000
0000
0000
0010
0000
0200
0000
0000
0000
0001
0000
0000
0000
,
1000
0000
0000
0000
0301
0000
0000
0000
0100
0000
0000
1000
0000
0000
0020
0000
,
0000
0000
0130
0000
0100
0000
0001
0000
0010
0000
0000
0100
0000
0000
2000
0000
,
0000
3001
0001
0100
0110
0000
0010
1000
,
0010
0100
0001
0100
0110
0000
0001
0010
,
0100
0000
1000
0000
0010
0000
0100
0000
0001
0000
0000
0001
0000
0000
0001
0000
,
1000
0000
0000
1000
0000
0000
1000
0000
0010
0000
0000
0100
0000
0000
0001
0000
,
1000
0000
0000
0100
0000
0000
0010
0000
0001
0000
0000
0100
0000
0000
1000
0000
,
0020
0032
1003
1001
,
0000
0000
0000
0110
0000
0000
0000
0000
,
0010
1000
0100
0010
0001
0100
0110
0000
,
1010
0000
0000
0000
0000
0000
0000
0000
0000
0101
0000
0000
0000
0000
0000
0000
0000
0000
1010
0000
0000
0000
0000
0000
1000
0000
0000
0000
0000
0000
0000
0000
1000
0000
0000
0000
0001
0000
0000
0000
0000
0000
0000
0000
0001
0000
0000
0000
,
0100
0000
0000
0000
0100
0000
0010
0000
0000
0100
0000
0000
0002
0000
0000
0000
0000
0000
0013
0000
0000
0000
0000
0000
,
2000
3010
0002
0103
,
2000
0000
3100
0000
0001
0010
0100
1000
,
0001
0000
0010
0000
0100
0000
1000
0000
0010
0000
0000
0100
0000
0000
0010
0000
,
0220
0000
0330
0000
0010
1000
0100
0010
,
0001
0100
0010
1000
0001
0010
0100
1000
,
0010
0100
0001
0001
1000
0100
0010
0100
,
1000
0010
0100
0001
0010
0100
0010
0001
,
0100
0010
1000
1000
0001
0010
0100
0001
,
0100
1000
0100
0010
1000
0010
0001
0010
,
0100
1000
0010
0100
0001
1000
0100
0010
,
0001
0100
1000
0100
0001
1000
0010
0001
,
0010
1000
0100
0010
0001
0100
0010
1000
,
2002
0000
0000
0000
3003
0000
0000
0000
0010
0000
0000
0010
0000
0000
0010
0000
,
1000
0000
0000
1000
0000
0000
1000
0000
0100
0000
0000
0100
0000
0000
0100
0000
,
0001
0000
0000
0001
0000
0000
0001
0000
0010
0000
0000
1000
0000
0000
0100
0000
,
0110
2002
0000
0000
,
0000
0000
0000
0000
,
3003
0000
0000
0000
;

//---------------dance-single - ----------------
#NOTEDATA:;
#CHARTNAME:;
#STEPSTYPE:dance-single;
#DESCRIPTION:;
#CHARTSTYLE:;
#DIFFICULTY:Challenge;
#METER:13;
#RADARVALUES:0.599422,0.656017,0.482783,0.198793,0.383387,591.000000,523.000000,68.000000,28.000000,0.000000,0.000000,0.000000,0.000000,0.000000,0.599422,0.656017,0.482783,0.198793,0.383387,591.000000,523.000000,68.000000,28.000000,0.000000,0.000000,0.000000,0.000000,0.000000;
#CREDIT:MILEN;
#DISPLAYBPM:140.000000;
#NOTES:
0000
0000
0000
0000
,
0000
0000
0000
0000
,
0000
0000
0000
0000
,
0000
0000
0000
0000
0000
0000
0000
0000
1000
0000
0000
1000
0000
0000
1000
0000
,
0010
0000
0000
0010
0000
0000
0010
0000
0001
0000
0000
0001
0000
0000
0001
0000
,
0100
0000
0000
0100
0000
0000
0100
0000
1100
0000
0000
1100
0000
0000
1010
0000
,
0110
0000
0000
0101
0000
0000
0101
0000
0011
0000
0000
0110
0000
0000
1100
0000
,
2002
0000
3003
0000
0001
0100
0010
1000
,
0001
0000
0010
0000
0100
0000
1000
0000
0001
0000
0100
0000
0010
0000
0010
1000
,
0010
0100
0001
1000
0100
0010
0001
1000
,
0010
0000
0100
0000
0001
0000
1000
0000
0100
0000
0000
0010
0000
0000
0100
0000
,
0110
0000
0010
0000
0001
0000
0100
0000
0010
0000
0000
1000
0000
0000
0001
0000
,
1001
0000
1000
0010
1000
0100
1000
0000
0010
0000
0000
0010
0100
0000
0000
0100
,
0001
0011
0000
0011
0001
0100
1000
0100
,
0010
0001
0010
1000
0100
0010
0001
0100
,
0010
0000
0010
0000
1000
0100
0000
0000
0002
0000
0000
0000
0010
0000
0000
0000
,
1000
0013
2000
0100
,
0001
3100
0002
0100
,
1000
0103
2000
0010
,
0001
0000
0000
0000
3010
0000
0000
0000
0110
0000
0000
1010
0000
0000
0101
0000
,
0000
0000
0001
0010
0001
0000
0100
0000
0110
0000
0000
1010
0000
0000
1100
0000
,
0000
0000
0100
0010
0100
0000
0010
0000
0002
0000
0000
0000
0100
0000
0100
0000
,
0100
0100
0100
0100
0103
0000
0100
0010
,
1000
0000
0001
0000
0010
0000
0100
0000
1000
0000
0000
0010
0000
0000
0001
0000
,
0100
0000
0000
1000
0000
0000
0010
0000
0110
0000
0000
0101
0000
0000
1010
0000
,
1001
0000
0000
0000
0220
0000
0330
0000
0010
0000
0000
0010
1000
0000
0000
1000
,
0100
0000
0010
0000
0001
0000
0100
0000
0010
0000
0000
0010
1000
0000
0000
1000
,
0001
0000
0010
0000
0100
0000
1000
0000
0010
0000
0000
0010
0100
0000
0000
0100
,
0001
0000
1000
0000
0100
0000
0010
0000
0001
0000
0000
0001
0100
0000
0000
0100
,
0010
1000
0001
0010
0100
0001
0100
1000
,
0100
0000
0010
0000
0001
0000
0010
0000
0100
0000
0100
0000
0010
0000
0001
0100
,
0010
0000
1000
0010
0000
0100
0010
0000
1000
0000
1000
0000
0001
0000
0010
0000
,
0100
0000
1000
0000
0010
0000
0100
0000
0101
0000
0000
0011
0000
0000
1100
0000
,
2200
0000
3300
0000
1000
0010
0100
0001
0100
0000
0000
0100
0001
0000
0000
0001
,
0010
0000
1000
0000
0010
0000
0100
0000
1000
0000
0000
1000
0010
0000
0000
0010
,
0001
0000
0010
0000
0100
0000
0001
0000
0010
0000
0000
0010
0100
0000
0000
0100
,
0001
0000
0100
0000
1000
0000
0100
0000
0010
0000
0000
0010
0001
0000
0000
0001
,
0100
0000
1000
0000
0100
0000
0010
0000
0100
0001
0100
0000
0001
0000
0010
0000
,
0100
0000
1000
0000
0010
0000
0100
0000
0010
1000
0010
0000
1000
0000
0100
0000
,
0010
0000
0001
0000
0100
0000
0010
0000
0100
0001
1000
0000
0010
1000
0001
0000
,
0200
0000
0000
0320
0000
0000
1030
0000
1000
0100
0010
0100
,
1000
0000
0100
0010
0001
0010
0100
0000
0010
0001
0010
0100
,
1000
0000
0010
0100
0001
0100
0010
0000
1000
0010
0100
0010
,
1000
0000
0001
0100
1000
0100
0001
0000
1000
0010
0001
0010
,
1000
0000
0000
0000
0000
0000
0000
0000
0001
0000
0000
0000
0100
0000
0000
0000
0000
0000
0010
0000
0000
0100
0000
0000
0002
0000
0000
0000
0000
0000
0000
0000
0000
0000
0000
0000
0010
0000
0000
0000
0000
0000
0000
0000
0000
0000
0000
0000
,
1000
0013
2000
0100
,
0001
3100
0002
0013
,
2000
0000
3100
0000
1001
0001
0010
0100
,
1000
0000
0001
0000
0010
0000
0100
0000
1100
0000
0000
1010
0000
0000
0101
0000
,
0000
0000
0100
0001
0010
0000
0001
0000
1001
0000
0000
1100
0000
0000
0011
0000
,
0000
0000
0010
0100
1000
0000
0010
0000
0200
0000
0000
0000
0001
0000
0001
0000
,
0001
0001
0001
0001
0301
0000
0001
1000
,
0100
0000
0010
0000
0001
0000
0100
0000
0010
0000
0000
1000
0000
0000
0100
0000
,
0001
0000
0000
0010
0000
0000
1000
0000
1100
0000
0000
1100
0000
0000
0110
0000
,
0011
0000
0000
0011
0000
0000
0110
0000
1100
0000
0000
1010
0000
0000
0101
0000
,
0011
1001
0110
2020
,
0000
0000
3030
0101
0000
0000
0000
0000
,
0011
0000
0001
0010
0100
0000
0001
0000
0100
0000
1000
0000
1010
0000
0000
0000
,
0101
0000
0000
0000
0000
0000
0000
0000
0000
0011
0000
0000
0000
0000
0000
0000
0000
0000
1100
0000
0000
0000
0000
0000
1000
0000
0000
0000
0010
0000
0000
0000
0100
0000
0000
0000
0001
0000
0000
0000
0100
0000
0000
0000
0010
0000
0000
0000
,
1000
0000
0100
0000
0010
0000
0002
0000
0000
0000
0000
0000
2003
0000
0000
0000
0000
0000
0100
0000
0000
0100
0000
0000
,
0100
0100
0100
0100
3100
0000
0100
0001
,
0100
0010
1000
0010
0110
0100
0010
0001
,
1000
0000
0100
0000
0010
0000
0001
0000
0101
0000
0000
1100
0000
0000
1010
0000
,
0022
0000
0033
0000
0001
0010
0100
1000
0100
0000
0010
0000
0001
0000
0100
0000
,
0010
0000
1000
0000
0001
0000
0010
0000
0100
1000
0010
0000
0100
0000
0001
0000
,
1000
0000
0100
0000
0010
0000
0001
0000
1000
0010
0100
0000
0001
0000
0010
0000
,
0100
0000
1000
0000
0010
0000
0100
0000
0001
1000
0010
0000
0100
0000
0001
0000
,
1000
0000
0100
0000
0010
0000
0001
0000
0100
0010
1000
0000
0001
0000
0010
0000
,
0100
0000
0001
0000
0100
0000
1000
0000
0010
0100
0001
0000
1000
0000
0010
0000
,
0100
0000
1000
0000
0100
0000
0001
0000
0010
0100
1000
0000
0010
0000
0100
0000
,
0001
1000
0100
0000
0010
0000
0001
0000
0100
0010
1000
0000
0001
0000
0010
0000
,
0100
0010
0001
0000
1000
0000
0010
0000
0100
0001
1000
0000
0010
0100
0010
1000
,
0002
0000
0000
0000
0203
0000
0000
0000
0310
0000
0000
1000
0000
0000
0100
0000
,
0001
0000
0000
1000
0000
0000
0010
0000
0001
0000
0000
0100
0000
0000
0010
0000
,
1010
0000
0000
1100
0000
0000
0011
0000
0101
0000
0000
1100
0000
0000
1010
0000
,
0011
0220
0000
0000
,
0000
0000
0000
0000
,
0330
0000
0000
0000
;

//---------------dance-double - ----------------
#NOTEDATA:;
#CHARTNAME:;
#STEPSTYPE:dance-double;
#DESCRIPTION:;
#CHARTSTYLE:;
#DIFFICULTY:Easy;
#METER:5;
#RADARVALUES:0.223135,0.273340,0.163294,0.078097,0.000000,220.000000,197.000000,23.000000,11.000000,0.000000,0.000000,0.000000,0.000000,0.000000,0.223135,0.273340,0.163294,0.078097,0.000000,220.000000,197.000000,23.000000,11.000000,0.000000,0.000000,0.000000,0.000000,0.000000;
#CREDIT:MILEN;
#DISPLAYBPM:140.000000;
#NOTES:
00000000
00000000
00000000
00000000
,
00000000
00000000
00000000
00000000
,
00000000
00000000
00000000
00000000
,
00000000
00000000
00000100
00000000
,
00000100
00000000
00000100
00000000
,
00000100
00000000
00000100
00000000
,
00000100
00000000
00000100
00000100
,
00000200
00000300
00010000
00000000
,
00001000
00000000
00100000
00000000
,
00010000
00000000
01000000
00000000
,
00001000
00000000
00010000
00000000
,
00000010
00000000
00001000
00000000
,
00000100
00000000
00010000
00000000
,
00001000
00000000
00011000
00010000
,
00001000
00010000
00001000
00010000
,
02000000
03000000
10000000
00000000
,
01000000
00000000
00100000
00000000
,
00010000
00000000
00001000
00000000
,
00000100
00000000
00000010
00000000
,
00000001
00000000
00000100
00000010
,
00000100
00000000
00000010
00000100
,
00000010
00000000
00000100
00000010
,
00000100
00000010
00000110
00000000
,
00000001
00000100
00001000
00000000
,
00011000
00000000
00010000
01000000
,
10000000
10010000
00010000
01000000
,
00010000
00000000
10000000
00100000
,
10000000
00000000
00010000
00100000
,
00010000
00000000
10000000
01000000
,
10000000
00000000
00100000
01000000
,
00100000
00000000
00010000
00001000
,
00010000
00000000
00000010
00000100
,
00000010
00000000
00001000
00000001
,
00002002
00003003
00001000
00001000
,
00000100
00000100
00000010
00000010
,
00000001
00000000
00000100
00000100
,
00001000
00001000
00010000
00010000
,
01000000
00000000
20020000
30030000
,
10000000
00010000
01000000
00001000
,
00010000
00000010
00001000
00000001
,
00001001
00000000
00000110
00000000
,
00000000
00000000
00011000
00000000
,
00000000
00000000
01100000
00000000
,
00000000
00000000
10010000
00000000
,
00000000
00000000
10000000
00000000
,
00100000
00000000
00010000
00000000
,
00001000
00000000
00000100
00000000
,
00000001
00000000
00000020
00000000
,
00000000
00000030
00000100
00000010
,
00000100
00000000
00000010
00000100
,
00000010
00000000
00000100
00000010
,
00000100
00000010
00000110
00000000
,
00000001
00000100
00001000
00000000
,
00011000
00000000
00010000
00100000
,
10000000
01000000
00100000
00010000
,
00001000
00000010
00000100
00000100
,
00000000
00000000
00001001
00000000
,
00000001
00000100
00001000
00010000
,
01000000
10000000
00100000
00010000
,
00001000
00010000
00011000
00000000
,
01000000
00000000
00001000
00000000
,
00010000
00000000
00000010
00000000
,
00001000
00000000
00000001
00000000
,
00002002
00003003
00001000
00000100
,
00010000
00000100
00001000
00000010
,
00000100
00000000
00000001
00001000
,
00000100
00010000
00001000
00100000
,
00010000
00000000
01000000
00100000
,
00010000
00001000
00010000
00100000
,
01000000
00000000
00100000
10000000
,
01000000
00010000
00001000
00000010
,
00000001
00000000
00000010
00000100
,
00010000
00001000
00011000
00000000
,
01010000
00000000
10010000
00000000
,
00011000
00000000
00001100
00000000
,
00001001
00000220
00000000
00000000
,
00000000
00000000
00000000
00000000
,
00000330
00000000
00000000
00000000
;

//---------------dance-double - ----------------
#NOTEDATA:;
#CHARTNAME:;
#STEPSTYPE:dance-double;
#DESCRIPTION:;
#CHARTSTYLE:;
#DIFFICULTY:Medium;
#METER:8;
#RADARVALUES:0.338760,0.410011,0.248491,0.191693,0.000000,334.000000,299.000000,35.000000,27.000000,0.000000,0.000000,0.000000,0.000000,0.000000,0.338760,0.410011,0.248491,0.191693,0.000000,334.000000,299.000000,35.000000,27.000000,0.000000,0.000000,0.000000,0.000000,0.000000;
#CREDIT:MILEN;
#DISPLAYBPM:140.000000;
#NOTES:
00000000
00000000
00000000
00000000
,
00000000
00000000
00000000
00000000
,
00000000
00000000
00000000
00000000
,
00000000
00000000
00000000
00000000
00000100
00000000
00000000
00000100
,
00010000
00000000
00000000
00010000
00001000
00000000
00000000
00001000
,
01000000
00000000
00000000
01000000
00010000
00000000
00000000
00010000
,
00100000
00000000
00000000
00100000
00001000
00000000
00010000
00000000
,
00022000
00033000
00001000
01000000
,
00001000
01000000
00100000
10000000
,
00100000
10000000
01000000
00100000
,
01000000
00100000
00001000
00010000
,
00001000
00010000
00000100
00000010
,
00000001
00000100
00000110
00001001
,
00000220
00000330
00000010
00010000
,
00001000
00100000
00001000
00010000
,
00000100
00000100
00000100
00000000
00002000
00000000
00000010
00000000
,
00000000
00003010
00020000
00001000
,
00000000
00031000
00200000
00010000
,
00000000
00310000
20000000
00100000
,
00000000
00000000
30100000
00000000
10000000
00000000
00010000
01000000
,
00000000
00001000
00010000
00000000
00000100
00000000
00001000
00000010
,
00000000
00010000
00001000
00000000
00200000
00000000
00010000
00000000
,
00010000
00000000
00010000
00000000
00010000
00000000
00300000
00010000
,
01000000
00000000
00001000
00010000
00000100
00000000
00010000
00001000
,
01000000
00000000
00001000
00010000
00000010
00000000
00010000
00001000
,
00200000
00310000
01000000
01100000
,
00100000
10000000
01000000
01100000
,
00100000
00001000
00010000
00011000
,
00001000
00010000
00000100
00001100
,
00001000
00000000
00000100
00000000
00000010
00000000
00000001
00000100
,
00001000
00000000
00000100
00001000
00010000
00000000
00001000
00010000
,
01000000
10000000
00100000
01000000
,
00010000
00100000
00001000
00010000
,
00000200
00000000
00000310
00000010
00000010
00000000
00000011
00000000
,
00000001
00000100
00000010
00001010
,
00001000
00000100
00010000
00011000
,
00001000
01000000
00100000
01100000
,
01000000
00010000
20020000
30030000
,
10000000
00100000
00010000
00001000
,
00000100
00000000
00000001
00000000
00000010
00000100
00000010
00000100
,
00000020
00001030
00011000
00000000
,
00000000
00000000
10010000
00000000
,
00000000
00000000
00011000
00000000
,
00000000
00000000
00001001
00000000
,
00000000
00000000
00012000
01003000
,
00021000
00030010
00012000
00103000
,
00021000
00000000
00000000
00030100
00000100
00000000
00001000
00000010
,
00000100
00000000
00000010
00000100
00000001
00000000
00000010
00000000
,
00000100
00000000
00010000
00000000
00001000
00000000
00100000
00010000
,
00000000
01000000
00010000
00000000
00100000
00000000
00001000
00010000
,
00000000
00000100
00001000
00000000
00000020
00000000
00000100
00000000
,
00000100
00000000
00000100
00000000
00000100
00000000
00000030
00000100
,
00000001
00000000
00000010
00001000
00000010
00000000
00001000
00010000
,
00001000
00000000
00010000
00100000
00010000
00000000
00100000
10000000
,
00100000
00000000
10000000
01000000
10000000
00000000
01000000
00010000
,
00002000
00023000
00031000
00011000
,
00000000
00000000
00000000
00011000
00000000
00000000
00000000
00000000
,
00001000
00100000
00010000
01000000
00200000
00000000
20300000
00000000
,
31000000
00100000
00020000
00031000
,
00000100
00000020
00000031
00000001
,
00000100
00000100
00001000
00001000
,
00010000
00000000
00010000
00000000
00100000
10000000
00100000
00000000
,
01000000
00010000
01000000
00000000
00001000
00010000
00001000
00000000
,
00011000
00000000
00010000
00001000
00010000
00100000
10000000
00000000
,
01000000
00000000
00100000
00000000
00010000
01000000
00001000
00000000
,
00010000
00000000
00000100
00000000
00000010
00000001
00000100
00000000
,
00000010
00000000
00010000
00000000
00001000
00010000
00100000
00000000
,
10000000
00000000
01000000
00000000
00100000
01000000
00010000
00000000
,
00001000
00000000
00100000
00000000
00010000
01000000
00001000
00000000
,
00010000
00000000
00001000
00000000
00000100
00000001
00000010
00000000
,
00000100
00000000
00001100
00000000
00000011
00000000
00000001
00000100
,
00001000
00000000
00010000
00000000
00100000
10000000
01000000
00000000
,
11000000
00110000
10010000
00000000
,
01010000
00000000
00011000
00000000
,
00001001
00000000
00001010
00000000
,
00011000
02200000
00000000
00000000
,
00000000
00000000
00000000
00000000
,
03300000
00000000
00000000
00000000
;

//---------------dance-double - ----------------
#NOTEDATA:;
#CHARTNAME:;
#STEPSTYPE:dance-double;
#DESCRIPTION:;
#CHARTSTYLE:;
#DIFFICULTY:Hard;
#METER:11;
#RADARVALUES:0.451341,0.492013,0.248491,0.212993,0.138445,445.000000,410.000000,35.000000,30.000000,0.000000,0.000000,0.000000,0.000000,0.000000,0.451341,0.492013,0.248491,0.212993,0.138445,445.000000,410.000000,35.000000,30.000000,0.000000,0.000000,0.000000,0.000000,0.000000;
#CREDIT:MILEN;
#DISPLAYBPM:140.000000;
#NOTES:
00000000
00000000
00000000
00000000
,
00000000
00000000
00000000
00000000
,
00000000
00000000
00000000
00000000
,
00000000
00000000
00000000
00000000
00000000
00000000
00000000
00000000
00000010
00000000
00000000
00000010
00000000
00000000
00000010
00000000
,
00010000
00000000
00000000
00010000
00000000
00000000
00010000
00000000
00001000
00000000
00000000
00001000
00000000
00000000
00001000
00000000
,
00100000
00000000
00000000
00100000
00000000
00000000
00100000
00000000
00010000
00000000
00000000
01000000
00000000
00000000
00100000
00000000
,
00010000
00000000
00000000
00001000
00000000
00000000
00000100
00000000
00000010
00000000
00000000
00010000
00000000
00000000
00001000
00000000
,
00022000
00033000
00001000
00010000
,
00100000
00000000
10000000
00000000
01000000
00100000
00010000
01000000
,
00100000
00110000
00010000
00001000
,
00000010
00000000
00000001
00000000
00000100
00000010
00001000
00000100
,
00000010
00000000
00000000
00000000
00001010
00000000
00000000
00000000
00001000
00000000
00000000
00010000
00000000
00000000
00001000
00000000
,
00001000
00100000
01000000
10000000
11000000
00000000
00100000
00000000
,
01010000
00000000
00000000
00000000
00001000
00000000
00000000
00000000
00010000
00000000
00000000
00010000
00000000
00000000
00001000
00000000
,
00001000
00000010
00000001
00000100
00000010
00000000
00010000
00000000
,
00001000
00000000
00001000
00000000
00000000
00010000
00000000
00000000
01010000
00000000
00000000
00000000
10000000
00000000
00000000
00000000
,
10000000
10000000
10100000
00010000
,
00010000
00010000
00101000
00000100
,
00000100
00000100
00001010
00000001
,
00000001
00000000
00000100
00000000
00000010
00000000
00000100
00000000
00000001
00000000
00000000
00001000
00000000
00000000
00000200
00000000
,
00000000
00000000
00010300
00000000
00010000
00000000
00001000
00000000
00100000
00000000
00000000
01000000
00000000
00000000
20000000
00000000
,
00000000
30100000
00100000
01000000
01010000
00000000
00010000
00100000
,
00001000
00010000
00000100
00001000
00000001
00000000
00001000
00000100
,
00000010
00000000
00000001
00000000
00000100
00000000
00001000
00000000
00010000
00000000
00000000
00100000
00000000
00000000
01000000
00000000
,
00100000
00000000
00000000
00010000
00000000
00000000
00001000
00000000
00000100
00000000
00000000
00000010
00000000
00000000
00000100
00000000
,
00002000
00023000
00031000
00011000
,
00010000
01000000
10000000
00100000
01000000
00000000
00010000
00000000
,
00100000
01000000
00010000
00001000
00000010
00000000
00000100
00000000
,
00001000
00000010
00000100
00000001
00001000
00000000
00000100
00000000
,
00000010
00000001
00000100
00001000
00010000
00001000
00000100
00001000
,
00010000
01000000
10000000
00100000
02000000
00000000
03020000
00000000
,
00130000
00000000
00000000
00100000
00000000
00000000
00100000
00000000
01000000
00000000
00010000
00000000
00001000
00000000
00010000
00000000
,
00000100
00000000
00000010
00000000
00000001
00000000
00000100
00000000
00001000
00000000
00000000
00010000
00000000
00000000
00001000
00000000
,
00011000
00000000
00022000
00033000
00001000
00000010
00000001
00000100
,
00000010
00000000
00001000
00000000
00000100
00000010
00001000
00010000
,
01000000
00000000
00100000
00000000
00010000
01000000
00100000
10000000
,
00010000
00000000
00100000
00000000
01000000
10000000
00100000
00010000
,
00001000
00000000
00011000
00000000
00010000
00000100
00000010
00000000
,
00000001
00000100
00000010
00000000
00001000
00000100
00010000
00000000
,
00001000
01000000
00100000
00000000
10000000
01000000
00100000
00010000
,
01010000
10100000
10010000
00000000
,
01100000
00000000
00011000
00000000
,
00000110
00000000
00001001
00000000
,
00000110
00000000
00011000
00000000
,
01100000
00000000
00100000
00000000
10000000
00000000
01000000
00000000
00100000
00000000
00000000
00010000
00000000
00000000
01000000
00000000
,
00001000
00000000
00000000
00010000
00000000
00000000
00000100
00000000
00001000
00000000
00000000
00000100
00000000
00000000
00000010
00000000
,
00000002
00000000
00000000
00000000
00000000
00000000
00000103
00000000
00000100
00000000
00000000
00001000
00000000
00000000
00010000
00000000
,
00100000
00000000
00000000
10000000
00000000
00000000
01000000
00000000
00200000
00000000
00000000
00000000
00010000
00000000
00000000
00000000
,
00001000
00000000
00000000
00000000
00310000
00000000
00000000
00000000
01010000
00000000
00000000
10000000
00000000
00000000
00200000
00000000
,
00000000
00000000
00310000
00000000
00010000
00000000
00001000
00000000
00000100
00000000
00000000
00000001
00000000
00000000
00000020
00000000
,
00000000
00000100
00000130
00000010
00000011
00000000
00000001
00000010
,
00000100
00001000
00010000
01000000
00100000
00000000
10000000
01000000
,
00100000
00000000
00010000
00000000
00001000
00000000
00000010
00000000
00000100
00000000
00000000
00000001
00000000
00000000
00001000
00000000
,
00000100
00000000
00000000
00000010
00000000
00000000
00001000
00000000
00010000
00000000
00000000
01000000
00000000
00000000
00100000
00000000
,
00010000
00000000
00000000
10000000
00000000
00000000
00100000
00000000
00010000
00000000
00000000
00001000
00000000
00000000
00000100
00000000
,
00000002
00002003
00003010
00000110
,
00000000
00000000
00000000
00000110
00000000
00000000
00000000
00000000
,
00000010
00010000
00001000
00010000
01000000
10000000
00100000
00000000
,
01100000
00000000
00000000
00000000
00000000
00000000
00000000
00000000
00000000
01010000
00000000
00000000
00000000
00000000
00000000
00000000
00000000
00000000
10100000
00000000
00000000
00000000
00000000
00000000
10000000
00000000
00000000
00000000
00000000
00000000
00000000
00000000
10000000
00000000
00000000
00000000
01000000
00000000
00000000
00000000
00000000
00000000
00000000
00000000
01000000
00000000
00000000
00000000
,
00010000
00000000
00000000
00000000
00010000
00000000
00001000
00000000
00000000
00000010
00000000
00000000
00000002
00000000
00000000
00000000
00000000
00000000
00000203
00000000
00000000
00000000
00000000
00000000
,
00000320
00020030
00032000
00203000
,
02300000
00000000
23000000
00000000
30010000
01000000
00100000
00010000
,
00001000
00000000
00000100
00000000
00000010
00000000
00001000
00000000
00000001
00000000
00000000
00000100
00000000
00000000
00001000
00000000
,
00022000
00000000
00033000
00000000
00010000
00100000
10000000
00100000
,
00010000
00001000
00100000
01000000
10000000
00100000
01000000
00010000
,
00100000
01000000
00010000
00000000
00001000
00000010
00000001
00000010
,
00001000
00010000
00000010
00000100
00000001
00000010
00000100
00001000
,
00000010
00000100
00001000
00000000
00010000
00100000
10000000
01000000
,
00010000
01000000
10000000
00100000
00010000
00001000
00000010
00001000
,
00010000
00001000
00000100
00000000
00001000
00000100
00000001
00000010
,
00001000
00000010
00000001
00000100
00001000
00010000
01000000
00010000
,
00001000
00010000
00100000
00000000
10000000
01000000
00100000
00001000
,
00022000
00000000
00000000
00000000
00033000
00000000
00000000
00000000
00010000
00000000
00000000
00000100
00000000
00000000
00001000
00000000
,
00000010
00000000
00000000
00000001
00000000
00000000
00000010
00000000
00000100
00000000
00000000
00001000
00000000
00000000
00010000
00000000
,
00100000
00000000
00000000
10000000
00000000
00000000
01000000
00000000
00100000
00000000
00000000
00010000
00000000
00000000
00001000
00000000
,
00011000
00000220
00000000
00000000
,
00000000
00000000
00000000
00000000
,
00000330
00000000
00000000
00000000
;

//---------------dance-double - ----------------
#NOTEDATA:;
#CHARTNAME:;
#STEPSTYPE:dance-double;
#DESCRIPTION:;
#CHARTSTYLE:;
#DIFFICULTY:Challenge;
#METER:13;
#RADARVALUES:0.580151,0.656017,0.468584,0.212993,0.411786,572.000000,506.000000,66.000000,30.000000,0.000000,0.000000,0.000000,0.000000,0.000000,0.580151,0.656017,0.468584,0.212993,0.411786,572.000000,506.000000,66.000000,30.000000,0.000000,0.000000,0.000000,0.000000,0.000000;
#CREDIT:MILEN;
#DISPLAYBPM:140.000000;
#NOTES:
// measure 0
00000000
00000000
00000000
00000000
,  // measure 1
00000000
00000000
00000000
00000000
,  // measure 2
00000000
00000000
00000000
00000000
,  // measure 3
00000000
00000000
00000000
00000000
00000000
00000000
00000000
00000000
01000000
00000000
00000000
01000000
00000000
00000000
01000000
00000000
,  // measure 4
00010000
00000000
00000000
00010000
00000000
00000000
00010000
00000000
00001000
00000000
00000000
00001000
00000000
00000000
00001000
00000000
,  // measure 5
00000100
00000000
00000000
00000100
00000000
00000000
00000100
00000000
00000101
00000000
00000000
00000101
00000000
00000000
00000011
00000000
,  // measure 6
00001010
00000000
00000000
00001010
00000000
00000000
00011000
00000000
01010000
00000000
00000000
11000000
00000000
00000000
10100000
00000000
,  // measure 7
02200000
00000000
03300000
00000000
01000000
00010000
10000000
00100000
,  // measure 8
01000000
00000000
00010000
00000000
00100000
00000000
01000000
00000000
00010000
00000000
00001000
00000000
00000010
00000000
00000001
00000100
,  // measure 9
00000000
00000001
00000010
00001000
00010000
00000100
00001000
00000010
,  // measure 10
00010000
00000000
00001000
00000000
00100000
00000000
01000000
00000000
10000000
00000000
00000000
00100000
00000000
00000000
01000000
00000000
,  // measure 11
01010000
00000000
00010000
00000000
00100000
00000000
01000000
00000000
00010000
00000000
00000000
00001000
00000000
00000000
00010000
00000000
,  // measure 12
00010100
00000000
00000100
00000000
00001000
00000100
00000010
00000000
00000001
00000000
00000000
00000000
00001000
00000000
00000000
00000000
,  // measure 13
00010000
01010000
00000000
10100000
10000000
01000000
00100000
10000000
,  // measure 14
00100000
00010000
00100000
01000000
00100000
00010000
01000000
00001000
,  // measure 15
00010000
00000000
00010000
00000000
00000100
00000010
00000000
00000000
00000002
00000000
00000000
00000000
00000010
00000000
00000000
00000000
,  // measure 16
00000100
00001003
00002000
00000001
,  // measure 17
00000100
00013000
00020000
00001000
,  // measure 18
00100000
10030000
20000000
01000000
,  // measure 19
00100000
00000000
00000000
00000000
30010000
00000000
00000000
00000000
01010000
00000000
00000000
00001000
00000000
00000000
00020000
00000000
,  // measure 20
00000000
00000000
00031000
00010000
00000100
00000000
00001000
00000000
00001010
00000000
00000000
00000010
00000000
00000000
00000200
00000000
,  // measure 21
00000000
00000000
00000301
00000010
00000100
00000000
00010000
00000000
00002000
00000000
00000000
00000000
00100000
00000000
00100000
00000000
,  // measure 22
00100000
00100000
00100000
00100000
00103000
00000000
00100000
00010000
,  // measure 23
00100000
00000000
01000000
00000000
10000000
00000000
00100000
00000000
01000000
00000000
00000000
00010000
00000000
00000000
00100000
00000000
,  // measure 24
00001000
00000000
00000000
00010000
00000000
00000000
00000100
00000000
00001100
00000000
00000000
00001010
00000000
00000000
00000110
00000000
,  // measure 25
00000101
00000000
00000000
00000000
00002002
00000000
00003003
00000000
00001000
00000000
00000000
00001000
00000010
00000000
00000000
00000010
,  // measure 26
00010000
00000000
00000000
00010000
00001000
00000000
00000000
00001000
00100000
00000000
00000000
00100000
00010000
00000000
00000000
00010000
,  // measure 27
01000000
00000000
00000000
01000000
00100000
00000000
00000000
00100000
10000000
00000000
00000000
10000000
01000000
00000000
00000000
01000000
,  // measure 28
00100000
00000000
00000000
00100000
00001000
00000000
00000000
00001000
00010000
00000000
00000000
00010000
00000100
00000000
00000000
00000100
,  // measure 29
00000010
00000000
00000000
00000010
00000001
00000000
00000000
00000001
00000100
00000000
00000010
00000000
00000100
00000000
00001000
00000000
,  // measure 30
00000100
00000000
00000001
00000000
00000010
00000000
00000100
00000000
00010000
00000000
00010000
00000000
00001000
00000000
00100000
00010000
,  // measure 31
01000000
00000000
00100000
01000000
00000000
00010000
01000000
00000000
00100000
00000000
00100000
00000000
10000000
00000000
01000000
00000000
,  // measure 32
00100000
00000000
00001000
00000000
00010000
00000000
00000100
00000000
00001100
00000000
00000000
00010100
00000000
00000000
00011000
00000000
,  // measure 33
02002000
00000000
03003000
00000000
01000000
00100000
01000000
00100000
10000000
00000000
00000000
10000000
00010000
00000000
00000000
00010000
,  // measure 34
01000000
00000000
00000000
01000000
00100000
00000000
00000000
00100000
00010000
00000000
00000000
00010000
00001000
00000000
00000000
00001000
,  // measure 35
00000010
00000000
00000000
00000010
00000001
00000000
00000000
00000001
00000100
00000000
00000000
00000100
00001000
00000000
00000000
00001000
,  // measure 36
00010000
00000000
00000000
00010000
01000000
00000000
00000000
01000000
10000000
00000000
00000000
10000000
00100000
00000000
00000000
00100000
,  // measure 37
01000000
00000000
00000000
01000000
00010000
00000000
00000000
00010000
00100000
00000000
00001000
00000000
00010000
00000000
00001000
00000000
,  // measure 38
00000100
00000000
00000001
00000000
00000010
00000000
00000100
00000000
00001000
00000010
00001000
00000000
00000100
00000000
00010000
00000000
,  // measure 39
00001000
00000000
00100000
00000000
01000000
00000000
10000000
00000000
00100000
01000000
00100000
00000000
00010000
00001000
00010000
00000000
,  // measure 40
00000200
00000000
00000000
00000320
00000000
00000000
00000031
00000000
00000001
00000100
00000000
00000100
,  // measure 41
00000010
00000000
00000010
00001000
00000000
00001000
00010000
00000000
00010000
01000000
00000000
01000000
,  // measure 42
00100000
00000000
00100000
10000000
00000000
10000000
01000000
00000000
01000000
00100000
00000000
00100000
,  // measure 43
00010000
00000000
00010000
00001000
00000000
00001000
00000100
00000000
00000100
00000010
00000000
00000010
,  // measure 44
00000001
00000000
00000000
00000000
00000000
00000000
00000000
00000000
00000001
00000000
00000000
00000000
00000100
00000000
00000000
00000000
00000000
00000000
00000010
00000000
00000000
00001000
00000000
00000000
00000200
00000000
00000000
00000000
00000000
00000000
00000000
00000000
00000000
00000000
00000000
00000000
00000010
00000000
00000000
00000000
00000000
00000000
00000000
00000000
00000000
00000000
00000000
00000000
,  // measure 45
00000001
00001300
00020000
00000010
,  // measure 46
00000100
00031000
00200000
10300000
,  // measure 47
02000000
00000000
03010000
00000000
00011000
00001000
00100000
01000000
,  // measure 48
00010000
00000000
00001000
00000000
00000010
00000000
00000100
00000000
00001100
00000000
00000000
00000101
00000000
00000000
00001001
00000000
,  // measure 49
00000000
00000000
00001000
00000100
00010000
00000000
00001000
00000000
01001000
00000000
00000000
00110000
00000000
00000000
11000000
00000000
,  // measure 50
00000000
00000000
10000000
00100000
01000000
00000000
00010000
00000000
00200000
00000000
00000000
00000000
00001000
00000000
00001000
00000000
,  // measure 51
00001000
00001000
00001000
00001000
00301000
00000000
00001000
00010000
,  // measure 52
00000100
00000000
00000010
00000000
00000001
00000000
00000100
00000000
00001000
00000000
00000000
00010000
00000000
00000000
01000000
00000000
,  // measure 53
00100000
00000000
00000000
00010000
00000000
00000000
10000000
00000000
10100000
00000000
00000000
10100000
00000000
00000000
01100000
00000000
,  // measure 54
01001000
00000000
00000000
01001000
00000000
00000000
00011000
00000000
00010100
00000000
00000000
00001100
00000000
00000000
00000011
00000000
,  // measure 55
00000101
00010010
01001000
20200000
,  // measure 56
00000000
00300000
00000000
30010000
00000000
00000000
00000000
00000000
,  // measure 57
00110000
00000000
00010000
00100000
01000000
00000000
00010000
00000000
00001000
00000000
00000010
00000000
00000011
00000000
00000000
00000000
,  // measure 58
00000101
00000000
00000000
00000000
00000000
00000000
00000000
00000000
00000000
00001100
00000000
00000000
00000000
00000000
00000000
00000000
00000000
00000000
00011000
00000000
00000000
00000000
00000000
00000000
00001000
00000000
00000000
00000000
00010000
00000000
00000000
00000000
00001000
00000000
00000000
00000000
00010000
00000000
00000000
00000000
01000000
00000000
00000000
00000000
00010000
00000000
00000000
00000000
,  // measure 59
01000000
00000000
10000000
00000000
00100000
00000000
00020000
00000000
00000000
00000000
00000000
00000000
00032000
00000000
00000000
00000000
00000000
00000000
00000010
00000000
00000000
00000010
00000000
00000000
,  // measure 60
00000010
00000010
00000010
00000010
00003010
00000000
00000010
00000001
,  // measure 61
00000010
00000100
00001000
00000100
00010100
00010000
00001000
00100000
,  // measure 62
01000000
00000000
10000000
00000000
00100000
00000000
01000000
00000000
01010000
00000000
00000000
00110000
00000000
00000000
00101000
00000000
,  // measure 63
00022000
00000000
00033000
00000000
00010000
00000100
00001000
00000100
00000010
00000000
00000000
00000010
00000001
00000000
00000000
00000001
,  // measure 64
00000100
00000000
00001000
00000000
00010000
00000000
00100000
00000000
10100000
00000000
00000000
10000000
01000000
00000000
00000000
01000000
,  // measure 65
00100000
00000000
00001000
00000000
00010000
00000000
00000100
00000000
00000110
00000000
00000000
00000010
00000001
00000000
00000000
00000001
,  // measure 66
00000100
00000000
00001000
00000000
00000100
00000000
00000010
00000000
00010010
00000000
00000000
00010000
00001000
00000000
00000000
00001000
,  // measure 67
00100000
00000000
01000000
00000000
10000000
00000000
00100000
00000000
01000000
00100000
01000000
00000000
00010000
00000000
00100000
00000000
,  // measure 68
01000000
00000000
00010000
00000000
00001000
00000000
00000010
00000000
00000100
00000010
00000100
00000000
00001000
00000000
00000010
00000000
,  // measure 69
00000001
00000000
00000010
00000000
00000100
00000000
00001000
00000000
00010000
00001000
00010000
00000000
01000000
00000000
10000000
00000000
,  // measure 70
00100000
00000000
01000000
00000000
00010000
00000000
00100000
00000000
00001000
00010000
00001000
00000000
00000010
00000000
00000001
00000000
,  // measure 71
00000100
00000000
00000010
00000000
00000001
00000000
00000010
00000000
00000100
00001000
00010000
00000000
00001000
00010000
00001000
01000000
,  // measure 72
00020000
00000000
00000000
00000000
20030000
00000000
00000000
00000000
30100000
00000000
00000000
00010000
00000000
00000000
00001000
00000000
,  // measure 73
00000100
00000000
00000000
00000001
00000000
00000000
00000010
00000000
00000100
00000000
00000000
00001000
00000000
00000000
00010000
00000000
,  // measure 74
01010000
00000000
00000000
10100000
00000000
00000000
00110000
00000000
00011000
00000000
00000000
00001100
00000000
00000000
00000011
00000000
,  // measure 75
00001010
00022000
00000000
00000000
,  // measure 76
00000000
00000000
00000000
00000000
,  // measure 77
00033000
00000000
00000000
00000000
;
