#TITLE:Only You;
#SUBTITLE:;
#ARTIST:Namolla Family;
#TITLETRANSLIT:;
#SUBTITLETRANSLIT:;
#ARTISTTRANSLIT:;
#GENRE:K-POP;
#CREDIT:;
#BANNER:Only You.png;
#BACKGROUND:Only You-bg.png;
#LYRICSPATH:;
#CDTITLE:;
#MUSIC:Only You.mp3;
#OFFSET:0.279000;
#SAMPLESTART:27.570782;
#SAMPLELENGTH:11.091110;
#LASTBEATHINT:179.522598;
#SELECTABLE:YES;
#BPMS:0.000000=108;
#STOPS:
;
#BGCHANGES:0.000=Only You.avi=1.000=0=0=0=StretchNoLoop====,
99999=-nosongbg-=1.000=0=0=0 // don't automatically add -songbackground-
;
#KEYSOUNDS:;
#ATTACKS:;

//---------------dance-single - ----------------
#NOTES:
     dance-single:
     :
     Beginner:
     1:
     0.062004,0.102942,0.000000,0.000000,0.000000,39.000000,39.000000,0.000000,0.000000,0.000000,0.000000,0.062004,0.102942,0.000000,0.000000,0.000000,39.000000,39.000000,0.000000,0.000000,0.000000,0.000000:
0000
0000
0000
0000
,
0000
0000
0000
0000
,
0000
0000
0000
0000
,
0000
0000
0000
0000
,
0000
0000
0000
0000
,
1000
0000
0000
0000
,
0001
0000
0000
0000
,
1000
0000
0000
0000
,
0001
0000
0000
0000
,
1000
0000
1000
0000
,
0001
0000
0001
0000
,
1000
0000
0000
0000
,
0001
0000
0000
0000
,
1000
0000
0000
0000
,
0100
0000
0000
0000
,
0010
0000
0000
0000
,
0001
0000
0000
0000
,
0010
0000
0000
0000
,
0100
0000
0000
0000
,
1000
0000
0000
0000
,
0001
0000
0001
0000
,
0001
0000
0000
0000
,
1000
0000
0000
0000
,
0001
0000
0000
0000
,
1000
0000
0000
0000
,
0100
0000
0000
0000
,
0010
0000
0000
0000
,
0001
0000
0001
0000
,
1000
0000
1000
0000
,
0001
0000
0000
0000
,
0100
0000
0000
0000
,
0010
0000
0000
0000
,
1000
0000
0000
0000
,
0010
0000
0000
0000
,
0100
0000
0000
0000
,
0001
0000
0000
0000
,
1000
0000
1000
0000
,
1000
0000
0000
0000
;

//---------------dance-single - ----------------
#NOTES:
     dance-single:
     :
     Easy:
     3:
     0.133547,0.164708,0.022258,0.077902,0.000000,84.000000,82.000000,2.000000,7.000000,0.000000,0.000000,0.133547,0.164708,0.022258,0.077902,0.000000,84.000000,82.000000,2.000000,7.000000,0.000000,0.000000:
0000
0000
0000
0000
,
0000
0000
0000
0000
,
0000
0000
0000
0000
,
0000
0000
0000
0000
,
0000
0000
0000
0000
,
1000
0000
1000
0000
,
0001
0000
0001
0000
,
1000
0000
0001
0000
,
1000
0000
0001
0000
,
1000
1000
0010
0000
,
0001
0001
0100
0000
,
1000
0000
0001
0000
,
0100
0010
0200
0300
,
0010
0000
1000
0000
,
0001
0000
0100
0010
,
1000
0000
0001
0000
,
0100
0000
0010
1000
,
0001
0000
0100
0000
,
0010
0000
1000
0001
,
0200
0300
0001
1000
,
0020
0030
0100
0010
,
0110
0000
1000
0000
,
0010
0000
0001
0000
,
0100
0000
1000
0000
,
0010
0000
0001
1000
,
0001
0000
1000
0001
,
1000
0000
0000
0001
,
1000
0010
0100
0001
,
2000
3000
0002
0003
,
1000
0000
0100
0000
,
0010
0000
0001
1000
,
0100
0000
0010
0000
,
0001
0000
1000
0100
,
0010
0000
0001
0000
,
1000
0000
0100
0010
,
0002
0003
0010
0100
,
2000
3000
0001
1000
,
1001
0000
0000
0000
;

//---------------dance-single - ----------------
#NOTES:
     dance-single:
     :
     Medium:
     6:
     0.232117,0.253739,0.044516,0.077902,0.000000,146.000000,142.000000,4.000000,7.000000,0.000000,0.000000,0.232117,0.253739,0.044516,0.077902,0.000000,146.000000,142.000000,4.000000,7.000000,0.000000,0.000000:
0000
0000
0000
0000
,
0000
0000
0000
0000
,
0000
0000
0000
0000
,
0000
0000
0000
0000
,
0000
0000
0000
0000
,
1000
0001
1000
1000
,
0001
1000
0001
0001
,
0100
0010
0100
0100
,
0010
0100
0010
0010
,
1000
0100
1000
0000
0000
0000
1000
0000
,
0001
0010
0001
0000
0000
0000
0001
0000
,
1000
0010
1000
0000
0001
0100
0001
0000
,
2000
3002
0103
0100
,
1000
0010
0001
0100
,
1000
0000
0010
0000
0001
1000
0001
0000
,
1000
0100
0001
0010
,
1000
0000
0100
0000
0001
1000
0001
0000
,
1000
0000
0100
0000
0010
0000
0001
0100
,
0000
0010
1000
0000
0100
0010
0100
0000
,
0001
0000
1000
0000
0010
0100
0010
0000
,
1000
0001
1001
0110
,
1000
0010
0100
0001
,
1000
0000
0000
0000
0010
0110
0000
0000
,
0001
0100
0010
1000
,
0001
0100
1000
0010
,
0002
0003
0001
0100
,
2000
3000
1000
0010
,
0001
0100
0010
0000
1000
0010
0100
0000
,
0001
0000
1000
0000
0010
0100
0020
0000
,
1030
0100
0001
0010
,
1000
0000
0100
0000
0010
0100
0010
0000
,
0001
0100
1000
0010
,
0001
0000
0100
0000
0010
0100
0010
0000
,
1000
0000
0001
0000
0100
0000
0010
1000
,
0000
0001
0100
0000
1000
0001
1000
0000
,
0010
0000
0001
0000
0100
1000
0010
0000
,
0001
0000
0100
0000
1000
0010
0001
0000
,
2002
0000
0000
0000
,
3003
0000
0000
0000
;

//---------------dance-single - ----------------
#NOTES:
     dance-single:
     :
     Hard:
     8:
     0.295711,0.338319,0.066774,0.178063,0.000000,186.000000,180.000000,6.000000,16.000000,0.000000,0.000000,0.295711,0.338319,0.066774,0.178063,0.000000,186.000000,180.000000,6.000000,16.000000,0.000000,0.000000:
0000
0000
0000
0000
,
0000
0000
0000
0000
,
0000
0000
0000
0000
,
0000
0000
0000
0000
,
0000
0000
0000
0000
,
1000
0000
0001
0000
0010
0001
0100
0000
,
0001
0000
1000
0000
0010
1000
0100
0000
,
1000
0000
0001
0000
0100
0010
1000
0000
,
0010
0100
0001
0000
0100
0010
0110
0000
,
1000
0100
0010
0001
0100
0000
0100
0000
,
1000
0100
0010
0001
0100
0000
0100
0000
,
1000
0010
2000
0000
3001
0010
0002
0000
,
1003
0001
0100
0010
0100
0000
0110
0000
,
1000
0000
0010
0000
0001
0000
0100
0010
,
0000
0010
0100
0000
0001
1000
0010
0000
,
0001
0000
0100
0000
1000
0000
0010
0100
,
0000
0100
0010
0000
1000
0001
0100
0000
,
1000
0000
0010
0000
0001
0000
0100
1000
,
0000
0001
0010
0000
0001
1000
0010
0100
,
0001
0000
1000
0000
1000
0001
0100
0010
,
1000
0000
0001
0000
0001
0100
1000
0010
,
0002
0000
2003
0000
3020
0000
0130
0001
,
0100
0000
0010
1000
0010
0100
0001
0000
,
2000
3020
0230
0302
,
1003
1100
0000
1000
0100
0010
0001
1000
,
0010
0000
0000
0001
0010
0100
1000
0001
,
0100
0000
1000
0000
0010
0000
0001
1000
,
1002
0203
2300
3020
,
0130
0010
0001
1000
0100
0010
0110
0000
,
1000
0000
0010
0000
0001
0000
0100
1000
,
0000
0001
0010
0000
1000
0100
0010
0001
,
1000
0000
0100
0000
0001
0000
0010
1000
,
0000
0001
0100
0000
1010
1000
0001
0010
,
0100
0000
0001
0000
0010
0000
1000
0100
,
0000
0010
0001
0000
1000
0010
0100
0001
,
0010
0010
1000
0001
0100
0010
0001
0100
,
1000
0010
2000
0000
3001
0010
0002
0000
,
0203
0000
0000
0000
,
0300
0000
0000
0000
;

//---------------dance-double - ----------------
#NOTES:
     dance-double:
     :
     Easy:
     5:
     0.206680,0.232594,0.089031,0.022258,0.000000,130.000000,122.000000,8.000000,2.000000,0.000000,0.000000,0.206680,0.232594,0.089031,0.022258,0.000000,130.000000,122.000000,8.000000,2.000000,0.000000,0.000000:
00000000
00000000
00000000
00000000
,
00000000
00000000
00000000
00000000
,
00000000
00000000
00000000
00000000
,
00000000
00000000
00000000
00000000
,
00000000
00000000
00000000
00000000
,
00001000
01000000
00001000
00001000
,
00010000
00000100
00010000
00010000
,
00001000
00100000
00001000
00001000
,
00010000
00000010
00010000
00010000
,
00001000
01000000
00000000
00001000
,
00010000
00000010
00000000
00010000
,
00001000
00100000
01000000
00010000
,
00001000
00000010
00000001
00000001
,
00000100
00001000
00010000
00001000
,
00000100
00001000
00010000
00011000
,
00001000
00010000
01000000
00010000
,
00001000
00010000
01000000
11000000
,
10000000
00100000
00010000
00100000
,
10000000
00100000
00010000
00001000
,
00000100
00000001
00000010
00001000
,
00010000
00011000
00001000
00011000
,
00010000
00100000
10000000
00100000
,
00010000
00000000
00011000
00000000
,
00001000
00000100
00000001
00000100
,
00001000
00000000
00010000
00001000
,
00000010
00000000
00001000
00010000
,
00100000
00000000
00010000
00001000
,
00000010
00000001
00000100
00001000
,
00010000
00100000
10000000
01000000
,
00010000
00001000
00010000
01000000
,
00010000
00001000
00010000
00011000
,
00001000
00000010
00000001
00000010
,
00001000
00000010
00000001
00000101
,
00000100
00001000
00010000
00001000
,
00000100
00001000
00010000
00100000
,
10000000
01000000
00010000
00001000
,
00000010
00000001
00000100
00001000
,
00022000
00000000
00000000
00000000
,
00033000
00000000
00000000
00000000
;

//---------------dance-double - ----------------
#NOTES:
     dance-double:
     :
     Medium:
     8:
     0.265504,0.317174,0.044516,0.155805,0.000000,167.000000,163.000000,4.000000,14.000000,0.000000,0.000000,0.265504,0.317174,0.044516,0.155805,0.000000,167.000000,163.000000,4.000000,14.000000,0.000000,0.000000:
00000000
00000000
00000000
00000000
,
00000000
00000000
00000000
00000000
,
00000000
00000000
00000000
00000000
,
00000000
00000000
00000000
00000000
,
00000000
00000000
00000000
00000000
,
10000000
01000000
00010000
00001000
,
00000010
00000000
00000001
00000000
00000100
00000010
00000100
00000000
,
00000001
00000010
00001000
00010000
,
01000000
00000000
10000000
00000000
00100000
01000000
00100000
00000000
,
10000000
01000000
00100000
00000000
01000000
00000000
00010000
00000000
,
00001000
00010000
00000100
00000000
00000010
00000000
00000100
00000000
,
00001000
00000010
00000001
00000000
00000001
00000010
00001000
00000000
,
00000100
00000010
00000001
00000000
00000100
00000000
00001100
00000000
,
00001000
00000000
00010000
00000000
00100000
00000000
10000000
01000000
,
00000000
01000000
10000000
00000000
00100000
00010000
00100000
00000000
,
00010000
00000000
00001000
00000000
00000010
00000000
00000001
00000100
,
00000000
00000100
00000001
00000000
00000010
00001000
00000010
00000000
,
00001000
00000000
00010000
00000000
00100000
00000000
10000000
01000000
,
00000000
01000000
00000000
00000000
00100000
01000000
10000000
00000000
,
00100000
00000000
00110000
00000000
00010000
00001000
00000010
00000000
,
00000001
00000000
00000101
00000000
00001000
00000100
00000010
00000000
,
00000002
00000000
00000023
00000000
00002030
00000000
00013000
00001000
,
00010000
00000000
00100000
00000000
10000000
01000000
10000000
00000000
,
00200000
00320000
00032000
00003020
,
00000100
00000130
00000000
00000001
00000010
00000100
00010000
00001000
,
01000000
00000000
00000000
10000000
01000000
00100000
00001000
00010000
,
00000010
00000100
00000001
00000010
,
00002000
00023000
00230000
20300000
,
31000000
00100000
00010000
00000000
00100000
00001000
00010000
00000000
,
00001000
00000000
00000010
00000000
00000001
00000000
00000100
00001000
,
00000000
00001000
00000100
00000000
00000010
00010000
00001000
00000000
,
00010000
00000000
00100000
00000000
10000000
00000000
01000000
00010000
,
00000000
00010000
01000000
00000000
00100000
00001000
00010000
00000000
,
00001000
00000000
00000100
00000000
00000001
00000000
00000010
00001000
,
00000000
00001000
00010000
00000000
00100000
00010000
00001000
00100000
,
01000000
00000000
11000000
00000000
10000000
00100000
00010000
00001000
,
00000100
00000001
00000020
00000000
00001030
00010000
00002000
00000000
,
00203000
00000000
00000000
00000000
,
00300000
00000000
00000000
00000000
;

//---------------dance-double - ----------------
#NOTES:
     dance-double:
     :
     Hard:
     10:
     0.387922,0.444044,0.344996,0.300481,0.061209,244.000000,213.000000,31.000000,27.000000,0.000000,0.000000,0.387922,0.444044,0.344996,0.300481,0.061209,244.000000,213.000000,31.000000,27.000000,0.000000,0.000000:
// measure 0
00000000
00000000
00000000
00000000
,  // measure 1
00000000
00000000
00000000
00000000
,  // measure 2
00000000
00000000
00000000
00000000
,  // measure 3
00000000
00000000
00000000
00000000
,  // measure 4
00000000
00000000
00000000
00000000
,  // measure 5
00010000
00001000
01000000
00000000
00001000
00010000
00000010
00000000
,  // measure 6
00010000
00001000
00000100
00001000
00010000
01000000
10000000
00000000
,  // measure 7
00100000
01000000
00010000
00000000
01000000
00100000
10000000
00000000
,  // measure 8
01000000
00010000
00001000
00010000
00000100
00000010
00000001
00000000
,  // measure 9
00000101
00000000
00000100
00000010
00000100
00000000
00001000
00000000
00010000
00000000
00100000
00000000
10000000
00000000
00000000
00000000
,  // measure 10
11000000
00000000
01000000
00100000
01000000
00000000
00010000
00000000
00001000
00000000
00000100
00000000
00000001
00000000
00000000
00000000
,  // measure 11
00000010
00001000
00011000
00000000
00100000
00010000
00011000
00000000
,  // measure 12
00001000
00010000
00001000
00000000
00100000
00000000
00010000
00000000
00100000
00000000
01000000
00000000
10000000
00000000
00100000
00000000
,  // measure 13
02100000
00000000
03002000
00000000
00023000
00000000
00030100
00001100
,  // measure 14
00000000
00001000
00000100
00000010
00000001
00000100
00001010
00000000
,  // measure 15
00000120
00000000
00020030
00000000
00032000
00000000
00103000
00110000
,  // measure 16
00000000
00010000
00100000
01000000
10000000
00100000
01010000
00000000
,  // measure 17
01200000
00000000
00320000
00000000
00032000
00000000
00003010
00000110
,  // measure 18
00000000
00000000
00001001
00000000
00000000
00000000
00000001
00000100
00000001
00000000
00000010
00000000
00001000
00000000
00010000
00000000
,  // measure 19
00200000
00000000
00000000
00000000
10300000
00000000
10000000
00100000
10000000
00000000
01000000
00000000
00010000
00000000
00001000
00000000
,  // measure 20
00000020
00000000
00000031
00000100
00000000
00000010
00000110
00000000
,  // measure 21
00000001
00000010
00000100
00001000
00000010
00000100
00001000
00010000
,  // measure 22
00200000
00000000
20300000
00000000
00010000
30010000
00000000
01000000
,  // measure 23
01100000
00100000
10000000
01000000
01010000
00010000
00001000
00000010
,  // measure 24
00000011
00000100
00000000
00000001
00000010
00001000
00010000
00100000
,  // measure 25
10100000
01000000
00000000
10000000
00100000
00010000
00001000
00100000
,  // measure 26
01000000
00000000
00010000
00000000
00001000
00000000
00000010
00000000
00000001
00000000
00000000
00000100
00000001
00000000
00000010
00000000
,  // measure 27
00000011
00000000
00000001
00000100
00000001
00000000
00000100
00001000
00000100
00000000
00001000
00010000
00001000
00000000
00100000
00000000
,  // measure 28
01000000
10000000
00200000
00000000
00310000
00001000
00011000
00000000
,  // measure 29
00010200
00000000
00000320
00000000
00000032
00000000
00000103
00001100
,  // measure 30
00000000
00001000
00000010
00010000
00001000
00100000
00101000
00000000
,  // measure 31
02001000
00000000
03200000
00000000
20300000
00000000
31000000
01010000
,  // measure 32
00000000
00010000
00100000
00001000
00010000
00000010
00010010
00000000
,  // measure 33
00012000
00000000
00003200
00000000
00000302
00000000
00000013
00001010
,  // measure 34
00000000
00000000
00011000
00000000
00000000
00000000
00010000
00000100
00001000
00000000
00000100
00000000
00000010
00000000
00000001
00000000
,  // measure 35
00000200
00000000
00000000
00000000
00001300
00000000
00001000
01000000
00010000
00000000
00100000
00000000
01000000
00000000
10000000
00000000
,  // measure 36
00200000
00000000
00310000
00001000
00000000
00000010
00000101
00001000
,  // measure 37
00022000
00000000
00000000
00000000
,  // measure 38
00033000
00000000
00000000
00000000
;
