#TITLE:Nxde;
#SUBTITLE:;
#ARTIST:(G)I-DLE;
#TITLETRANSLIT:;
#SUBTITLETRANSLIT:;
#ARTISTTRANSLIT:;
#GENRE:K-POP;
#CREDIT:MUINELIM;
#BANNER:Nxde.png;
#BACKGROUND:Nxde-bg.png;
#LYRICSPATH:;
#CDTITLE:;
#MUSIC:Nxde.mp3;
#OFFSET:0.110000;
#SAMPLESTART:97.378647;
#SAMPLELENGTH:14.077644;
#SELECTABLE:YES;
#BPMS:0.000000=136,206.000000=125,208.000000=120,210.000000=110,211.000000=105,212.000000=102,215.000000=136;
#STOPS:117.000000=1.324;
#BGCHANGES:0.000=Nxde.avi=1.000=0=0=0=StretchNoLoop====,
99999=-nosongbg-=1.000=0=0=0 // don't automatically add -songbackground-
;
#KEYSOUNDS:;
#ATTACKS:;

//---------------dance-single - ----------------
#NOTES:
     dance-single:
     :
     Beginner:
     2:
     0.100991,0.162759,0.032881,0.000000,0.000000,86.000000,82.000000,4.000000,0.000000,0.000000,0.000000,0.100991,0.162759,0.032881,0.000000,0.000000,86.000000,82.000000,4.000000,0.000000,0.000000,0.000000:
0000
0000
0000
0000
,
0000
0000
0000
0000
,
0000
0000
0000
0000
,
0000
0000
0000
0000
,
0000
0000
0000
0000
,
0000
0000
0000
0000
,
0000
1000
0000
0000
,
0000
1000
0000
0000
,
0000
0001
0000
0000
,
0000
0001
0000
0000
,
0000
0100
0000
0000
,
0000
0100
0000
0000
,
0000
0010
0000
0000
,
0000
0010
0000
0000
,
0000
1000
0000
1000
,
0000
1000
0000
0000
,
0000
0010
0000
0010
,
0000
0010
0000
0000
,
0000
0100
0000
0100
,
0000
0100
0000
0000
,
0000
0001
0000
0001
,
0000
0001
0000
0000
,
0000
1001
0000
0000
,
0000
0000
0000
0000
,
0000
0000
1001
0000
,
0000
0000
0000
0000
,
0000
1000
0000
1000
,
0000
0001
0000
0001
,
0000
1000
0000
0001
,
0001
0000
0100
0000
,
0000
0000
0010
0000
,
0000
0000
0100
0000
,
0000
0000
0010
0000
,
0010
0000
1000
0000
,
0000
0000
0001
0000
,
0000
0000
1000
0000
,
0000
0000
0001
0000
,
0001
0000
0100
0000
,
0010
0000
0100
0000
,
0010
0000
0100
0000
,
0010
0000
0100
0100
,
0100
0000
0001
0000
,
1000
0000
0001
0000
,
1000
0000
0001
0000
,
1000
0000
0001
0001
,
0001
0000
1000
0000
,
0000
0000
0000
0000
,
0000
0000
0100
0000
,
0000
0000
0000
0000
,
0000
0000
0010
0000
,
0000
0000
0010
0000
,
0000
0000
0010
0000
,
0000
0000
0000
0000
,
0110
0000
0000
0000
,
0001
0000
0000
0000
,
0001
0000
0000
0000
,
0001
0000
0000
0000
,
0001
0000
0001
0000
,
1000
0000
0000
0000
,
1000
0000
0000
0000
,
1000
0000
0000
0000
,
1000
0000
1000
0000
,
0001
0000
0010
0000
,
0100
0000
1000
0000
,
0001
0000
0010
0000
,
0100
0000
1000
0000
,
1001
0000
0000
0000
;

//---------------dance-single - ----------------
#NOTES:
     dance-single:
     :
     Easy:
     6:
     0.258348,0.352645,0.213724,0.098642,0.000000,220.000000,194.000000,26.000000,12.000000,0.000000,0.000000,0.258348,0.352645,0.213724,0.098642,0.000000,220.000000,194.000000,26.000000,12.000000,0.000000,0.000000:
0000
0000
0000
0000
,
0000
0000
0000
0000
,
0000
0000
0000
0000
,
0000
0000
0000
0000
,
0000
0000
0000
0000
,
0000
0000
0000
0000
,
0000
1000
0001
1000
,
0001
1000
1000
1000
,
0000
0001
1000
0001
,
1000
0001
0001
0001
,
0000
0100
0010
0100
,
0010
1000
0001
1000
,
0001
1001
0000
0000
,
1000
1001
0000
0000
,
0001
0000
1000
0000
0001
0000
0100
0100
,
0100
0000
0000
0000
0000
0000
0010
0010
,
0010
0000
0100
0000
0010
0000
1000
1000
,
1000
0000
0001
1000
,
1001
0001
0100
0010
,
1000
0000
0001
0000
0100
0000
0010
0010
,
0010
0000
1000
0100
,
0010
0002
0003
2000
,
3000
1001
0000
0000
,
0010
0100
0010
0100
,
0010
0000
1001
0000
,
0000
0100
0010
0100
,
0010
0100
1000
0100
,
1000
0010
0001
0010
,
0001
0100
1000
0010
,
0001
1001
2000
0000
,
3010
0000
0002
0000
,
0013
0000
2000
0000
,
3010
0000
0001
0100
,
1001
0000
0002
0000
,
0103
0000
2000
0000
,
3100
0000
0002
0000
,
0103
0000
1000
0010
,
1001
0000
1000
0100
,
0110
0000
0001
0010
,
0110
0000
1000
0100
,
0010
0110
0001
1000
,
0001
0000
1000
0010
,
0110
0000
0001
0100
,
0110
0000
1000
0010
,
0110
0001
1000
0001
,
1001
0000
0110
1000
,
0000
1000
0000
1000
,
0000
1000
0110
0001
,
0000
0001
0000
0001
,
0000
0001
0110
1000
,
0100
1000
0110
0001
,
0010
0001
0220
0000
,
0000
0000
0000
0330
,
2002
0000
0000
3003
,
1000
0100
1000
0100
,
0001
0010
0001
0010
,
1000
0100
1000
0100
,
0001
0010
1000
1000
,
0001
0100
0001
0100
,
1000
0010
1000
0010
,
0001
0100
0001
0100
,
1000
0010
0001
0001
,
1001
0100
0010
0100
,
0101
0010
0100
0010
,
1010
0100
0010
0100
,
0110
0000
0001
1000
0000
0001
1000
0000
,
1001
0000
0000
0000
;

//---------------dance-double - ----------------
#NOTES:
     dance-double:
     :
     Easy:
     5:
     0.237211,0.271266,0.106862,0.082202,0.000000,202.000000,189.000000,13.000000,10.000000,0.000000,0.000000,0.237211,0.271266,0.106862,0.082202,0.000000,202.000000,189.000000,13.000000,10.000000,0.000000,0.000000:
00000000
00000000
00000000
00000000
,
00000000
00000000
00000000
00000000
,
00000000
00000000
00000000
00000000
,
00000000
00000000
00000000
00000000
,
00000000
00000000
00000000
00000000
,
00000000
00000000
00000000
00000000
,
00000000
00001000
01000000
00001000
,
01000000
00001000
00001000
00001000
,
00000000
00010000
00000010
00010000
,
00000010
00010000
00010000
00010000
,
00000000
00001000
00100000
00001000
,
00010000
00000100
00010000
00001000
,
00010000
00011000
00000000
00000000
,
00001000
00011000
00000000
00000000
,
00010000
01000000
10000000
00100000
,
00100000
00000000
00000000
00010000
,
00010000
00001000
00000100
00000001
,
00000001
00000000
00000010
00000100
,
00000110
00000001
00000100
00001000
,
00010000
00100000
10000000
01000000
,
01000000
00000000
10000000
01000000
,
00100000
00002000
00003000
00020000
,
00030000
00011000
00000000
00000000
,
01000000
00100000
00010000
00001000
,
00010000
00000000
00011000
00000000
,
00000000
00000010
00000100
00001000
,
00010000
00001000
00100000
00010000
,
01000000
00001000
00010000
00000100
,
00001000
00000010
00010000
00001000
,
00010000
00011000
00002000
00000000
,
00103000
00000000
00020000
00000000
,
00030010
00000000
00002000
00000000
,
01003000
00000000
00001000
00010000
,
00011000
00000000
00020000
00000000
,
00030010
00000000
00002000
00000000
,
00103000
00000000
00020000
00000000
,
00030100
00000000
00010000
00001000
,
00011000
00000000
00010000
01000000
,
10000000
00000000
10000000
01000000
,
00010000
00000000
00010000
01000000
,
10000000
00100000
00010000
00001000
,
00011000
00000000
00001000
00000010
,
00000001
00000000
00000001
00000010
,
00001000
00000000
00001000
00000010
,
00000001
00000100
00001000
00010000
,
00011000
00000000
00100000
01000000
,
00000000
01000000
00000000
01000000
,
00000000
01000000
00010000
00000100
,
00000000
00000100
00000000
00000100
,
00000000
00000100
00000010
00001000
,
00010000
01000000
00100000
00001000
,
00010000
00000010
00000110
00000000
,
00000000
00000000
00000000
00000000
,
02200000
00000000
00000000
03300000
,
10000000
01000000
10000000
01000000
,
00010000
01000000
00010000
01000000
,
00010000
00001000
00010000
00001000
,
00000010
00001000
00000010
00000010
,
00000001
00000100
00000001
00000100
,
00001000
00000100
00001000
00000100
,
00001000
00010000
00001000
00010000
,
00100000
00010000
00100000
00100000
,
10000000
01000000
00100000
01000000
,
00010000
00001000
00010000
00000010
,
00000100
00000010
00001000
00000100
,
00000010
00000001
00000100
00001000
,
00011000
00000000
00000000
00000000
;

//---------------dance-single - ----------------
#NOTES:
     dance-single:
     :
     Medium:
     9:
     0.352293,0.406898,0.205504,0.213724,0.205504,300.000000,275.000000,25.000000,26.000000,0.000000,0.000000,0.352293,0.406898,0.205504,0.213724,0.205504,300.000000,275.000000,25.000000,26.000000,0.000000,0.000000:
0000
0000
0000
0000
,
0000
0000
0000
0000
,
0000
0000
0000
0000
,
0000
0000
0000
0000
,
0000
0000
0000
0000
,
0000
0000
0000
0000
,
0000
1000
0010
0100
,
0001
0000
0000
1000
0000
0001
1000
0000
0001
1000
0000
0000
,
1001
0001
0100
0010
,
1000
0000
0000
0001
0000
1000
0001
0000
1000
0001
0000
0000
,
1000
0100
1100
1000
,
1001
0010
0011
0001
,
1001
0000
0000
1000
0000
0000
0010
0000
0100
0010
0000
0000
,
0100
0000
0000
0001
0000
0000
0010
0000
0100
0010
0000
0000
,
0100
0000
1000
0000
0010
0000
0100
0001
,
0200
0000
0000
0000
0300
0000
0010
1000
,
0010
0000
1000
0000
0100
0000
0010
0001
,
0020
0000
0030
0000
0100
0000
1000
0100
,
1000
0010
0001
0010
,
1000
0000
0100
0000
0001
0000
0100
0010
,
0110
1000
0010
0001
,
0100
0000
1000
0010
1000
0010
0100
0001
,
0100
0020
0000
0030
,
1000
0100
0010
0001
,
2000
3000
0200
0000
,
0300
1000
0001
0010
,
0100
0000
1000
0000
1010
0000
0010
0100
,
0001
0000
0010
0000
0011
0000
0001
0010
,
0100
0000
1000
0010
0100
0000
0001
0100
,
0010
0000
0000
0110
0000
0000
2000
0000
0000
3000
0000
0001
,
0100
0000
0000
0001
0000
0000
2000
0000
0000
3000
0000
0001
,
0010
0001
2000
3000
,
0020
0000
0000
0230
0000
0000
0301
0000
0001
0010
0000
0100
,
1000
0000
0000
0010
0000
0000
0200
0000
0000
0300
0000
0001
,
0100
0000
0000
0010
0000
0000
0200
0000
0000
0300
0000
1000
,
0100
0010
0200
0300
,
0002
2003
3200
0320
,
0032
0000
0000
2003
0000
0000
3010
0000
0000
0100
0000
0001
,
0010
0000
0000
0011
0000
0000
0010
0000
0000
0100
0000
1000
,
0010
0000
0000
1010
0000
0000
0010
0000
0000
1000
0000
0100
,
0010
0000
0100
0010
0000
0001
0100
0000
0001
1000
0000
0010
,
1000
0000
0000
0001
0000
0000
0010
0000
0000
0100
0000
1000
,
0010
0000
0000
1010
0000
0000
0010
0000
0000
0100
0000
0001
,
0010
0000
0000
0011
0000
0000
0010
0000
0000
0100
0000
1000
,
0001
0000
1000
0001
0000
0100
0001
0000
0100
0010
0000
1000
,
0020
0030
0100
0101
,
0000
1100
0000
0101
,
0000
1100
0100
0011
,
0000
1010
0000
0011
,
0000
1010
2000
3001
,
0010
0100
0002
1003
,
0100
0010
1000
0100
,
0001
0010
1000
0100
,
0220
0000
0000
0330
,
1001
0000
0000
0001
0000
0100
0010
0000
0000
1000
0000
0000
,
0001
0000
0000
1000
0000
0010
0100
0000
0001
0100
0000
0010
,
0200
0000
0000
0300
0000
0010
1000
0000
0000
0100
0000
0000
,
0010
0000
0000
0001
0000
1000
0010
0000
0100
0001
0000
0000
,
1001
0000
0000
1000
0000
0100
0010
0000
0000
0001
0000
0000
,
0100
0000
0000
0010
0000
1000
0100
0000
1000
0001
0000
0010
,
0002
0000
0000
0003
0000
0100
0010
0000
0000
1000
0000
0000
,
0001
0000
0000
0010
0000
0100
1000
0000
0001
0010
0000
0000
,
0100
0000
1000
0010
0000
0000
0100
0000
0001
0010
0000
0000
,
0100
0000
1000
0001
0000
0000
0100
0000
0001
1000
0000
0000
,
0100
0000
0010
0001
0000
0000
0100
0000
0010
1000
0000
0010
,
0100
0000
0001
0100
0000
0010
0000
0000
1000
0100
0000
0000
,
1001
0000
0000
0000
;

//---------------dance-double - ----------------
#NOTES:
     dance-double:
     :
     Medium:
     9:
     0.341724,0.406898,0.189064,0.213724,0.180844,291.000000,268.000000,23.000000,26.000000,0.000000,0.000000,0.341724,0.406898,0.189064,0.213724,0.180844,291.000000,268.000000,23.000000,26.000000,0.000000,0.000000:
00000000
00000000
00000000
00000000
,
00000000
00000000
00000000
00000000
,
00000000
00000000
00000000
00000000
,
00000000
00000000
00000000
00000000
,
00000000
00000000
00000000
00000000
,
00000000
00000000
00000000
00000000
,
00000000
01000000
00001000
00010000
,
00000100
00000000
00000000
00001000
00000000
00000001
00001000
00000000
00000001
00001000
00000000
00000000
,
00001001
00000010
00010000
00001000
,
00100000
00000000
00000000
00010000
00000000
10000000
00010000
00000000
10000000
00010000
00000000
00000000
,
10010000
01000000
01100000
00010000
,
00011000
00000100
00000110
00000001
,
00001001
00000000
00000000
00001000
00000000
00000000
00000010
00000000
00010000
00001000
00000000
00000000
,
00100000
00000000
00000000
00010000
00000000
00000000
01000000
00000000
00001000
00010000
00000000
00000000
,
00000100
00000000
00001000
00000000
00000010
00000000
00000100
00000001
,
00000200
00000000
00000000
00000000
00000300
00000000
00001000
00010000
,
00001000
00000000
00100000
00000000
00010000
00000000
10000000
01000000
,
20000000
00000000
30000000
00000000
00010000
00000000
00100000
01000000
,
00100000
01000000
10000000
00100000
,
00010000
00000000
00001000
00000000
00000100
00000000
00000001
00000010
,
00000001
00000100
00001000
00010000
,
01000000
00000000
10000000
00100000
10000000
00100000
00010000
00001000
,
00010000
00000200
00000000
00000300
,
00001000
00000100
00000010
00000001
,
00000200
00000300
00002000
00000000
,
00003000
00010000
00100000
10000000
,
01000000
00000000
00100000
00000000
01100000
00000000
01000000
00010000
,
00001000
00000000
00010000
00000000
00011000
00000000
00010000
00001000
,
00000100
00000000
00000001
00000010
00000100
00000000
00000010
00001000
,
00010000
00011000
00200000
00300000
,
01000000
10000000
00200000
00300000
,
00010000
00001000
00000200
00000300
,
00000002
00000000
00000000
00002003
00000000
00000000
00003010
00000000
00010000
00001000
00000000
00010000
,
00001000
00000100
00000020
00000030
,
00001000
00000001
00000200
00000300
,
00001000
00010000
00200000
00300000
,
20000000
32000000
03200000
00320000
,
02030000
00000000
00000000
03002000
00000000
00000000
00013000
00000000
00000000
00000100
00000000
00001000
,
00000010
00000000
00000000
00000100
00000000
00000000
00000010
00000000
00000000
00001000
00000000
00000100
,
00000010
00000000
00000000
00000100
00000000
00000000
00001000
00000000
00000000
00000010
00000000
00000100
,
00000010
00000000
00001000
00000100
00000000
00010000
00001000
00000000
00010000
00001000
00000000
00010000
,
00001000
00000000
00000000
00100000
00000000
00000000
00010000
00000000
00000000
01000000
00000000
00100000
,
00010000
00000000
00000000
00100000
00000000
00000000
01000000
00000000
00000000
00010000
00000000
00100000
,
01000000
00000000
00000000
00100000
00000000
00000000
00010000
00000000
00000000
01000000
00000000
00100000
,
01000000
00000000
00010000
01000000
00000000
00001000
00010000
00000000
00001000
00010000
00000000
00001000
,
00020000
00030000
00000100
00001100
,
00000000
00000011
00000000
00001100
,
00000000
00011000
00000000
01010000
,
00000000
10100000
00000000
01010000
,
00000000
00011000
02000000
03001000
,
00010000
00010000
00000020
00010030
,
00001000
00001000
00100000
00001000
,
00010000
00000010
00010000
00001000
,
00022000
00000000
00000000
00033000
,
00011000
00000000
00000000
00010000
00000000
00001000
00100000
00000000
00000000
00010000
00000000
00000000
,
00100000
00000000
00000000
00001000
00000000
00010000
00000100
00000000
00010000
00001000
00000000
00010000
,
00000200
00000300
00001100
00000010
,
00000001
00000000
00000000
00000100
00000000
00001000
00010000
00000000
00001000
00010000
00000000
00000000
,
00011000
00000000
00000000
00001000
00000000
00010000
00000010
00000000
00000000
00001000
00000000
00000000
,
00000010
00000000
00000000
00010000
00000000
00001000
01000000
00000000
00001000
00010000
00000000
00001000
,
02000000
03000000
01010000
00100000
,
10000000
00000000
00000000
01000000
00000000
00010000
00001000
00000000
00010000
00001000
00000000
00000000
,
00000100
00000000
00000001
00000010
00000000
00000000
00000100
00000000
00001000
00000010
00000000
00000000
,
00010000
00000000
00001000
00100000
00000000
00000000
00001000
00000000
00010000
00000010
00000000
00000000
,
00000100
00000000
00001000
00010000
00000000
00000000
01000000
00000000
10000000
00100000
00000000
01000000
,
00010000
00000000
00100000
00001000
00000000
00010000
00000000
00000000
00001000
00010000
00000000
00000000
,
00011000
00000000
00000000
00000000
;

//---------------dance-single - ----------------
#NOTES:
     dance-single:
     :
     Hard:
     12:
     0.496733,0.515405,0.419229,0.230165,0.447999,423.000000,372.000000,51.000000,28.000000,0.000000,0.000000,0.496733,0.515405,0.419229,0.230165,0.447999,423.000000,372.000000,51.000000,28.000000,0.000000,0.000000:
0000
0000
0000
0000
,
0000
0000
0000
0000
,
0000
0000
0000
0000
,
0000
0000
0000
0000
,
0000
0000
0000
0000
,
0000
0000
0000
0000
,
0000
2100
3001
2100
,
3001
0000
0000
1100
0000
1000
0010
0000
0100
0001
0000
0000
,
0110
0102
1003
0102
,
1003
0000
0000
0101
0000
0001
0010
0000
0100
1000
0000
0000
,
0110
0000
1000
0020
0000
0000
0130
0000
0000
0201
0000
0000
,
0310
1200
0310
0021
,
0130
0000
0100
0001
0000
0000
0011
0000
0100
1000
0000
0100
,
0010
0000
0000
0110
0000
0000
1100
0000
0010
0001
0000
0010
,
0100
0000
0000
0000
1001
0000
1000
0000
0010
0100
0010
0100
0010
0000
0100
0000
,
0002
0000
0000
0000
0000
0000
0000
0000
0003
0000
0000
0000
0011
0000
0100
1000
,
0100
0000
0000
0000
0000
0000
1000
0000
0001
0100
0001
0100
0001
0000
0010
0000
,
0200
0000
0000
1300
0000
0000
1000
1010
,
0011
0000
0000
0001
0100
0010
1000
0001
,
0010
0100
1000
0001
0100
0010
1000
0001
,
1001
0000
0000
1000
0010
0100
0001
1000
,
0100
0000
0010
0000
0001
0100
0001
0000
1000
0100
1000
0000
0010
0000
0100
0000
,
0010
0010
0220
0000
0000
0330
0000
0100
,
0001
0010
1000
0010
0001
0100
1000
0100
,
0010
0010
0000
0000
2002
0000
0000
3003
,
0000
1000
0100
0001
0100
0010
0001
0100
,
1000
0000
0100
0001
0010
0100
0001
0100
,
1000
0000
0010
0001
0010
1000
0100
0010
,
0001
0001
0100
1000
0001
0010
1000
0100
,
0010
0000
0000
0001
0000
0000
1001
0000
0000
0000
0000
0000
0220
0000
0000
0000
0000
0000
0330
0000
0000
0000
1000
0000
,
0100
0000
0000
0010
0000
0000
0220
0000
0000
0330
0000
0001
,
0100
0010
0220
0330
,
1010
0000
0000
0101
0000
0000
1001
0000
0010
0100
0000
1000
,
0001
0000
0000
0110
0000
0001
2000
0000
0000
0000
0000
3100
,
0010
0000
0000
0011
0000
0000
0002
0000
0000
0000
0000
0013
,
0100
1100
2002
3003
,
0101
0000
0000
1010
0000
0000
1000
0100
0010
0001
0000
0000
,
0001
0100
0010
1000
0000
0000
1100
0000
0010
0001
0000
0100
,
0010
0000
0000
1000
0000
0000
0101
0000
0010
1000
0000
0100
,
0010
0000
0000
0001
0000
0000
1100
0000
0010
0001
0000
0001
,
0100
0000
0100
0010
0000
0010
1000
0000
0100
1000
0000
0001
,
1000
0000
0000
0110
0000
0001
0100
0000
1000
0100
0000
0010
,
0100
0000
0000
0101
0000
0000
1000
0000
0010
0001
0000
0010
,
0100
0000
0000
1010
0000
0000
0001
0000
0100
0010
0000
0010
,
1000
0000
1000
0100
0000
0100
0010
0000
0100
0001
0000
0100
,
1000
0000
0100
0010
0001
1000
0100
0000
0000
0110
0000
0001
,
0100
0000
0000
0110
0000
1000
0100
0000
0000
0110
0000
0001
,
0100
0000
0010
1000
0001
0100
0010
0000
0000
1010
0000
0001
,
0100
0000
0000
0101
0000
1000
0010
0000
0000
1100
0000
0001
,
0010
0000
0000
0011
0000
1000
0200
0000
0000
0001
0000
0000
,
1000
0000
0000
0310
0000
0001
0020
0000
0000
1000
0000
0000
,
0001
0000
0000
0130
0000
1000
0010
0000
0000
0001
0000
0000
,
0100
1000
0010
0001
,
2002
0000
0000
3003
,
1001
0000
0000
1000
0000
0010
0100
0000
0001
1000
0100
0010
,
0001
0000
0000
0100
0000
0010
1000
0000
0001
0010
0100
1000
,
0010
0000
0000
0100
0000
0001
0010
0000
0100
1000
0010
0100
,
0001
0000
1000
0010
0000
0001
0010
0000
0100
0010
0000
0000
,
1001
0000
0000
0001
0000
0100
0010
0000
1000
0001
0100
0010
,
1000
0000
0000
0100
0000
0010
0001
0000
0100
0010
1000
0001
,
0010
0000
0000
0100
0000
1000
0010
0000
0100
0001
1000
0100
,
0010
0000
0000
0001
0000
0100
1000
0000
0100
0010
0000
0100
,
0001
0000
0001
0010
0000
0010
0100
0000
0100
1000
0000
1000
,
0010
0000
0010
0001
0000
0001
0010
0000
0010
1000
0000
1000
,
0100
0000
0100
0001
0000
0001
0100
0000
0100
1000
0000
1000
,
0010
0000
0010
0001
0000
0100
0000
0000
1000
0010
0000
0000
,
0110
0000
0000
0000
;

//---------------dance-double - ----------------
#NOTES:
     dance-double:
     :
     Hard:
     12:
     0.486164,0.515405,0.402788,0.205504,0.419229,414.000000,365.000000,49.000000,25.000000,0.000000,0.000000,0.486164,0.515405,0.402788,0.205504,0.419229,414.000000,365.000000,49.000000,25.000000,0.000000,0.000000:
00000000
00000000
00000000
00000000
,
00000000
00000000
00000000
00000000
,
00000000
00000000
00000000
00000000
,
00000000
00000000
00000000
00000000
,
00000000
00000000
00000000
00000000
,
00000000
00000000
00000000
00000000
,
00000000
01001000
00010000
00010100
,
00001000
00000000
00000000
00011000
00000000
00010000
00000010
00000000
00010000
00000100
00000000
00000000
,
00011000
00010010
00001000
00101000
,
00010000
00000000
00000000
00011000
00000000
00001000
01000000
00000000
00001000
00100000
00000000
00000000
,
00011000
00000000
00010000
00000100
00000000
00000000
00001100
00000000
00000000
00000010
00000000
00000000
,
00010010
00001000
00101000
01000000
,
01010000
00000000
00010000
00100000
00000000
00000000
11000000
00000000
00100000
00010000
00000000
00100000
,
00001000
00000000
00000000
00011000
00000000
00000000
00010100
00000000
00001000
00000100
00000000
00000010
,
00000001
00000000
00000000
00000000
00000100
00000000
00001000
00000000
00010000
00001000
00010000
00001000
00010000
00000000
00100000
00000000
,
20000000
00000000
00000000
00000000
00000000
00000000
00000000
00000000
30000000
00000000
00000000
00000000
11000000
00000000
01000000
00100000
,
01000000
00000000
00000000
00000000
00000000
00000000
00100000
00000000
00001000
00010000
00001000
00010000
00001000
00000000
00000010
00000000
,
00000002
00000000
00000000
00000103
00000000
00000000
00000100
00001000
,
00011000
00000000
00000000
00010000
00100000
10000000
01000000
00100000
,
01000000
00010000
00001000
00010000
00000010
00000100
00000010
00001000
,
00001001
00000000
00000000
00000001
00000100
00001000
00010000
00100000
,
10000000
00000000
01000000
00000000
00100000
01000000
00100000
00000000
00010000
00000000
01000000
00000000
00100000
00000000
00010000
00000000
,
00001000
00010000
00022000
00000000
00000000
00033000
00000000
00001000
,
00000100
00000001
00000100
00001000
00010000
00001000
00000010
00000001
,
00000010
00001000
00000000
00000000
00022000
00000000
00000000
00033000
,
00000000
00010000
00100000
10000000
00100000
00010000
00001000
00010000
,
01000000
00000000
10000000
00100000
00010000
00001000
00010000
00001000
,
00000100
00000000
00000001
00000010
00001000
00010000
00001000
00010000
,
01000000
01000000
10000000
00100000
00010000
00001000
00000100
00000001
,
00000010
00000000
00000000
00001000
00000000
00000000
00011000
00000000
00000000
00000000
00000000
00000000
00022000
00000000
00000000
00000000
00000000
00000000
00033000
00000000
00000000
00000000
00001000
00000000
,
00100000
00000000
00000000
00010000
00000000
00000000
02020000
00000000
00000000
03030000
00000000
01000000
,
00001000
00010000
00022000
00033000
,
00101000
00000000
00000000
00010010
00000000
00000000
00011000
00000000
00100000
00010000
00000000
01000000
,
00001000
00000000
00000000
00011000
00000000
00010000
00000200
00000000
00000000
00000300
00000000
00001000
,
00000010
00000000
00000000
00010000
00000000
00000000
00022000
00000000
00000000
00033000
00000000
00100000
,
00010000
01000000
02200000
03300000
,
10100000
00000000
00000000
01010000
00000000
00000000
00010000
00100000
00001000
00010000
00000000
00000000
,
00001000
00010000
00000010
00001000
00000000
00000000
00001100
00000000
00000010
00000001
00000000
00000001
,
00000100
00000000
00000000
00001000
00000000
00000000
00011000
00000000
00100000
01000000
00000000
01000000
,
10000000
00000000
00000000
00100000
00000000
00000000
01100000
00000000
00010000
10000000
00000000
10000000
,
00100000
00000000
00100000
00010000
00000000
00010000
00001000
00000000
00001000
00000100
00000000
00000100
,
00000010
00000000
00000000
00001001
00000000
00000001
00000100
00000000
00000100
00001000
00000000
00001000
,
00010000
00000000
00000000
00011000
00000000
00000000
00100000
00000000
00010000
01000000
00000000
01000000
,
00100000
00000000
00000000
10100000
00000000
00000000
10000000
00000000
10000000
01000000
00000000
01000000
,
00100000
00000000
00100000
00001000
00000000
00001000
00010000
00000000
00010000
00000100
00000000
00000100
,
00001000
00000000
00000100
00000010
00000001
00000010
00000001
00000000
00000000
00000101
00000000
00000100
,
00001000
00000000
00000000
00011000
00000000
00001000
00000100
00000000
00000000
00000101
00000000
00000100
,
00001000
00000000
00010000
00001000
00010000
00001000
00100000
00000000
00000000
00110000
00000000
00010000
,
01000000
00000000
00000000
11000000
00000000
01000000
00010000
00000000
00000000
00110000
00000000
00010000
,
01000000
00000000
00000000
11000000
00000000
01000000
00020000
00000000
00000000
00230000
00000000
00000000
,
02300000
00000000
00000000
03010000
00000000
00001000
00020000
00000000
00000000
00030200
00000000
00000000
,
00000320
00000000
00000000
00000031
00000000
00000100
00001000
00000000
00000000
00010000
00000000
00000000
,
01000000
10000000
00100000
00010000
,
00022000
00000000
00000000
00033000
,
00011000
00000000
00000000
00001000
00000000
00000100
00000001
00000000
00000010
00000100
00000000
00000010
,
00001000
00000000
00000000
00010000
00000000
01000000
10000000
00000000
00100000
00010000
00000000
00001000
,
00010000
00000000
00000000
00000100
00000000
00000010
00000001
00000000
00000100
00001000
00000000
00010000
,
00001000
00000000
00100000
01000000
00000000
10000000
00100000
00000000
00010000
00100000
00000000
00000000
,
10010000
00000000
00000000
00010000
00000000
10000000
01000000
00000000
00100000
01000000
00000000
00010000
,
00001000
00000000
00000000
00100000
00000000
01000000
00010000
00000000
00001000
00010000
00000000
00000100
,
00000010
00000000
00000000
00000100
00000000
00001000
00000010
00000000
00000001
00000010
00000000
00000100
,
00001000
00000000
00000000
00010000
00000000
01000000
10000000
00000000
00100000
01000000
00000000
00100000
,
00010000
00000000
00010000
00001000
00000000
00001000
00000010
00000000
00000010
00000001
00000000
00000001
,
00001000
00000000
00001000
00000010
00000000
00000010
00010000
00000000
00010000
00100000
00000000
00100000
,
10000000
00000000
10000000
01000000
00000000
01000000
00010000
00000000
00010000
00000100
00000000
00000100
,
00000010
00000000
00000010
00000001
00000000
00000100
00000000
00000000
00001000
00010000
00000000
00000000
,
00011000
00000000
00000000
00000000
;

//---------------dance-single - ----------------
#NOTES:
     dance-single:
     :
     Challenge:
     15:
     0.624733,0.788657,0.797356,0.493210,0.694604,532.000000,435.000000,97.000000,60.000000,0.000000,0.000000,0.624733,0.788657,0.797356,0.493210,0.694604,532.000000,435.000000,97.000000,60.000000,0.000000,0.000000:
0000
0000
0000
0000
,
0000
0000
0000
0000
,
0000
0000
0000
0000
,
0000
0000
0000
0000
,
0000
0000
0000
0000
,
0000
0000
0000
0000
,
0000
1001
0110
1001
,
0110
0000
0000
1001
0000
1000
0010
0000
0001
0100
0000
0000
,
0110
0000
0001
1001
0000
0000
0110
0000
0000
1001
0000
1000
,
0100
0000
0001
0010
0000
0100
1000
0000
0010
0001
0000
0000
,
1001
0100
0110
0000
1010
0000
1100
0000
,
0011
0101
0110
1001
,
0101
0000
0010
1010
0000
0000
1001
0000
0001
0100
0000
1000
,
0010
0000
0000
1001
0000
0000
0110
0000
0010
1000
0000
0100
,
0001
0000
0000
0000
1001
0000
1000
0000
0010
0100
0010
0100
0001
0000
0010
0000
,
0200
0000
0000
0000
0000
0000
1000
0000
1300
0000
0000
0000
1010
0000
0010
0200
,
0002
0000
0303
0000
0000
0000
0011
0000
0010
0100
0010
0100
1000
0000
0010
0000
,
0220
0330
0000
2002
3003
0000
0011
1010
,
1001
0000
0000
0000
0001
0000
0100
0010
0100
0000
0001
0000
0010
0000
0100
0010
,
0100
0000
0010
0000
0001
0000
0100
0010
0100
0000
0010
0000
1010
0000
1100
0000
,
0101
0000
0000
0000
0001
0000
1000
0100
1000
0000
0001
0010
0001
0000
1000
0100
,
1000
0000
0020
0000
0000
0000
0130
0000
0100
0001
0100
0000
0010
1000
0010
0000
,
1000
0001
1000
0000
2002
0000
0000
0000
0000
0000
3003
0000
0000
0000
0001
0000
,
0100
1000
0100
0001
0010
1000
0010
0001
,
0200
0000
0000
0000
0020
0000
0000
0330
,
0000
0000
1000
0000
0010
0000
0001
0000
1000
0000
0100
0000
0001
0000
0010
0100
,
0010
0100
1100
1000
1010
1000
1100
1000
,
1001
0000
0011
0001
0101
0001
0011
0001
,
1001
0000
1010
0110
0101
0011
0110
1100
,
1001
0000
0000
0110
0000
0000
2002
0000
0000
3003
0000
0000
0220
0000
0000
0000
0000
0000
0300
0000
0000
0000
1030
0000
,
1100
0000
0100
0010
0001
0200
0020
0000
0000
0300
0000
0130
,
0101
0000
0001
0010
0100
1000
2002
0000
0000
3003
0000
0000
,
1010
0000
0000
0101
0000
0000
0110
0000
1000
1100
0000
0001
,
0011
0000
0000
0110
0000
0100
2002
0000
0000
3000
0000
1003
,
1100
0000
0100
1000
0001
0020
0200
0000
0000
0030
0000
0310
,
0011
0000
0001
0100
0010
1000
2002
0000
0000
3003
0000
0000
,
0101
0000
0000
1010
0000
0010
0100
0001
0010
0100
1000
0010
,
0100
0001
0010
0100
1000
0002
0013
0000
2000
3010
0000
0002
,
0013
0000
1000
0100
0010
0002
0103
0000
2000
3100
0000
0002
,
0103
0000
1000
0010
0100
0002
0013
0000
2000
3010
0000
0002
,
0103
0000
2000
3100
0000
0001
0011
0000
0100
0110
0000
1000
,
1100
0000
0000
0110
0000
0002
0103
0000
2000
3010
0000
0002
,
1003
0000
0001
0010
0100
2000
3010
0000
0002
0013
0000
2000
,
3010
0000
0001
0100
0010
2000
3100
0000
0002
0103
0000
2000
,
3010
0000
0002
0013
0000
1000
1100
0000
0010
0110
0000
0001
,
1001
0000
1000
0010
0001
1000
0200
0000
0000
0010
0300
0001
,
0020
0000
0000
0100
0030
0001
0200
0000
0000
0010
0300
0001
,
0010
0000
0100
1000
0001
0010
0200
0000
0000
0010
0300
1000
,
0020
0000
0000
0100
0030
1000
0200
0000
0000
0010
0300
1000
,
0010
0000
0100
0001
1000
0010
0110
0000
0000
1100
0000
0000
,
0011
0000
0000
1001
0000
0100
0110
0000
0000
0101
0000
0000
,
1010
0000
0010
0100
0010
1000
1100
0000
0000
0101
0000
0000
,
0011
1010
1001
0110
,
2002
0000
0000
3003
,
1001
0000
0001
0100
0000
1000
0010
0000
0001
0100
1000
0100
,
0001
0000
1000
0010
0000
0001
0100
0000
1000
0010
0001
0010
,
1000
0000
0100
0001
0000
0010
1000
0000
0100
0010
0001
1000
,
0100
0000
0000
0000
0001
0000
0010
0000
0000
0000
1000
0000
0100
0000
0000
0000
0000
0000
0220
0000
0000
0330
0000
0000
,
0110
0000
0010
0001
0000
0100
1000
0000
0010
0001
0100
0001
,
0010
0000
0100
1000
0000
0010
0001
0000
0100
1000
0010
1000
,
0100
0000
0001
0010
0000
1000
0100
0000
0001
0010
0100
1000
,
0010
0000
0000
1001
0000
0001
0101
0000
1000
1010
0000
0000
,
0110
0010
1000
0100
0010
0001
0100
1000
0100
0001
0010
0100
,
1000
0010
0001
0010
1000
0100
0010
0001
0100
1000
0001
0010
,
1000
1000
1000
0100
0100
0100
0010
0010
0010
0001
0001
0001
,
0200
0000
0310
1000
0000
0202
0303
0000
0010
0100
0000
0000
,
1020
0000
0031
0000
0000
0000
0000
0000
0000
0000
0000
0000
;

//---------------dance-double - ----------------
#NOTES:
     dance-double:
     :
     Challenge:
     15:
     0.578935,0.679876,0.517871,0.649393,0.674054,493.000000,430.000000,63.000000,79.000000,0.000000,0.000000,0.578935,0.679876,0.517871,0.649393,0.674054,493.000000,430.000000,63.000000,79.000000,0.000000,0.000000:
// measure 0
00000000
00000000
00000000
00000000
,  // measure 1
00000000
00000000
00000000
00000000
,  // measure 2
00000000
00000000
00000000
00000000
,  // measure 3
00000000
00000000
00000000
00000000
,  // measure 4
00000000
00000000
00000000
00000000
,  // measure 5
00000000
00000000
00000000
00000000
,  // measure 6
00000000
00011000
01000000
10010000
,  // measure 7
01000000
00000000
00000000
00011000
00000000
00100000
00001000
00000000
00010000
00000100
00000000
00000000
,  // measure 8
00011000
00000000
00001000
00011000
00000000
00000000
00000010
00000000
00000000
00001001
00000000
00000001
,  // measure 9
00000100
00000000
00000010
00001000
00000000
00000100
00010000
00000000
00001000
01000000
00000000
00000000
,  // measure 10
01100000
10000000
12000000
00000000
03010000
00000000
01020000
00000000
,  // measure 11
00031000
00012000
00003100
00001200
,  // measure 12
00000301
00000000
00000001
00000011
00000000
00000000
00001100
00000000
00000100
00010000
00000000
00001000
,  // measure 13
00100000
00000000
00000000
01100000
00000000
00000000
10010000
00000000
00010000
01000000
00000000
00100000
,  // measure 14
10000000
00000000
00000000
00000000
01000000
00000000
00010000
00000000
00001000
00010000
00001000
00010000
00000100
00000000
00000010
00000000
,  // measure 15
00000002
00000000
00000000
00000100
00000103
00000000
00000110
00001000
,  // measure 16
00002002
00000000
00003003
00000000
00000000
00000000
00001001
00000000
00000001
00000100
00000001
00000100
00000010
00000000
00010000
00000000
,  // measure 17
00020200
00030300
00000000
02002000
03003000
00000000
00011000
00100000
,  // measure 18
01100000
00000000
01000000
20000000
30100000
00200000
00310000
00020000
,  // measure 19
00031000
00002000
00003100
00000200
00000301
00000001
00000011
00001010
,  // measure 20
00001001
00000000
00000001
00000200
00001300
00002000
00013000
00020000
,  // measure 21
01030000
00000000
02000000
00000000
00000000
00000000
13000000
00000000
10000000
00100000
01000000
00000000
00100000
01000000
00010000
00000000
,  // measure 22
00100000
00001000
00010000
00000000
00022000
00000000
00000000
00000000
00000000
00000000
00033000
00000000
00000000
00000000
00001000
00000000
,  // measure 23
00010000
01000000
10000000
00100000
00010000
00001000
00000100
00000001
,  // measure 24
00000020
00000000
00000000
00000000
00000200
00000000
00000000
00000330
,  // measure 25
00000000
00000000
00000001
00000000
00000100
00000000
00001000
00000000
00010000
00000000
00100000
00000000
10000000
00000000
01000000
00100000
,  // measure 26
01000000
00010000
00011000
00001000
01001000
00001000
00011000
00001000
,  // measure 27
00101000
00000000
00011000
00010000
00010010
00010000
00011000
00010000
,  // measure 28
00010100
00000000
00001100
00000010
00000101
00001000
00011000
00100000
,  // measure 29
10100000
00000000
00000000
01000000
00000000
00000000
00220000
00000000
00000000
00330000
00000000
00000000
02200000
00000000
00000000
00000000
00000000
00000000
03300000
00000000
00000000
00000000
10000000
00000000
,  // measure 30
00100000
00000000
00100000
00010000
00001000
00000100
00000220
00000000
00000000
00000330
00000000
00000001
,  // measure 31
00000100
00000000
00000100
00001000
00010000
00100000
02200000
00000000
00000000
03300000
00000000
00000000
,  // measure 32
10010000
00000000
00000000
01100000
00000000
00000000
10100000
00000000
01000000
00010000
00000000
00010000
,  // measure 33
00001000
00000000
00001000
00000010
00000000
00000010
00000220
00000000
00000000
00000330
00000000
00000001
,  // measure 34
00000010
00000000
00000010
00001000
00010000
01000000
02200000
00000000
00000000
03300000
00000000
10000000
,  // measure 35
01000000
00000000
01000000
00010000
00001000
00000010
00000220
00000000
00000000
00000330
00000000
00000000
,  // measure 36
00001001
00000000
00000000
00000110
00000000
00000001
00000100
00001000
00010000
00100000
10000000
01000000
,  // measure 37
00010000
00001000
00000100
00000010
00001000
00000002
00000103
00000000
00000200
00001300
00000000
00002000
,  // measure 38
00013000
00000000
00001000
00010000
01000000
20000000
30100000
00000000
00200000
00310000
00000000
00020000
,  // measure 39
00031000
00000000
00010000
00001000
00000100
00000002
00000013
00000000
00000020
00001030
00000000
00002000
,  // measure 40
00013000
00000000
00020000
01030000
00000000
10000000
00100000
00000000
01000000
00010000
00000000
00001000
,  // measure 41
00000010
00000000
00000000
00000110
00000000
00000200
00000301
00000000
00000002
00000013
00000000
00000020
,  // measure 42
00001030
00000000
00000010
00001000
00010000
02000000
13000000
00000000
20000000
30100000
00000000
00200000
,  // measure 43
00310000
00000000
00100000
00010000
00001000
00000020
00000031
00000000
00000002
00000103
00000000
00000200
,  // measure 44
00001300
00000000
00002000
00013000
00000000
00100000
10000000
00000000
01000000
00100000
00000000
00010000
,  // measure 45
00001000
00000000
00000010
00000100
00000001
00001000
00000200
00000000
00000000
00000310
00000000
00000010
,  // measure 46
00002000
00000000
00000000
00013000
00000000
00010000
02000000
00000000
00000000
03100000
00000000
00100000
,  // measure 47
00010000
00000000
00010000
10000000
00100000
00010000
00002000
00000000
00000000
00103000
00000000
00100000
,  // measure 48
02000000
00000000
00000000
03010000
00000000
00010000
00002000
00000000
00000000
00003010
00000000
00000010
,  // measure 49
00000100
00000000
00001000
00000010
00000001
00000010
00002000
00000000
00000000
00003200
00000000
00000000
,  // measure 50
00000320
00000000
00000000
00002030
00000000
00013000
00200000
00000000
00000000
02300000
00000000
00000000
,  // measure 51
03020000
00000000
10030000
00100000
00010000
00001000
00101000
00000000
00000000
00010010
00000000
00000000
,  // measure 52
01001000
00010100
00000110
00011000
,  // measure 53
02200000
00000000
00000000
03300000
,  // measure 54
10010000
00000000
10000000
00100000
00000000
01000000
00010000
00000000
00001000
00000010
00000100
00000001
,  // measure 55
00001000
00000000
00000001
00000010
00000000
00000100
00001000
00000000
00010000
00100000
01000000
10000000
,  // measure 56
00010000
00000000
10000000
00100000
00000000
01000000
00010000
00000000
00001000
00000010
00000100
00000001
,  // measure 57
00001000
00000000
00000100
00000010
00000000
00000001
00000100
00000000
00001000
00010000
00000000
00000000
,  // measure 58
00011000
00000000
00001000
00000010
00000000
00000001
00000100
00000000
00001000
00000010
00010000
00001000
,  // measure 59
00100000
00000000
00010000
01000000
00000000
10000000
00100000
00000000
00010000
01000000
00100000
10000000
,  // measure 60
00010000
00000000
01000000
10000000
00000000
00100000
00010000
00000000
01000000
00001000
00010000
00000100
,  // measure 61
00000010
00000000
00000000
00001001
00000000
00000200
00000310
00000000
00000020
00000130
00000000
00000000
,  // measure 62
00000001
00000010
00000100
00001000
00000010
00000100
00001000
00010000
00000100
00001000
01000000
00010000
,  // measure 63
00001000
00000100
00010000
01000000
00001000
00010000
00100000
01000000
00010000
00100000
01000000
10000000
,  // measure 64
00100000
00100000
00100000
00010000
00010000
00010000
00001000
00001000
00001000
00000010
00000010
00000010
,  // measure 65
00000002
00000000
00000103
00001000
00000000
00022000
00033000
00000000
00010000
00100000
00000000
00000000
,  // measure 66
20100000
00000000
31000000
00000000
00000000
00000000
00000000
00000000
00000000
00000000
00000000
00000000
;
